#TITLE:Oh L'amour;
#SUBTITLE:;
#ARTIST:Erasure;
#GENRE:Pop;
#TITLETRANSLIT:;
#SUBTITLETRANSLIT:;
#ARTISTTRANSLIT:;
#CREDIT:;
#BANNER:oh.png;
#BACKGROUND:oh-bg.png;
#LYRICSPATH:;
#CDTITLE:;
#MUSIC:oh.ogg;
#OFFSET:-0.000;
#SAMPLESTART:26.341;
#SAMPLELENGTH:14.000;
#SELECTABLE:YES;
#BPMS:0.000=123.000;
#STOPS:;
#BGCHANGES:;

//---------------dance-single - Renard----------------
#NOTES:
     dance-single:
     Renard:
     Challenge:
     9:
     0.621,0.609,0.769,0.021,0.256:
0000
0000
0000
0000
,
0000
0000
0000
0000
,
1000
0000
0000
0000
0001
0000
0000
0000
0100
0000
0001
0100
0000
0001
0100
0001
,
0100
0000
0010
0000
1000
0000
0100
0000
1000
0000
0100
1000
0000
0100
1000
0000
,
0010
0000
0100
0000
0001
0000
1000
0000
0100
0000
0010
0100
0000
0010
0100
0000
,
0010
0100
1000
0010
0100
0001
1000
0010
,
0101
0000
0110
0000
0101
0000
0000
0000
0010
0100
0010
0100
0010
0000
0100
0000
,
1001
0000
1010
0000
1100
0000
0000
0000
1000
0010
1000
0100
1000
0000
0010
0000
,
0101
0000
1010
0000
1001
0000
0000
0000
0100
1000
0100
1000
0010
0000
0100
0000
,
0101
1010
1100
0000
1000
0100
1000
0010
,
1000
0010
1000
0010
1000
0000
0001
0000
0100
0000
0100
0000
0010
0000
0100
0000
,
0010
0100
0010
0100
0010
0000
0100
0000
0001
0000
0100
0000
0010
0000
1000
0000
,
0100
1000
0100
1000
0100
0000
0100
0000
1000
0000
0010
0000
0100
0000
0001
0000
,
1000
0001
1000
0001
1000
0000
0010
1000
0010
0000
1000
0000
0001
0000
0100
0000
,
0010
1000
1001
0000
1100
1010
0000
0101
,
0000
0000
1000
0000
0100
0000
0010
0000
0001
0010
0100
0000
0010
0001
0010
0000
,
0100
0010
0011
0000
1001
1010
0000
1100
,
0000
0000
1010
0000
0000
0000
2002
0000
0000
0000
0110
3003
0000
0000
0000
0000
,
1000
0000
0010
0100
0001
0000
0010
0000
0100
0000
1000
0000
0010
0000
1001
0000
,
0000
0010
0100
0001
0010
0100
1010
0001
,
1100
0001
1010
0101
1010
0101
1000
1100
,
0001
1010
0001
0110
0001
1001
0110
0000
,
0001
1000
0010
0100
0001
1000
0000
0100
0000
0010
0001
0010
0100
0000
1000
0000
,
1001
0000
0010
0000
0100
0000
0001
0000
0100
0001
0100
0000
0001
0100
0001
0000
,
0100
0000
0010
0000
1000
0000
0100
0010
0001
0000
0010
0000
0100
0000
1000
0000
,
1001
0000
0000
0000
0010
0100
0001
0000
0010
0000
0100
0000
1000
0000
0010
0000
,
0100
0000
0001
1000
0010
0000
0100
0000
0001
0000
1000
0000
0010
0000
0000
0000
,
1001
0000
0010
0100
0001
0000
0100
0010
0100
0000
0001
0100
0010
0000
0100
0000
,
0001
0100
0010
0100
0001
0000
0100
0000
0010
0000
1000
0000
0100
0000
0010
0000
,
0001
0010
0001
0010
0001
0000
0001
0000
0010
0000
0100
0000
0010
0000
0001
0000
,
0010
0100
0010
0100
0010
0000
0100
0000
1000
0000
0010
0000
0100
0000
0010
0000
,
1000
0100
1000
0100
1000
0000
0100
0000
0100
0000
1000
0000
0010
0000
0100
0000
,
1001
0110
1001
0000
1010
1100
0000
1001
,
0000
0000
0001
0100
0010
0000
1000
0000
0100
0000
0010
0000
0011
0000
0000
0000
,
1001
0000
0110
0001
1010
0101
1000
0110
,
1000
0110
0001
0011
0100
1010
0101
1010
,
0101
0000
1010
0101
1100
0010
0001
1010
,
0001
0000
0100
0000
0010
0000
1000
0000
0100
0010
0001
0010
0100
0000
1000
0000
,
0110
1001
0110
0000
1001
0010
0100
1001
,
0010
0101
0010
1010
0100
1010
0101
1010
,
1001
0000
0010
0100
0001
1000
0100
0010
,
0001
0000
0010
0100
1000
0010
0100
0001
,
1000
0000
0100
0000
0010
0001
0000
1010
,
0000
0101
0000
1100
0000
0010
0100
1000
,
1001
0000
0000
0000
;

//---------------dance-single - Renard----------------
#NOTES:
     dance-single:
     Renard:
     Hard:
     8:
     0.450,0.428,0.277,0.000,0.062:
0000
0000
0000
0000
,
0000
0000
0000
0000
,
1000
0000
0001
0000
1000
0000
0010
0100
,
0001
1000
0100
0000
1000
0000
0100
0000
,
1000
0010
0100
0001
,
1000
0000
0100
0000
1000
0000
0010
0000
1000
0000
0001
1000
0001
0000
1000
0000
,
0010
0100
0010
0000
0010
0000
0100
0000
0001
0000
0010
0000
0100
0000
1000
0000
,
0010
0010
0010
0010
,
0100
0001
0100
0000
0100
0000
0010
0000
1000
0000
0100
0000
0010
0000
0001
0000
,
0100
0100
0100
0100
,
0010
0000
1000
0010
1000
0000
0010
0000
0100
0000
0001
0000
0010
0000
0100
0000
,
1000
0000
0010
0100
0010
0000
0100
0000
0001
0000
0010
0000
0100
0000
1000
0000
,
0001
1000
0001
0000
1000
0000
0010
0000
0100
0000
0001
0000
0010
0000
0100
0000
,
1000
0001
1000
0000
0001
0000
1000
0000
0010
0000
0100
0000
0001
0000
0000
0000
,
1000
0010
0101
0000
1000
0010
0000
1100
,
0000
0000
1000
0010
0100
0001
0010
0100
,
1000
0000
0001
0100
0010
1000
0000
1001
,
0000
1010
0000
1100
0000
1001
0000
1000
,
0010
0100
0001
0010
0001
0010
0100
1001
,
0000
0000
0000
0000
1000
0010
0100
0001
,
1000
0000
1010
0000
0001
0100
0000
1010
,
0000
1100
0000
1001
0000
0011
0000
0000
,
0100
0000
0001
0100
0001
0000
0100
0000
0001
0100
0001
0000
0100
0000
0100
0000
,
0001
0100
0001
0100
0001
0100
0001
0100
,
0001
0001
0100
0010
1000
0100
0010
0001
,
1000
1000
0100
0010
0100
1000
0010
0100
,
0001
0001
0100
0010
1000
0100
0010
0100
,
1000
1000
0010
0100
0001
1000
0010
0100
,
0001
0100
0001
0000
0100
0000
0010
0000
1000
0000
0100
0000
0010
0000
0000
0000
,
0001
0010
0001
0000
0010
0000
0100
0000
1000
0000
0010
0000
0100
0000
0000
0000
,
0001
1000
0001
0000
0100
0000
0010
0000
1000
0000
0100
0000
1000
0000
0000
0000
,
0010
1000
0001
1000
0100
1000
1010
0000
,
1001
0000
0010
1000
0001
0100
0010
1001
,
0000
0010
0100
0001
0010
0100
1000
0010
,
0100
0001
1000
0000
0010
1000
0000
0101
,
0000
1010
0000
1100
0000
1001
0000
0001
,
0010
0001
0100
0010
1000
0100
0010
1001
,
0000
0010
0100
0001
0010
0100
1000
0010
,
0100
0001
1000
0000
0010
0100
0000
0110
,
0000
1001
0000
0110
0000
1001
0000
1000
,
0100
0000
0010
0000
0001
0010
0000
0100
,
0000
1000
0010
0100
0001
0010
0100
1000
,
0010
0000
0101
0000
0010
1000
0000
1100
,
0000
1000
0010
0100
0001
0010
0100
0000
,
1001
0000
0000
0000
;

//---------------dance-single - Renard----------------
#NOTES:
     dance-single:
     Renard:
     Medium:
     5:
     0.325,0.338,0.103,0.000,0.000:
1000
1000
1000
1000
,
1000
1000
1000
1000
,
1000
0001
0100
0010
,
1000
0000
0100
0010
0001
0000
0010
0000
,
0100
1000
0010
0100
,
0001
0000
1000
0001
1000
0000
0010
0000
,
1001
0000
0100
0000
0010
1000
0100
0010
,
0001
0010
0100
1000
,
0001
0000
0100
0010
1000
0100
0010
0000
,
1001
0110
1010
0101
,
1000
1000
1000
0000
0001
0000
0100
0000
,
0010
0010
0010
0000
1000
0000
0100
0000
,
0010
0100
0100
0000
1000
0000
0010
0000
,
0100
0001
0001
0000
0100
0010
1000
0000
,
0100
1000
0010
0000
0100
0001
0000
0010
,
0000
0100
1000
0010
,
0101
0000
0010
0000
1000
0100
0000
0010
,
0000
0100
0000
1000
0000
0010
0000
0100
,
0001
0000
0100
0000
0010
1000
0000
0100
,
0000
1000
0010
0100
0001
0000
1000
0000
,
0100
0000
0010
0000
0001
0010
0000
0100
,
0000
1000
0000
0010
0000
0100
0000
0000
,
0001
0100
0001
0000
0100
0001
0100
0000
,
0001
1000
0001
1000
0001
1000
0001
1000
,
0001
0000
0100
0010
1000
0100
0010
0001
,
1000
0000
0010
0100
0001
0010
0100
1000
,
0010
0000
0100
0001
0010
0100
1000
0010
,
0100
0000
0010
0000
1000
0100
1000
0000
,
0001
0100
0010
1000
,
0010
0100
0001
0010
,
0100
0000
1000
0000
0010
0001
0100
0000
,
0001
0100
0001
0100
,
0010
0000
1000
0000
0100
0000
0010
0001
,
0100
0000
0010
0000
1000
0000
0100
0010
,
0001
0000
0100
0000
0010
0000
1000
0100
,
1000
0010
0100
1001
,
1010
0000
0100
0000
0001
0100
0000
0010
,
0000
1000
0100
1000
,
0010
0000
0100
0000
0001
1000
0000
0010
,
0000
0100
0000
0001
0000
1000
0000
0000
,
0100
0000
1000
0000
0010
0100
0000
0001
,
0000
1000
0100
0010
,
1001
0000
0010
0000
0100
0001
0000
0100
,
0000
0010
0000
1000
0000
0100
0000
0000
,
1001
0000
0000
0000
;

//---------------dance-single - Renard----------------
#NOTES:
     dance-single:
     Renard:
     Easy:
     2:
     0.234,0.226,0.082,0.000,0.000:
0000
0000
0000
0000
,
0000
0000
0000
0000
,
1000
0001
0000
0100
,
0000
0010
1000
0100
,
0010
0001
0000
0100
,
0001
1000
0001
1000
,
0001
0100
0010
0000
,
1000
0000
0100
0000
,
0010
0001
0100
0010
,
1100
0000
0010
0100
,
0001
0000
0100
0001
,
1000
0100
1000
0000
0000
0000
0010
0000
,
0100
0001
0100
0000
0010
0000
1000
0000
,
0100
0000
1000
1010
,
0100
0001
1000
0010
,
0100
0000
0001
1000
,
0010
0000
0100
0000
0001
0000
1000
0100
,
0000
1000
0010
0100
,
0001
0010
0100
1000
,
1001
0000
0010
0100
,
0001
0000
0010
0000
0100
0000
1000
0001
,
0000
0100
0010
1000
,
0100
1000
0100
0000
1000
0000
1000
0000
,
0010
0100
0001
0000
,
1000
0001
0100
0010
,
1001
0000
0010
0100
,
0001
0010
0100
1000
,
1001
0000
0010
0100
,
0001
0100
0001
0000
0100
0000
0010
0000
,
1000
0000
0000
0000
,
0100
1000
0100
0000
1000
0000
0010
0000
,
0100
0001
0100
0001
,
0100
0010
1000
0100
,
1001
0000
0010
0100
,
0001
0000
0010
0000
0100
0000
1000
0001
,
0000
0100
0000
0010
0000
1000
0000
0000
,
0100
0010
0001
1000
,
1001
0000
0000
0010
,
0100
0000
0001
0000
0010
0000
0100
1000
,
0000
0001
0100
0010
,
1000
0100
0010
0001
,
0100
0010
1000
0000
,
0100
0010
0001
1000
,
0010
0100
0010
0100
,
1001
0000
0000
0000
;
