#TITLE:Obelisk;
#SUBTITLE:;
#ARTIST:DM Ashura;
#GENRE:Trance;
#TITLETRANSLIT:;
#SUBTITLETRANSLIT:;
#ARTISTTRANSLIT:;
#CREDIT:;
#BANNER:obelisk.png;
#BACKGROUND:obelisk-bg.png;
#LYRICSPATH:;
#CDTITLE:;
#MUSIC:obelisk.ogg;
#OFFSET:0.000;
#SAMPLESTART:7.111;
#SAMPLELENGTH:12.000;
#SELECTABLE:YES;
#BPMS:0.000=135.000;
#STOPS:;
#BGCHANGES:;

//---------------dance-single - Renard----------------
#NOTES:
     dance-single:
     Renard:
     Challenge:
     10:
     0.233,0.316,0.048,0.000,0.254:
0000
0000
0000
0000
,
0000
0000
0000
0000
,
0000
0000
0000
0000
,
0000
0000
0000
0000
,
1001
0000
0000
0000
0100
0000
0000
0100
0010
0000
1000
0000
0100
0000
0010
0000
,
0001
0000
0000
0000
0010
0000
0000
0010
0100
0000
1000
0000
0010
0000
0100
0000
,
0001
0000
0000
0000
1000
0000
0000
1000
0001
0000
0100
0000
0010
0000
1000
0000
,
0100
0000
0000
0000
0010
0000
0000
0010
0001
0000
0010
0000
0100
0000
1000
0000
,
0010
0000
0000
0000
0100
0000
0000
0100
0001
0000
1000
0000
0100
0000
0010
0000
,
0001
0000
0000
0000
1000
0000
0000
1000
0010
0000
0100
0000
0001
0000
0000
0000
,
1000
1001
0001
1001
,
1000
0000
0000
1000
0010
0000
0000
0010
0100
0000
0001
1000
0001
0000
1000
0000
,
0001
0000
0100
0000
0010
0000
1000
0000
0100
0000
0100
0010
0000
0010
0001
0000
,
0010
0000
0100
0000
1000
0000
0010
0000
0100
0000
0100
0001
0000
0001
1000
0000
,
0100
0000
0010
0000
0001
0000
1000
0000
0010
0000
0010
0100
0000
0100
0001
0000
,
1000
0000
0100
0000
0010
0000
0001
0000
0010
0000
0010
0100
0000
0100
1000
0000
,
0010
0000
0100
0000
0001
0000
1000
0001
1000
0000
0001
0000
0100
0000
0010
0000
,
1000
0000
0100
0000
0010
0000
0001
0010
0001
0000
0010
0000
0100
0000
1000
0000
,
0010
0000
0100
0000
0001
0000
1000
0001
1000
0000
0001
0000
0100
0000
0010
0000
,
1000
0010
0000
0010
1000
0000
1000
0001
0000
0001
0100
0000
0001
0000
1000
0000
,
1000
0000
0100
0000
0010
0001
0010
0000
,
0100
0000
1000
0000
0010
0100
0001
0000
,
0100
0000
1010
0000
0100
0001
0010
0000
,
0100
0000
1001
0000
0010
1000
0100
0010
,
0001
0000
0101
0000
0010
1000
0100
0000
,
0011
0000
1100
0000
1000
0010
0100
0000
,
0101
0000
1010
0000
1000
0100
0010
0000
,
0011
0110
1100
1001
,
1010
0000
0000
0000
0100
0000
0000
0001
0000
0000
0010
0000
0100
0000
1000
0000
,
0010
0100
0000
0000
0001
0000
0000
0100
0000
0000
0010
0000
1000
0000
0100
0000
,
0010
0001
0000
0000
0010
0000
0000
0100
0000
0000
1000
0000
0010
0000
0100
0000
,
0001
1000
0000
0000
0001
0000
0000
0100
0000
0000
0010
0000
1000
0000
0100
0000
,
0010
0001
0000
0000
0010
0000
0000
0100
0000
0000
1000
0000
0010
0000
0100
0000
,
0001
1000
0000
0000
0001
0000
0000
0100
0000
0000
0010
0000
1000
0000
0100
0000
,
0010
0001
0000
0000
0010
0000
0000
0100
0000
0000
1000
0000
0010
0000
0100
0000
,
0001
1000
0000
0000
0001
0000
0000
0100
0000
0000
0010
0000
1000
0000
0100
0000
,
1000
0010
0000
0010
1000
0000
1000
0010
0000
0010
1000
0000
0001
0000
0100
0000
,
0100
0001
0000
0001
0100
0000
0100
0001
0000
0001
0100
0000
0010
0000
1000
0000
,
0100
0010
0000
0010
0100
0000
0100
0010
0000
0010
0100
0000
1000
0000
0010
0000
,
0100
0001
0000
0001
0100
0000
0100
0001
0000
0001
0100
0000
0001
0000
0100
0000
,
0010
1000
0000
1000
0010
0000
0010
1000
0000
1000
0010
0000
1000
0000
0100
0000
,
0010
0001
0000
0001
0010
0000
0010
0100
0000
0100
1000
0000
1000
0000
0010
0000
,
0100
0001
0000
0001
1000
0000
1000
0001
0000
0001
0100
0000
0010
0000
1000
0000
,
0100
1000
0100
0000
0010
0001
0010
0000
0100
1000
0100
1000
0100
1000
0100
0000
,
1000
0010
0000
0010
0100
0000
0100
0001
0000
0001
0010
0000
0100
0000
1000
0000
,
0010
0100
0000
0100
0001
0000
0001
1000
0000
1000
0100
0000
0010
0000
0001
0000
,
0010
0100
0000
0100
1000
0000
1000
0010
0000
0010
0100
0000
0001
0000
1000
0000
,
0100
0010
0000
0010
0001
0000
0001
0010
0000
0010
0100
0000
1000
0000
0010
0000
,
0100
0001
0000
0001
1000
0000
1000
0100
0000
0100
0010
0000
0001
0000
0010
0000
,
0100
1000
0000
1000
0010
0000
0010
0100
0000
0100
0001
0000
1000
0000
0100
0000
,
0010
0001
0000
0001
1000
0000
1000
0001
0000
0001
0100
0000
0010
0000
1000
0000
,
0100
1000
0100
0000
0010
0001
0010
0000
0100
0000
1000
0010
1000
0000
0010
0000
,
1000
0010
0100
0001
0010
0100
0000
0100
1000
0000
1000
0010
0000
0010
0100
0000
,
0001
1000
0100
0010
0001
1000
0000
1000
0010
0000
0010
0100
0000
0100
0001
0000
,
0010
0100
1000
0010
0100
0001
0000
0001
1000
0000
1000
0100
0000
0010
0001
0000
,
0010
0100
1000
0010
0100
0001
0000
0001
1000
0000
1000
0010
0000
0100
0001
0000
,
1000
0100
0010
0001
0010
0100
0000
0100
1000
0010
0100
0001
0100
0001
0000
0100
,
0010
0100
0010
0100
0010
0100
0000
0010
1000
0010
1000
0010
1000
0010
0000
1000
,
0001
0100
0001
0100
0001
1000
0001
1000
0100
1000
0100
0010
0100
0010
0001
0010
,
0100
1000
0010
0100
0001
0010
0100
1000
0010
0100
0001
0010
0100
1000
0010
0100
,
0001
0000
0000
0000
;

//---------------dance-single - Renard----------------
#NOTES:
     dance-single:
     Renard:
     Hard:
     9:
     0.191,0.200,0.089,0.006,0.083:
0000
0000
0000
0000
,
0000
0000
0000
0000
,
0000
0000
0000
0000
,
0000
0000
0000
0000
0000
0000
0000
0000
1000
0000
0100
0000
0001
0000
0000
0001
,
0010
0000
1000
0000
0010
0000
0001
0000
0100
0000
0010
0000
1000
0000
0000
1000
,
0010
0000
0001
0000
0010
0000
0100
0000
1000
0000
0100
0000
0001
0000
0000
0001
,
0100
0000
0010
0000
1000
0000
0100
0000
0001
0000
0100
0000
0010
0000
0000
0010
,
0001
0000
0010
0000
1000
0000
0010
0000
0100
0000
1000
0000
0010
0000
0000
0010
,
0001
0000
0010
0000
0100
0000
1000
0000
0100
0000
0001
0000
0010
0000
0000
0010
,
0100
0000
0001
0000
0100
0000
1000
0000
0010
0000
0100
0000
0001
0000
0000
0001
,
0100
1000
0100
0001
0010
0001
0010
0100
,
1000
0010
0100
0001
0100
0010
0001
0010
,
0100
1000
0100
0001
0100
0010
1000
0100
,
0010
0000
0001
0010
0001
0000
0000
0000
0010
0000
0100
0000
1000
0000
0010
0000
,
0100
0001
0100
1000
0100
0001
0010
1000
,
0010
0000
0001
0010
0001
0000
0010
0000
0100
0000
1000
0000
0010
0000
0100
0000
,
0001
0000
1000
0100
1000
0000
0001
0000
0010
0000
0100
0000
1000
0000
0010
0000
,
0100
0000
0001
0100
0001
0000
1000
0000
0100
1000
0100
0000
1000
0000
0001
0010
,
0001
0000
1000
0000
0010
1000
0010
0000
1000
0001
1000
0000
0001
0000
0100
0001
,
0100
0000
0001
0000
1000
0100
1000
0000
0001
0000
0000
0000
0100
0000
0000
0000
,
0010
1000
0200
0000
,
0320
0000
0031
0100
,
0010
1000
0100
0001
,
0100
0000
1000
0000
0010
0100
0001
0000
,
0100
1000
0100
0000
0001
0010
1000
0000
,
0010
1000
0010
0000
0010
0100
1000
0100
,
0001
0000
0100
0000
1000
0010
0001
0010
,
0100
1000
0100
0000
0101
0000
0010
1000
,
0100
0010
0001
0100
,
0010
1000
0100
0000
1000
0000
0010
0000
,
0100
0001
1000
0000
0100
0000
0011
0000
,
0100
1000
0010
0100
1001
0000
0010
0000
,
1000
0100
0010
0001
0010
0000
0100
0000
,
1000
0010
0100
0000
0010
0100
0001
0000
,
0100
0000
0010
0000
1000
0000
0000
0000
0001
0000
0000
0001
0000
1000
0000
1000
,
0010
0100
0001
0010
0100
0000
1010
0000
,
0100
0000
0000
0000
0011
0000
0000
0000
0100
0000
0000
0000
1001
0000
0000
1001
,
0000
0010
0100
0000
0010
0000
1001
0000
,
0010
0000
0000
0000
1001
0000
0000
0000
0100
0000
0000
0000
1001
0000
0000
1001
,
0000
1000
0010
0100
1001
0000
0100
0000
,
0010
0000
0000
0000
1001
0000
0000
0000
0010
0000
0000
0000
1001
0000
0000
0100
,
0000
1001
1001
0000
0100
0000
1010
0000
,
0100
0000
0000
0000
0011
0000
0000
0000
0100
0000
0000
0000
1001
0000
0000
0010
,
0000
1001
1001
0000
1000
0100
0010
0001
,
0010
0000
0100
1000
0000
1000
0010
0000
0100
0000
0001
0000
0010
0000
0100
0000
,
1000
0000
0101
0000
0010
1000
0100
0010
,
0001
0000
1000
0010
0000
0010
1000
0000
0001
0000
0100
0000
0010
0000
1000
0000
,
0100
0000
0011
0000
0100
1000
0010
0100
,
0001
0000
1000
0100
0000
0100
0010
0000
0001
0000
0010
0000
0100
0000
1000
0000
,
0010
0000
0101
0000
0010
1000
0100
0010
,
0001
0000
0100
0001
0000
0001
1000
0000
0010
0000
1000
0000
0001
0000
0100
0000
,
0010
0000
0000
0000
1001
0000
0000
0000
1000
0000
0100
0000
0010
0001
0000
0001
,
1000
0000
0010
0000
0100
0000
0001
0000
0010
0100
0000
1000
0010
0000
0100
0000
,
0001
0000
0000
0000
1001
0000
0000
0000
1000
0000
0100
0000
0010
0000
0001
0100
,
0000
0100
0010
0000
1000
0000
0100
0000
0010
0001
0000
0010
0100
0000
1000
0000
,
0010
0000
0000
0000
1001
0000
0000
0000
0100
0010
0000
1000
0001
0000
0100
0000
,
0010
0000
1000
0000
0001
0000
0000
0000
1000
0010
0000
1000
0100
0000
0010
0000
,
0001
0010
0000
0100
1000
0000
0010
0000
0100
0000
0001
0000
1000
0000
0100
0000
,
0010
0001
0000
0010
0100
0000
1000
0000
0010
0100
0000
0001
1000
0000
0010
0100
,
0000
0001
1000
0000
0010
0000
0100
0000
1001
0000
0000
0000
0000
0000
0000
0000
;

//---------------dance-single - Renard----------------
#NOTES:
     dance-single:
     Renard:
     Medium:
     7:
     0.127,0.192,0.157,0.192,0.000:
0000
0000
0000
0000
,
0000
0000
0000
0000
,
0000
0000
0000
0000
,
0000
0000
0000
0000
,
0100
1010
0100
0010
,
0100
0011
0100
0010
,
0100
1010
0100
0011
,
0100
2002
0000
3013
,
0100
1010
0100
0010
,
0100
0011
0100
0010
,
0100
1010
0100
0011
,
1001
2002
0000
3013
,
2000
0200
3310
2000
,
0200
3310
2200
3310
,
0002
0200
0313
0002
,
0200
0313
0202
0313
,
2002
3013
0000
0110
,
2002
3103
0000
0110
,
2200
3311
0202
1313
,
1000
0000
0001
0100
1000
0000
0101
0000
,
1100
0000
0000
0000
,
0010
0001
0100
0000
,
0101
0000
0000
0000
0000
0000
0010
1000
,
0100
0000
0000
0010
0001
0000
0100
0000
,
2001
0000
0000
0000
,
3020
0000
0000
0000
,
0230
0302
0203
2300
,
3020
0032
0203
0000
,
0310
0000
0000
0000
0000
0000
0000
1000
,
0100
0000
0000
0010
0001
0000
0100
0000
,
2002
0000
0000
3000
,
0200
0000
0000
0000
0000
0003
0000
0310
,
1001
0000
0000
0000
,
2000
0000
0200
3000
,
0020
0000
0000
0300
,
0032
0000
0000
0000
0000
0000
0000
0103
,
1001
0000
0000
0000
,
2000
0000
0000
0000
,
3002
0000
0000
0100
,
0200
0000
0000
0000
0000
0000
0303
0101
,
1001
0000
0000
1000
,
0200
0000
0000
0000
,
0320
0000
0002
0030
,
0200
0003
0020
0330
,
1001
0000
1000
0000
0100
0000
0010
0001
,
0000
0100
0001
0000
2002
0000
0000
0000
,
0010
0000
0010
0000
,
0100
0000
3013
0000
,
1000
0000
0100
0000
0010
0000
0002
0200
,
0000
1010
1313
0000
,
2200
0011
0000
3311
,
0202
1010
0000
1313
,
0001
0000
0100
0000
1000
0000
1000
0100
,
0001
0000
0001
0100
1000
0000
0000
0000
,
1000
0000
0010
0000
0001
0000
0001
0010
,
1000
0000
1000
0010
0001
0000
0000
0000
,
0100
1010
0100
0011
,
0100
1010
2002
3013
,
1000
0011
0100
1010
,
0001
0110
2002
3013
,
1100
0000
0000
0000
;

//---------------dance-single - Renard----------------
#NOTES:
     dance-single:
     Renard:
     Easy:
     3:
     0.087,0.125,0.074,0.061,0.000: // measure 1
0000
0000
0000
0000
,  // measure 2
0000
0000
0000
0000
,  // measure 3
0000
0000
0000
0000
,  // measure 4
0000
0000
0000
0000
,  // measure 5
0100
1010
0000
1010
,  // measure 6
0100
0011
0000
0011
,  // measure 7
0010
1010
0000
1010
,  // measure 8
0010
0011
0000
0011
,  // measure 9
0010
1100
0000
1100
,  // measure 10
0010
0101
0000
0101
,  // measure 11
0100
1100
0000
1100
,  // measure 12
0100
0101
0000
0101
,  // measure 13
1000
0100
1000
0000
0000
0000
1000
0000
,  // measure 14
1000
0010
1000
0000
0000
0000
1000
0000
,  // measure 15
0010
0001
0010
0000
0000
0000
0010
0000
,  // measure 16
0001
0100
0001
0000
0000
0000
0001
0000
,  // measure 17
0100
1000
0100
0000
0000
0000
0100
0000
,  // measure 18
1000
0010
1000
0000
0000
0000
1000
0000
,  // measure 19
0002
0000
0203
0000
,  // measure 20
0320
2030
3200
0302
,  // measure 21
0023
0000
0000
0000
,  // measure 22
2030
0000
0000
0000
,  // measure 23
3100
1000
0000
0010
,  // measure 24
0100
0001
0000
0010
,  // measure 25
0200
0000
0000
0001
,  // measure 26
0002
0000
0000
0300
,  // measure 27
2000
0000
0000
0000
,  // measure 28
0020
0000
0000
3033
,  // measure 29
1000
1000
1000
1000
,  // measure 30
0001
0001
0100
0000
,  // measure 31
0010
0010
0010
0010
,  // measure 32
1000
0000
0100
0000
0010
0000
0000
0001
,  // measure 33
0100
0000
0000
0000
0000
0000
0000
1000
,  // measure 34
0010
0000
0100
0001
,  // measure 35
1000
0000
0001
0100
,  // measure 36
0010
0000
0000
0000
1000
0000
0000
0010
,  // measure 37
0101
0000
0000
1000
,  // measure 38
0001
0000
0100
0010
,  // measure 39
1000
0000
0000
0000
,  // measure 40
0100
0000
0000
0000
0010
0000
0000
0101
,  // measure 41
1010
0000
0000
1000
,  // measure 42
0100
0000
0010
0000
,  // measure 43
0002
0000
0000
0000
,  // measure 44
0203
0000
0000
0000
0000
0000
0000
0301
,  // measure 45
1001
0000
1000
0001
,  // measure 46
0100
0000
0100
0000
,  // measure 47
0010
1000
0100
0001
,  // measure 48
0200
0000
0000
0000
,  // measure 49
1300
0010
0200
0000
0000
0000
0000
0000
,  // measure 50
0002
0000
0000
0300
,  // measure 51
2000
0000
0000
0000
,  // measure 52
0020
0000
0030
0110
,  // measure 53
3113
0000
1000
0100
,  // measure 54
0010
0000
0000
0000
0000
0000
0001
0010
,  // measure 55
0100
0000
0000
0100
,  // measure 56
0010
0000
0000
0000
0001
0000
0000
0100
,  // measure 57
0010
0000
0000
1000
,  // measure 58
0010
0000
0000
0000
0000
0000
0100
0001
,  // measure 59
0100
0000
0001
1000
,  // measure 60
0001
0000
0100
0000
,  // measure 61
1001
0000
0000
0000
;
