#TITLE:Now is the Time (Hixxy & Trixxy Mix);
#SUBTITLE:;
#ARTIST:Scott Brown;
#GENRE:Happy Hardcore;
#TITLETRANSLIT:;
#SUBTITLETRANSLIT:;
#ARTISTTRANSLIT:;
#CREDIT:;
#BANNER:time.png;
#BACKGROUND:time-bg.png;
#LYRICSPATH:;
#CDTITLE:;
#MUSIC:time.ogg;
#OFFSET:0.000;
#SAMPLESTART:17.851;
#SAMPLELENGTH:13.314;
#SELECTABLE:YES;
#BPMS:0.000=90.000,6.000=97.000,8.000=107.000,10.000=111.000,12.000=117.000,14.000=124.000,16.000=130.000,18.000=136.000,20.000=142.000,22.000=148.000,24.000=154.000,26.000=160.000,28.000=167.000,30.000=173.000,32.000=176.000,34.000=180.000,37.000=182.500;
#STOPS:36.000=0.333
,97.000=0.986
,158.000=0.986
,159.000=0.985
,160.000=0.990
,161.000=0.329
,162.000=0.329
,163.000=0.164
,163.500=0.164
,164.000=0.082
,164.250=0.082
,164.500=0.082
,164.750=0.082
,225.000=0.986
;
#BGCHANGES:;

//---------------dance-single - Renard----------------
#NOTES:
     dance-single:
     Renard:
     Challenge:
     11:
     0.851,0.758,0.175,0.044,0.755:
0000
0000
0000
0000
,
0000
0000
0000
0000
0000
0000
0000
0000
1000
0000
0001
1000
0000
0001
1000
0000
,
0001
0000
1000
0001
0000
1000
0001
0000
0100
0000
0010
0100
0000
0010
0100
0000
,
0010
0000
1000
0000
0100
0010
0000
0010
0001
0000
1000
0001
0000
1000
0001
0000
,
1000
0000
0001
1000
0000
0001
1000
0000
0010
0000
0100
0010
0000
0100
0010
0000
,
1000
0000
0100
0000
0010
0001
0000
0001
0010
0000
0100
1000
0000
0100
1000
0000
,
0100
0000
0010
0001
0000
0010
0001
0000
0010
0000
0100
1000
0000
0100
1000
0000
,
0100
0000
0010
0000
0001
0010
0000
0010
0001
0000
0100
0010
0000
0100
0010
0000
,
1000
0000
0000
0000
0000
0000
0010
0000
0000
0100
0000
0000
0000
0000
0000
0010
0000
0000
0100
0000
0000
0000
0000
0000
0010
0000
0000
0000
0000
0000
0000
0000
0000
0000
0000
0000
1000
0000
0000
0000
0000
0000
0000
0000
1000
0000
0000
0000
,
0001
0000
0000
0000
1000
0000
0100
0010
0000
0001
0010
0000
0100
0000
1000
0010
,
0000
0100
0001
0000
0100
0000
0010
1000
0000
0100
0010
0000
0001
0000
0010
0000
,
0100
1000
0000
1000
0100
0000
0010
0001
0000
0100
0010
0000
1000
0000
0100
0010
,
0000
0100
1000
0000
0001
0000
0010
0100
0000
1000
0001
0000
1000
0000
0100
0000
,
0010
0001
0000
1000
0001
0000
0100
0010
0000
1000
0001
0000
1000
0000
0010
0100
,
0000
0001
1000
0000
0001
0000
0010
0100
0000
1000
0001
0000
1000
0000
0100
0000
,
0010
0001
0000
1000
0001
0000
0010
0100
0000
0010
0001
0000
1000
0000
0100
0010
,
0100
0010
0100
0000
0110
0000
0000
0000
0101
0000
0000
0000
1100
0000
0000
0000
,
0110
0000
0000
0000
0010
0000
0010
0001
0000
0001
0010
0000
0100
0000
0100
1000
,
0000
1000
0100
0000
0010
0000
0010
0001
0000
0001
0010
0000
0100
0000
1000
0000
,
0100
1000
0000
1000
0100
0000
1000
0010
0000
0010
0100
0000
0001
0000
0100
0010
,
0000
0010
1000
0000
0010
0000
0100
0001
0000
0001
0100
0000
0010
0000
1000
0000
,
0100
0010
0000
0010
0001
0000
0010
0100
0000
1000
0100
0000
0010
0000
0001
0010
,
0000
0100
1000
0000
0100
0000
0010
0001
0000
0010
0100
0000
1000
0000
0010
0000
,
0100
0001
0000
0001
0100
0000
0100
0010
0000
0010
1000
0000
0010
0000
0010
0100
,
0000
0100
0001
0000
1001
0000
0000
0000
1000
0000
0100
0000
0010
0000
0001
0000
,
1000
0100
0010
0001
1000
0010
0100
0001
,
1000
0010
0100
0001
1000
0001
0100
0001
,
1000
0001
0010
0001
0100
0010
1000
0001
,
0100
0010
1000
0001
1000
0100
0010
0100
,
1000
0100
0010
0100
1000
0001
0010
0001
,
1000
0001
0010
0001
0100
0010
1000
0100
,
0010
0001
0100
0010
0110
0000
1010
0000
,
0101
0000
1001
0000
1000
0100
0010
0001
,
1000
0001
0010
0100
1000
0001
1000
0100
,
0010
0001
1000
0100
1000
0001
0010
0100
,
1000
0001
0010
0001
1000
0100
0010
0001
,
1000
0100
0010
0100
1000
0001
0010
0100
,
1000
0001
0010
0100
0010
0001
1000
0100
,
0010
0001
1000
0100
0010
0001
0001
0010
,
0100
1000
0001
0010
0100
0000
1001
0000
,
0220
0000
0000
0000
0000
0000
0000
0000
0000
0000
0000
0000
0000
0000
0000
0000
1001
0330
0000
0000
0000
0000
0000
0000
0000
0000
0000
0000
0000
0000
0000
0000
1010
0000
0000
0000
0000
0000
0000
0000
0000
0000
0000
0000
0000
0000
0000
0000
1001
0000
0000
0000
0000
0000
0000
0000
0110
0000
0000
0000
0000
0000
0000
0000
,
1000
0001
0100
0010
1000
0000
0100
0000
1000
0000
0100
0000
1000
0000
0010
0000
,
1000
0010
0100
0001
0100
0001
0010
0100
,
1000
1000
0001
0010
0001
0010
0001
0100
,
0001
0100
0010
1000
0010
1000
0100
0010
,
0001
0001
1000
0100
1000
0100
1000
0010
,
1000
0010
0100
0001
0100
0001
0010
0100
,
1000
1000
0001
0010
0001
0010
0001
0100
,
0001
0100
0010
1000
0010
1000
0100
0010
,
0001
0000
0001
0000
1000
0000
1000
0100
0000
0100
0010
0000
0001
0000
0010
0000
,
0100
0000
1000
0000
0001
0000
0001
0010
0000
0010
0001
0000
0010
0000
0100
0000
,
2000
0000
0000
0000
3100
0000
0100
1000
0000
1000
0100
0000
1000
0000
0001
0000
,
0010
0000
0100
0000
0010
0000
0010
0001
0000
0001
1000
0000
0100
0000
1000
0000
,
0002
0000
0000
0000
1003
0000
1000
0100
0000
0100
0010
0000
0001
0000
0010
0000
,
0100
0000
1000
0000
0001
0000
0001
0010
0000
0010
0001
0000
0010
0000
0100
0000
,
2000
0000
0000
0000
3100
0000
0100
1000
0000
1000
0100
0000
1000
0000
0001
0000
,
0010
0000
0100
0000
1000
0000
0000
0000
0001
0000
1000
0001
0000
1000
0001
0000
,
1000
0000
0001
1000
0000
0001
1000
0000
0010
0000
0100
0010
0000
0100
0010
0000
,
0100
0000
0001
0000
0010
0100
0000
0100
1000
0000
0001
1000
0000
0001
1000
0000
,
0001
0000
1000
0001
0000
1000
0001
0000
0100
0000
0010
0100
0000
0010
0100
0000
,
0001
0000
0010
0000
0100
1000
0000
1000
0100
0000
0010
0001
0000
0010
0001
0000
,
0010
0000
0100
1000
0000
0100
1000
0000
0100
0000
0010
0001
0000
0010
0001
0000
,
0010
0000
0100
0000
1000
0100
0000
0100
1000
0000
0010
0100
0000
0010
0100
0000
,
0001
0000
0100
0010
0000
0100
0010
0000
0110
0000
0000
0000
1001
0000
0000
0000
,
1010
0000
0000
0000
0101
0000
0000
0000
0001
0000
0100
0010
0000
1000
0010
0000
,
0100
0000
0001
0100
0000
0010
1000
0000
0010
0000
0100
0001
0000
0100
0010
0000
,
1000
0000
0100
0000
0010
0001
0000
0001
0010
0000
0100
1000
0000
0100
0010
0000
,
0001
0000
0010
0100
0000
1000
0100
0000
0010
0000
0001
0010
0000
0100
1000
0000
,
0100
0000
0010
0000
0100
1000
0000
0100
0010
0000
0010
0001
0000
0001
0010
0000
,
0100
0000
1000
0010
0000
0010
0100
0000
0001
0000
0100
0010
0000
0010
1000
0000
,
0100
0000
0010
0000
0001
0010
0000
0010
0100
0000
0100
1000
0000
1000
0010
0000
,
0100
0000
0001
0100
0000
0100
0010
0000
1000
0000
0001
0100
0000
0100
0001
0000
,
1000
0000
0010
0000
0100
0001
0000
1000
0100
0000
0010
0001
0000
0001
0010
0000
,
0100
0000
1000
0001
0000
0010
0100
0000
1000
0000
0010
0100
0000
0100
0001
0000
,
0100
0000
0010
0000
1000
0100
0000
0010
0001
0000
0010
0100
0000
1000
0010
0000
,
0100
0000
0001
0100
0000
0010
1000
0000
1001
0000
0000
0000
0000
0000
0000
0000
;

//---------------dance-single - Renard----------------
#NOTES:
     dance-single:
     Renard:
     Hard:
     9:
     0.717,0.692,0.166,0.131,0.070:
0000
0000
0000
0000
,
0000
0000
0000
0000
0000
0000
0000
0000
1000
0000
1000
0001
0000
0001
1000
0000
,
0010
0000
0010
0100
0000
0100
0010
0000
1000
0000
1000
0100
0000
0100
0010
0000
,
0001
0000
0010
0000
0100
1000
0000
0100
0010
0000
0010
0001
0000
0001
0100
0000
,
0010
0000
0010
1000
0000
1000
0100
0000
0010
0000
0010
0001
0000
0001
0100
0000
,
0010
1000
0001
0000
1000
0001
0100
0000
,
0010
1000
0100
0000
0010
0001
0100
0000
,
0010
1000
0100
0000
1000
0001
0100
0001
,
1000
0010
0100
0002
2000
0000
0000
0000
,
3003
0000
1000
0100
0010
0100
1000
0010
,
0100
0010
1000
0100
0010
0100
1000
0100
,
0010
0001
0001
0010
0001
0100
0010
0100
,
0001
0010
0001
0010
0001
0010
0100
1000
,
0001
1000
0100
1000
0001
0100
0001
1000
,
0100
1000
0001
0100
0001
1000
0100
0010
,
0001
0010
0001
0010
1000
0010
0001
0010
,
0001
2000
3010
1010
,
1001
0000
0001
0010
0100
0010
0001
0100
,
0010
0100
0001
0010
0100
0010
0001
0100
,
0010
0100
0010
1000
0100
0010
0100
1000
,
0010
1000
0010
0100
0010
1000
0100
0010
,
1000
0010
0001
0100
0001
0100
0010
1000
,
0100
0010
0001
0100
0001
0100
0010
1000
,
0010
0100
0001
0010
0001
0010
0100
1000
,
0010
0100
0001
0000
1000
0000
0001
0100
,
0001
0100
0001
0100
0010
0000
1000
0010
,
1000
0010
1000
0000
0001
0000
0100
0010
,
1000
0100
0010
0001
1000
0000
0100
0010
,
0100
0010
0100
0000
0010
0000
0001
0010
,
0001
0010
0100
1000
0010
0000
0100
0001
,
0100
0000
0010
0000
1000
0000
0100
0010
,
0100
0010
0100
1000
0010
0000
0100
0000
,
0001
1000
0001
1000
0010
0100
0000
0101
,
0000
0200
0020
0300
1030
0010
0000
1010
,
0000
2000
0200
3000
0301
0100
0000
1100
,
0000
0200
0002
0300
0103
1000
0010
0100
,
0001
0100
0010
1000
0010
0100
0000
0101
,
0000
0200
0020
0300
1030
0010
0000
1010
,
0000
2000
0200
3000
0301
0100
0000
1100
,
0000
0200
0002
0300
0103
0000
1100
0000
,
0011
0000
1100
0000
0011
0000
1100
0011
,
1000
0100
0010
0001
1000
0000
0100
0000
1000
0000
0100
0000
1000
0000
0010
0000
,
1000
0010
1000
0100
1000
0000
0001
0010
,
0100
1000
0001
0010
0001
0010
0001
0100
,
0001
0100
0001
0010
0001
0000
1000
0100
,
0010
0001
1000
0100
1000
0100
1000
0010
,
1000
0010
1000
0100
1000
0000
0001
0010
,
0100
1000
0001
0010
0001
0010
0001
0100
,
0001
0100
0001
0010
0001
0010
0100
1000
,
0010
0100
0001
0100
0001
0100
0010
1000
,
0010
1000
0100
1000
0100
1000
0001
0010
,
0001
0010
1000
0010
1000
0010
0001
0010
,
0001
0010
0001
0100
0001
0100
1000
0100
,
1000
0100
0010
0100
0010
1000
0010
0001
,
0010
0100
0001
0100
0010
1000
0100
0010
,
0001
0010
0100
1000
0010
0100
0001
1000
,
0100
0010
0001
0000
1000
0100
1000
0100
,
1000
0100
1000
0100
1000
0100
1000
0100
,
1000
0100
0010
0001
0010
0001
0010
0001
,
0010
0001
0010
0001
0010
0001
0010
0001
,
0010
0100
1000
0100
0010
0100
0010
0100
,
0010
0100
0010
0100
0010
0100
0010
0100
,
0001
0100
1000
0010
0100
0001
0100
0001
,
0100
0001
0100
0010
1001
0000
1010
0000
,
0101
0000
1001
0000
1000
0010
0100
0001
,
1000
0010
0100
0001
1000
0100
0010
0001
,
1000
0100
0010
0001
1000
0100
0010
0100
,
1000
0100
0010
0100
0010
0001
0010
0100
,
0010
0001
0010
0100
0010
0001
0010
0001
,
1000
0100
1000
0100
1000
0001
1000
0001
,
0100
0010
0100
0010
1000
0010
1000
0010
,
0100
0001
0100
0001
1000
0100
0010
0001
,
0010
0100
1000
0000
0001
0100
0010
1000
,
0001
0100
0010
1000
0001
0010
0100
1000
,
0001
0010
0100
1000
0001
0100
1000
0100
,
0001
0010
0100
1000
1100
0000
0000
0000
;

//---------------dance-single - Renard----------------
#NOTES:
     dance-single:
     Renard:
     Medium:
     7:
     0.502,0.593,0.376,0.035,0.000:
0000
0000
0000
0000
,
0000
0000
1000
0001
,
1000
0001
1000
0001
,
1000
0000
0001
0000
1000
0000
0001
1000
,
0001
0000
1000
0001
1000
0000
0001
1000
,
0001
1000
0001
0000
0100
0000
0010
0000
,
0100
0000
0010
0100
0010
0000
0100
0010
,
0100
0000
0010
0000
1000
0001
1000
0001
,
1000
0001
1000
0001
1000
0000
0001
0000
,
1001
1000
0010
0100
,
0001
1000
0001
0000
0001
1000
0001
0000
,
0001
1000
0001
0000
0010
0000
0100
0000
,
1000
0001
1000
0000
1000
0001
1000
0000
,
1000
0001
1000
0000
0010
0000
0100
0000
,
0001
1000
0001
0000
0001
1000
0001
0000
,
0001
1000
0011
0000
0100
0000
0010
0000
,
1000
1001
1001
1001
,
1001
1000
0001
0100
,
0010
1000
0100
0010
,
0001
0010
0001
0010
0001
0010
0001
0010
,
0001
0010
0001
0010
0001
0010
0001
0000
,
0011
0001
0010
0100
,
1000
0010
0100
0001
,
1000
0000
0100
1000
0100
1000
0100
1000
,
0100
1000
1100
0000
1000
0000
0000
1000
,
0010
0000
0000
0010
0100
0000
0001
0000
,
1000
0000
0001
0000
0010
0000
0000
0010
,
0100
0000
0000
0100
1000
0000
0001
0000
,
1000
0000
0001
0000
0100
0000
0000
0001
,
1000
0000
0000
0001
1000
0000
0000
0001
,
1000
0000
0001
0000
1000
0000
0000
0100
,
1000
0000
0000
0001
1000
0000
0001
0000
,
1000
0001
0100
0100
,
0001
1000
0100
1000
,
0001
0010
0001
1000
,
0010
0100
0001
0010
,
0100
0000
1000
0000
0000
0001
0000
1000
,
0000
0001
1000
0000
0000
1010
0000
0101
,
0000
1000
0001
0000
0000
0100
0000
0001
,
0000
1000
0100
0000
1001
0000
2020
0000
,
0202
0000
1010
0000
1010
0000
1010
1010
,
1010
1313
0001
0000
0100
0000
0010
0000
,
1000
0000
0100
0000
1000
0000
0001
0010
,
0100
1000
0001
0000
1000
0000
0010
0000
,
0100
0000
0001
0000
1000
0000
1000
0100
,
0010
0001
1000
0000
0001
0000
0010
0000
,
0100
0000
1000
0000
0100
0000
0001
0010
,
0100
1000
0001
0000
1000
0000
0010
0000
,
0100
0000
0001
0000
0001
0000
1000
0100
,
0010
0001
1000
0000
1000
0000
0001
0000
,
0001
0000
1000
0000
1000
0000
0001
0010
,
0100
1000
1000
0000
1000
0000
0001
0000
,
0001
0000
1000
0000
1000
0000
1000
0100
,
0010
0001
1000
0000
0001
0000
0100
0000
,
0001
0000
1000
0000
0100
0000
0001
0010
,
0100
1000
1000
0000
0010
0000
0100
0000
,
0001
0000
1001
0000
0001
1000
0000
1010
,
0000
0000
0101
0000
1001
0000
0000
1100
,
0000
0000
0011
0000
1001
0000
0000
1010
,
0000
0000
0101
0000
0001
1000
0001
0000
,
1000
0001
1000
0000
0001
1000
0000
1010
,
0000
0000
0101
0000
1100
0000
0000
0011
,
0000
0000
1001
0000
0101
0000
0000
1010
,
0000
1001
1000
1000
,
0001
0000
0001
0000
1100
0000
0000
0011
,
0000
0000
0001
0100
0010
0000
0000
1100
,
0000
0000
0011
0000
1000
0001
0000
1010
,
0000
0000
0101
0000
1000
0001
0000
0101
,
0000
0000
1010
0000
1000
0100
1000
0000
,
0001
0010
0001
0000
1000
0000
1000
0000
,
0010
0000
0010
0000
0100
0001
0100
0000
,
0010
1000
0010
0000
1000
0000
0001
0000
,
1000
0000
0100
0000
0100
0010
0001
0010
,
0100
1000
0100
0010
0001
0010
0100
1000
,
0100
0010
0001
0010
0100
1000
0100
0010
,
0001
0010
0100
1000
0001
0000
0000
0000
;

//---------------dance-single - Renard----------------
#NOTES:
     dance-single:
     Renard:
     Easy:
     6:
     0.400,0.593,0.201,0.035,0.000: // measure 1
0000
0000
0000
0000
,  // measure 2
0000
0000
1000
1000
,  // measure 3
0001
0001
1000
0001
,  // measure 4
1000
0001
1000
1000
,  // measure 5
0001
0001
1000
1000
,  // measure 6
0001
0001
1000
0001
,  // measure 7
1000
0001
1000
0001
,  // measure 8
1000
0001
1000
0001
,  // measure 9
1000
0001
1001
0000
,  // measure 10
1001
1000
1000
1000
,  // measure 11
1000
0001
0001
0001
,  // measure 12
0001
0100
0100
0100
,  // measure 13
0100
0000
0010
0000
0010
0000
0010
0100
,  // measure 14
0010
1000
1000
1000
,  // measure 15
1000
0100
0100
0100
,  // measure 16
0100
0010
0010
0010
,  // measure 17
0010
0001
0001
1000
,  // measure 18
1001
1001
0000
1000
,  // measure 19
0010
0000
1010
0000
0000
0000
0001
0100
,  // measure 20
0001
0101
0000
0001
,  // measure 21
0010
0000
0011
0000
0000
0000
1000
0100
,  // measure 22
1000
1001
0000
0001
,  // measure 23
1000
0000
1001
0000
0000
0000
0001
1000
,  // measure 24
0001
1000
1000
0001
,  // measure 25
0001
0000
1001
0000
1000
0000
0000
0001
,  // measure 26
0000
0100
0010
0000
,  // measure 27
0010
0000
0000
0000
1000
0000
0000
0100
,  // measure 28
0000
0010
0001
0001
,  // measure 29
0001
0000
0000
0000
0010
0000
0000
0100
,  // measure 30
0000
1000
0001
0000
,  // measure 31
0001
0000
0000
0000
0100
0000
0000
0010
,  // measure 32
0000
1000
0001
1000
,  // measure 33
0001
1000
0001
0000
1000
0000
1000
0000
,  // measure 34
0001
0001
0100
0100
,  // measure 35
0010
0000
1000
1000
,  // measure 36
0100
0100
0010
0010
,  // measure 37
0001
0000
0000
0000
0000
1000
0000
0001
,  // measure 38
0000
0000
0001
0000
0000
1000
0000
0001
,  // measure 39
0000
0000
1000
0000
0000
0001
0000
1000
,  // measure 40
0000
0001
1001
0202
,  // measure 41
1313
0000
2200
0000
0011
0000
0011
0011
,  // measure 42
3311
1000
1000
0001
,  // measure 43
0001
0100
0100
0001
,  // measure 44
0001
1000
1000
0100
,  // measure 45
0100
1000
0100
0010
,  // measure 46
0001
1000
1000
0001
,  // measure 47
0001
1000
1000
0001
,  // measure 48
0010
0100
0100
0010
,  // measure 49
0010
0100
1000
0001
,  // measure 50
1000
0001
0010
0100
,  // measure 51
1000
0010
0100
0001
,  // measure 52
1000
0001
1000
0010
,  // measure 53
1000
0001
1000
0100
,  // measure 54
1000
0001
0010
0100
,  // measure 55
1000
0001
1000
0010
,  // measure 56
1000
0001
0100
0001
,  // measure 57
1000
1001
1000
0001
,  // measure 58
1000
0100
0010
0001
,  // measure 59
0010
0100
1000
0010
,  // measure 60
0100
0001
1000
0100
,  // measure 61
1000
0001
0010
0100
,  // measure 62
1000
0010
0100
0001
,  // measure 63
1000
0100
1000
0001
,  // measure 64
0010
0100
1001
1001
,  // measure 65
1001
1001
1000
0001
,  // measure 66
1000
0001
1000
0010
,  // measure 67
1000
0100
0010
0001
,  // measure 68
0010
0100
1000
0010
,  // measure 69
0100
0001
1000
0100
,  // measure 70
0010
0001
0010
0100
,  // measure 71
1000
0001
0010
0100
,  // measure 72
1000
0010
0100
0001
,  // measure 73
1000
0000
0001
0000
1000
0100
1000
0100
,  // measure 74
0010
0001
0010
0001
1000
0010
1000
0010
,  // measure 75
0100
0001
0100
0001
1000
0100
0010
0001
,  // measure 76
0010
0100
1000
0010
0100
0000
0000
0000
;
