#TITLE:Nitro;
#SUBTITLE:;
#ARTIST:Dieselboy & Kaos;
#GENRE:Synthstep;
#TITLETRANSLIT:;
#SUBTITLETRANSLIT:;
#ARTISTTRANSLIT:;
#CREDIT:;
#BANNER:nitro.png;
#BACKGROUND:nitro-bg.png;
#LYRICSPATH:;
#CDTITLE:;
#MUSIC:nitro.ogg;
#OFFSET:-0.000;
#SAMPLESTART:10.980;
#SAMPLELENGTH:12.400;
#SELECTABLE:YES;
#BPMS:0.000=174.975,96.000=87.480,104.000=174.975,184.000=87.480,192.000=174.975,240.000=87.480;
#STOPS:;
#BGCHANGES:;

//---------------dance-single - Renard----------------
#NOTES:
     dance-single:
     Renard:
     Challenge:
     12:
     0.895,1.000,0.564,0.277,0.679:
0000
0000
0000
0000
,
0000
0000
0000
0000
,
0000
0000
0000
0000
,
0000
0000
0000
0000
,
1000
1000
0100
1000
1000
1000
0010
1000
,
1000
1000
0001
1000
1000
1000
0010
0100
,
0001
0101
1001
1010
,
1000
0100
2000
0020
0000
0001
3031
1000
,
0010
0000
1000
0000
1010
0000
0010
0100
0001
0100
0010
0000
0110
0000
1000
0000
,
0010
0000
0100
0000
0001
0000
0010
0001
0100
0001
0010
0000
0011
0000
0001
0000
,
0100
0000
0010
0000
1010
0000
1000
0010
0100
0010
1000
0000
1010
0000
0010
0000
,
0100
0000
0001
0010
0001
0000
0100
0010
1000
0000
0100
1000
0010
0000
0100
0000
,
0010
0000
1000
0000
1010
0000
0010
0100
0001
0100
0010
0000
0110
0000
1000
0000
,
0010
0000
0100
0000
0001
0000
0010
0001
0100
0001
0010
0000
0011
0000
0001
0000
,
0100
0000
0010
0000
1010
0000
1000
0010
0100
0010
1000
0000
1010
0000
0010
0000
,
0100
0000
0001
0010
0001
0000
0100
0010
1000
0000
0100
0000
1100
0000
0000
0000
,
1000
0100
1000
0100
1000
0100
1000
0100
0010
0001
0010
0001
0010
0001
0010
0001
,
1000
0100
1000
0100
1000
0100
1000
0100
0010
0001
0010
0001
0010
0001
0010
0001
,
1000
0010
1000
0010
1000
0010
1000
0010
0100
0001
0100
0001
0100
0001
0100
0001
,
1000
0010
0100
0001
1000
0100
0010
0001
0010
0100
1000
0010
0100
0001
0100
0000
,
0001
0010
0001
0010
0001
0010
0001
0010
0100
1000
0100
1000
0100
1000
0100
1000
,
0001
0010
0001
0010
0001
0010
0001
0010
0100
1000
0100
1000
0100
1000
0100
1000
,
0001
0100
0001
0100
0001
0100
0001
0100
0010
1000
0010
1000
0010
1000
0010
1000
,
0001
0100
0010
1000
0001
0010
0100
1000
0100
0010
0001
0000
0011
0000
0000
0000
,
0002
0000
0023
0000
0130
1000
0010
0000
,
0200
0000
0302
0000
0013
0001
0100
0000
,
0001
0100
0010
1000
0100
0000
1000
0000
0010
0100
0001
1000
0100
0000
0010
0000
,
0100
1000
0001
0010
0100
0010
0001
1000
0100
0010
0100
1000
0010
0000
0100
0000
,
0001
0100
0010
1000
0100
0000
1000
0000
0010
0100
0001
1000
0100
0000
0010
0000
,
0100
1000
0001
0010
0100
0010
0001
1000
0100
0010
0100
1000
0010
0000
0100
0000
,
0010
0100
0110
0010
1000
0001
1001
0001
,
0100
0010
0110
0010
1000
0100
1100
1000
,
0010
0100
0101
0001
0100
0010
0110
0010
,
1000
0100
1100
1000
0010
0100
0101
0000
,
0100
0010
0110
0100
0001
1000
1001
1000
,
0010
0100
0110
0100
0001
0010
0011
0001
,
0100
0010
1010
1000
0010
0100
0110
0100
,
0001
0010
0011
0001
0100
0010
1010
0000
,
0002
0000
0200
0000
0010
1000
1313
0000
,
2000
0000
0200
0000
0010
0001
3311
0000
,
2000
0000
0002
0000
0100
0010
3113
0000
,
1010
0101
1100
0111
,
2000
0000
0020
0000
0100
0001
3131
0000
,
0002
0000
0020
0000
0100
1000
1133
0000
,
0002
0000
2000
0000
0010
0100
3113
0000
,
0101
1010
0011
1111
,
1000
0100
0010
0001
1000
0000
1000
0010
0000
0010
0100
0000
0001
0000
0001
0000
,
1000
0100
0010
0001
0010
0000
0010
0100
0000
0100
1000
0000
0010
0000
0100
0000
,
0001
0100
0001
0100
0001
0000
0100
0000
0010
0000
1000
0000
0100
0000
1000
0000
,
0010
0100
0010
0100
0010
0000
1000
0000
0001
0000
0100
0000
0020
0000
0000
0000
,
1030
0100
0010
0001
0010
0000
0100
0000
1000
0000
0010
0000
0100
0000
0001
0000
,
0100
0010
1000
0010
0100
0000
0001
0100
0010
0000
1000
0010
0100
0000
0010
0000
,
0100
0000
0010
1000
0001
0000
0100
0010
1000
0000
0001
0000
0101
0000
1001
0000
,
1010
0000
0010
0100
0001
0000
0001
0100
0010
0000
1000
0000
1010
0000
0000
0000
,
1000
0000
0010
0100
0001
0000
0100
0010
1000
0000
0010
0000
0110
0000
1010
0000
,
0001
0100
0010
1000
0010
0000
0100
0001
0100
0000
0010
0000
2200
0000
0000
0000
,
3311
0000
0000
0000
1001
0000
0001
1000
0010
0100
0001
0000
0101
0000
0000
0000
,
1000
0000
0100
0000
1100
0000
1000
0010
0100
0001
0010
0000
0011
0000
0001
0100
,
0010
0000
1000
0000
1010
0000
1000
0010
0100
0001
0010
0000
0011
0000
0001
0000
,
0100
0000
0010
1000
0010
0000
0100
0001
0000
0001
0010
0001
0100
0010
1000
0000
,
0002
0000
0203
0000
0310
1000
0200
0000
,
2300
0000
3020
0000
0130
0001
0020
0000
,
0031
1000
0001
0000
1000
0000
1000
0010
0000
0100
0001
0000
1000
0000
0010
0000
,
0100
0000
0100
0000
0010
0000
0010
1000
0000
1000
0001
0000
0020
2000
0000
0000
,
3030
0000
0000
0000
;

//---------------dance-single - Renard----------------
#NOTES:
     dance-single:
     Renard:
     Hard:
     9:
     0.656,0.582,0.306,0.134,0.000:
0000
0000
0000
0000
,
0000
0000
0000
0000
,
1001
0000
0000
1000
0001
0100
0010
0100
,
0000
0100
0001
0100
1000
0000
0100
0000
,
0001
0000
0010
0100
0010
0000
0001
0010
,
0001
0000
0010
0100
0010
0000
0100
0010
,
0100
1000
0010
0100
0001
0100
1000
0100
,
0001
0010
0100
1000
0010
0000
1001
0000
,
1000
0010
0100
0001
0010
0100
1000
0010
,
0100
0001
0100
1000
0100
0001
0100
0010
,
1000
0100
0010
0001
0010
0100
1000
0000
,
0001
0100
0010
1000
0100
0010
0100
0000
,
0010
0100
0010
0001
0010
1000
0010
0001
,
0010
0100
0010
1000
0010
0001
0010
0000
,
0010
0000
0100
0010
0100
0000
0010
0001
,
0010
0000
0100
0010
0100
0000
0010
0000
,
0001
0100
1000
0100
0001
1000
0010
0100
,
0001
1000
0010
0100
0001
1000
0100
0001
,
0100
0010
0001
1000
0100
0010
0001
0100
,
0010
1000
0100
0010
0001
0010
0001
0000
,
0001
0010
0100
0010
0001
0010
0100
0010
,
0001
0010
0100
1000
0100
0010
0100
1000
,
0010
0100
0001
0000
1000
0010
0100
0000
,
0001
1000
0100
1000
0010
0000
1001
0000
,
1000
0010
0100
0001
0010
0200
2000
3300
,
0100
1000
0010
0100
0001
0020
0002
0033
,
1000
0010
0100
0001
1000
0100
0010
0001
,
1000
0010
0100
0001
1000
0100
0100
0100
,
1000
0010
0100
0001
0010
0100
1000
0010
,
0100
0001
0010
0100
1000
0010
0010
0010
,
0100
0001
0101
0000
1000
0010
1010
0000
,
0100
0001
0101
0000
1000
0010
1010
0000
,
1000
0100
1100
0000
0010
0001
0011
0000
,
1000
0100
1100
0000
0010
0001
0011
0000
,
1000
0001
0100
0010
1000
0100
0010
0001
,
0010
1000
0010
0001
0010
0100
1000
0100
,
0001
0100
1000
0010
0100
0001
0100
1000
,
0100
0001
0010
0100
1000
0010
0100
0001
,
1010
0000
0101
0000
1000
0100
0010
0001
,
0101
0000
1010
0000
1000
0100
0010
0001
,
1010
0101
1001
0110
,
1000
0010
0100
0001
0010
0100
1000
0010
,
1001
0110
1001
0110
,
1000
0010
0100
0001
0010
0100
1000
0010
,
1001
0110
1100
0011
,
0101
1010
1100
1001
,
1000
0001
0100
0010
1000
0200
2000
3300
,
0100
1000
0010
0100
0001
0020
0200
0330
,
1000
0000
0010
0100
0001
1000
0100
0010
,
0001
0000
0010
0100
1000
0010
0100
0001
,
1000
0000
0100
0010
0001
0010
0100
1000
,
0100
0001
0100
1000
0010
0001
0010
1000
,
0100
0010
0001
0010
1000
0010
0001
0010
,
0100
1000
0100
0001
0100
1000
0001
0010
,
1000
0010
0001
0010
1000
0010
0001
0010
,
0100
1000
0100
0001
0100
1000
0010
0100
,
0001
0100
1000
0100
0001
0010
1000
0010
,
0001
0100
1000
0100
0001
0100
0010
1000
,
0100
0010
0100
1000
0100
0010
0001
0010
,
0100
0010
0100
0001
0100
0010
0100
1000
,
0010
0100
0001
1000
0100
0020
0002
0033
,
0001
0010
0100
1000
0010
0200
0002
0303
,
1000
0010
0100
0001
1000
0100
0010
0001
,
1000
0010
0100
0001
1000
0010
0202
0000
,
0303
0000
0000
0000
;

//---------------dance-single - Renard----------------
#NOTES:
     dance-single:
     Renard:
     Easy:
     5:
     0.368,0.427,0.191,0.115,0.000:
0000
0000
0000
0000
,
0000
0000
0000
0000
,
0000
0000
0000
0000
,
0000
0000
0000
0000
,
1000
1000
0001
0001
,
1000
1000
0001
0001
,
0100
0000
0010
0100
0010
0000
0100
0010
,
0100
0010
0100
0110
,
1000
0001
0100
0010
,
1000
0100
0010
0100
1000
0000
0000
0000
,
0010
0100
0001
0010
,
0100
0000
1000
0100
1000
0000
0000
0000
,
0010
0100
0001
1000
,
0001
1000
0001
1000
0001
0000
0000
0000
,
2000
0000
0200
0000
,
0010
0000
0001
0000
0011
3300
0000
0000
,
1000
0100
1000
0010
,
0100
0000
0001
0100
0001
0000
0100
0000
,
0010
1000
0100
1000
,
0001
0000
0100
0001
0100
0000
0001
0100
,
0001
1000
0100
1000
,
0001
0100
0001
1000
,
0010
0010
0100
0100
,
0002
1000
1000
0003
,
1000
0010
0100
0001
,
2000
0002
0010
3013
,
1000
0001
0100
0010
,
1000
0100
0100
0100
,
1000
0010
0100
0001
,
0010
0100
1000
0010
,
1001
0110
1001
0110
,
1000
0010
0100
0001
,
0110
1001
0110
0000
,
1000
0010
0100
0000
,
0001
1000
0100
0010
,
1001
0000
0110
0000
,
1100
0010
0010
0000
,
1100
0010
0010
0000
,
0100
0000
0001
0010
0001
0000
0010
0001
,
0010
0000
0000
0000
,
1000
0000
0100
1000
0100
0000
1000
0100
,
1000
0000
0000
0000
,
0010
0000
0100
0001
0100
0000
0010
0100
,
0001
0000
0000
0000
,
0100
0000
0010
0100
0010
0000
1000
0010
,
1000
0010
0100
0000
,
0001
0000
0001
0000
0002
0000
1000
0003
,
2000
0002
0010
3013
,
1000
0000
0001
0000
1000
0001
1000
0000
,
0001
0001
0001
0000
,
1000
0000
0001
1000
0001
0000
1000
0000
,
1000
1000
0010
0010
,
0110
1001
1000
0010
,
0100
0001
0010
0100
,
1001
0110
1000
0010
,
0100
0000
1001
0110
,
1001
0000
1000
0000
0010
0000
0100
0001
,
0010
0100
0010
0001
,
0010
0000
0001
0000
,
1000
0000
0100
1000
0100
1000
0100
0000
,
2000
0000
0002
0000
0010
0000
0000
3003
,
0002
0000
2000
0000
0010
0000
0000
3003
,
1000
0010
0100
0000
0010
0100
0001
1000
,
0100
1000
0010
0100
;

//---------------dance-single - Renard----------------
#NOTES:
     dance-single:
     Renard:
     Medium:
     7:
     0.466,0.674,0.268,0.048,0.000:
0000
0000
0000
0000
,
0000
0000
0000
0000
,
0000
0000
0000
0000
,
0000
0000
0000
0000
,
1000
0000
0001
1000
0001
0000
1000
0001
,
1000
0000
0001
1000
0001
0000
1000
0001
,
1000
0001
1000
0001
,
1000
0010
0100
1001
,
1001
1010
0001
0100
,
0010
1000
0100
0010
0100
1000
0100
0000
,
1000
0100
1000
0010
,
0100
0001
0100
0001
0100
0000
0010
0000
,
0100
0001
1000
0100
,
0010
0001
0010
0100
1000
0000
0010
0000
,
0100
0000
0001
0000
1000
0001
0100
0000
,
0100
0001
1000
0000
0100
1000
0001
0000
,
0100
0000
0010
1000
0010
0000
0100
0001
,
0100
0000
0010
1000
0010
0000
0100
0001
,
0100
0000
0010
1000
0010
0000
0100
0001
,
0100
0010
1000
0100
,
1001
0000
0010
0000
0100
0000
0001
1000
,
0100
0000
0100
1000
0001
0000
0001
0100
,
0010
1000
0100
0010
,
1000
0010
0100
1001
,
0110
1000
0010
0100
0001
0000
0000
0000
,
0110
0001
0100
0010
1000
0000
0000
0000
,
1000
0000
1000
0000
0100
1000
0100
0000
,
0010
0001
0010
0000
0100
1000
0100
0000
,
1000
0000
1000
0000
0100
1000
0100
0000
,
0010
0001
0010
0000
0100
1000
0100
0000
,
0001
0000
0001
0000
1000
0001
1000
0000
,
0010
0100
0010
0000
1000
0000
0010
0000
,
0100
0000
0001
0000
1000
0100
0010
0000
,
0001
0010
0100
0000
1000
0000
0010
0000
,
0100
0000
0001
1000
0100
0000
0100
1000
,
0001
0100
0010
1000
,
0100
0000
0100
0000
0100
0000
1000
0001
,
0000
0100
0010
0000
1000
0000
0100
0000
,
0010
1001
0010
1001
,
0010
1001
0000
0000
,
0100
1001
0100
0010
,
2002
0000
0000
0000
0110
3003
0000
0000
,
1000
0010
1001
0010
,
0100
0001
1000
0000
0100
0000
1000
0000
,
0010
0100
0001
1000
,
2002
0000
0000
0000
,
3113
0000
1000
0000
0001
0100
0010
0000
,
1000
0100
0010
0001
0010
0000
0100
0000
,
1000
0000
0100
0000
1000
0100
1000
0000
,
0100
0000
1000
0000
0100
1000
0100
0000
,
0001
0000
0010
0000
0001
0010
0001
0000
,
0010
0001
0100
0010
1000
0100
0010
0001
,
0100
0000
0010
0000
1000
0010
1000
0000
,
0001
0100
0001
0000
1000
0010
1000
0000
,
0001
0100
0001
0000
1000
0010
1000
0000
,
0001
0100
0010
0000
1000
0000
0110
0000
,
1001
0000
1010
0000
0101
0000
1000
0100
,
0010
0000
0001
0010
0100
0000
1000
0000
,
0010
0010
0100
0100
,
0001
0100
0001
0100
0001
0100
0001
0100
,
0001
0100
0010
1000
0100
0010
0001
1001
,
1010
0101
1010
1000
0100
0010
0001
1000
,
1010
0101
1001
0010
0100
0010
1000
0100
,
1100
0000
0010
0100
0001
0010
0200
0000
,
0300
0000
0000
0000
;
