#TITLE:Necropolis;
#SUBTITLE:;
#ARTIST:Banzai;
#GENRE:Ethnic Electronica;
#TITLETRANSLIT:;
#SUBTITLETRANSLIT:;
#ARTISTTRANSLIT:;
#CREDIT:;
#BANNER:necropolis.png;
#BACKGROUND:necropolis-bg.png;
#LYRICSPATH:;
#CDTITLE:;
#MUSIC:necro.ogg;
#OFFSET:0.000;
#SAMPLESTART:46.265;
#SAMPLELENGTH:14.000;
#SELECTABLE:YES;
#BPMS:0.000=83.000;
#STOPS:;
#BGCHANGES:;

//---------------dance-single - Renard----------------
#NOTES:
     dance-single:
     Renard:
     Hard:
     8:
     0.481,0.533,0.357,0.150,0.386:
0000
0000
0000
0000
,
0000
0000
0000
0000
,
1000
0001
0200
0000
0000
0001
1310
0000
,
0001
1000
0200
0000
0000
1000
0311
0000
,
1000
0000
0100
0000
1010
0000
0010
0100
0000
0100
0001
0000
0011
0000
0000
0000
,
0001
0000
0100
0000
0011
0000
0100
0010
0000
0010
1000
0000
0100
0000
1000
0000
,
0010
0000
0100
0000
0101
0000
0001
0010
0000
0010
0001
0000
0100
0000
0010
0000
,
1000
0000
0100
1000
0010
0000
0100
0001
0010
0000
0001
0000
2000
0000
0000
0000
,
3001
0000
0010
0000
0101
0000
0100
0010
0000
0010
1000
0000
1100
0000
0000
0000
,
1000
0000
0010
0000
1100
0000
0010
0100
0000
0100
0001
0000
0010
0000
0001
0000
,
0100
0000
0010
0000
1010
0000
1000
0100
0000
0100
1000
0000
0010
0000
0100
0000
,
0001
0000
0010
0001
0100
0000
0010
1000
0100
0000
1000
0000
0002
0000
0000
0000
,
1003
0000
1000
0000
0100
0000
0100
0000
1000
0100
0010
0001
0010
0000
0100
0000
,
1000
0000
1000
0000
0010
0000
0010
0000
0100
0001
0100
0010
1000
0000
0010
0000
,
0100
0000
0001
0000
1000
0010
0000
1000
0010
0000
0100
0000
0001
0000
0000
0000
,
0010
0000
0001
0000
1000
0100
0000
0010
0001
0000
1000
0000
0010
0000
0000
0000
,
0110
0000
0010
0000
1010
0000
1000
0000
0001
0101
0000
0100
0101
0000
0001
0000
,
1000
0000
0100
1000
0010
0000
0100
0001
0101
0000
1010
0000
2002
0000
3003
0000
,
0110
0000
0100
0000
0101
0000
0001
0000
1000
1010
0000
0010
1010
0000
1000
0000
,
0001
0000
0010
0001
0100
0000
0010
1000
1010
0000
0101
0000
2002
0000
3003
0000
,
1000
0100
1000
1000
0100
1000
1000
0100
1000
0100
0100
1000
0100
1000
1000
0100
,
0010
0001
0001
0010
0010
0001
0010
0001
0001
0010
0001
0001
0010
0010
0002
0000
,
1003
0010
0010
1000
1000
0010
0010
1000
0010
1000
1000
0010
0010
1000
1000
0010
,
0100
0100
0001
0100
0100
0001
0100
0001
0001
0100
0001
0001
0100
0001
0100
0001
,
1000
0000
1100
0000
1010
0000
0010
0100
0001
0000
2000
0000
0002
0000
0000
0000
,
3013
0000
0100
0000
0001
0000
1000
0100
1000
0000
0010
0000
0101
0000
0000
0000
,
0001
0000
0011
0000
0101
0000
0100
0010
1000
0000
0002
0000
2000
0000
0000
0000
,
3103
0000
0010
0000
1000
0000
0001
0010
0001
0000
0100
0000
1010
0000
0000
0000
,
1001
0000
0000
0000
;

//---------------dance-single - Renard----------------
#NOTES:
     dance-single:
     Renard:
     Medium:
     4:
     0.300,0.290,0.265,0.000,0.179:
0000
0000
0000
0000
,
0000
0000
0000
0000
,
1001
0000
0000
0000
0001
0100
0001
0000
1000
0000
1000
0000
0100
0000
0000
0000
,
0010
0000
0000
0001
0000
0000
0100
0000
0000
0000
0010
0000
1010
0000
0000
0000
,
1000
0000
0000
0000
0010
0000
0000
0000
0100
0000
0000
0000
0001
0100
0000
0000
,
0010
0000
0000
0000
1000
0000
0000
0000
0100
0000
0000
0000
1000
0100
0000
0000
,
0010
0000
0000
0000
1001
0000
0000
0000
0101
0000
0000
0000
0010
1000
0000
0000
,
0101
0000
0000
0000
0010
1000
0000
0000
0101
0000
0000
0000
0010
1000
0000
0000
,
0100
0000
0000
0000
1000
0000
0000
0000
0001
0000
0010
0001
0010
0000
0000
0000
,
0100
0000
0000
0000
1000
0000
0000
0000
0001
0000
0100
0001
0100
0000
0000
0000
,
0010
0000
0000
0000
1000
0000
0000
0000
0100
0000
1000
0100
1000
0000
0000
0000
,
0010
1000
0001
1000
0100
1000
1001
0000
,
0101
0010
0101
0010
,
0101
0000
0000
0000
0010
0000
0000
0000
0001
0000
1000
0000
0001
1000
0000
0000
,
0001
1000
0000
0000
1010
0000
1100
0000
,
0001
0000
0010
0000
0000
0000
0000
0000
0100
1000
0000
0000
0001
0010
0000
0000
,
0100
0000
0100
0000
1000
0000
0000
0000
0000
0001
0000
1000
0001
0000
0000
0000
,
1000
1000
0010
0100
0001
1000
0001
0000
,
1001
0000
0100
0000
1010
0000
0000
0000
0000
0001
0000
1000
0001
0000
1000
0000
,
0010
0000
0100
0001
1000
0001
1001
0000
,
1001
0000
0000
0000
1100
0000
0000
0000
0000
0011
0000
0001
0010
0000
0010
0000
,
0100
0100
1000
0001
1000
0000
1001
0000
,
1010
0000
0000
0000
0101
0000
0000
0000
0000
1001
0000
0001
1000
0000
0000
0010
,
0000
0010
0000
0100
0001
0000
0100
0000
0010
0000
1000
0000
0001
0000
0000
0000
,
1000
0000
0000
0000
0001
0000
0100
0000
0010
0000
0000
0000
1000
0001
0000
1000
,
0001
0000
0000
0000
0100
0000
0010
0000
1000
0000
0000
0000
0001
1000
0000
0001
,
1000
0000
0000
0000
0001
0000
0010
0000
0100
0000
0000
0000
1000
0001
0000
1000
,
0001
0000
1000
0000
0010
0000
0100
0000
0001
0000
1000
0000
0001
1000
0000
0000
,
1001
0000
0000
0000
;

//---------------dance-single - Renard----------------
#NOTES:
     dance-single:
     Renard:
     Easy:
     2:
     0.189,0.242,0.323,0.012,0.000: // measure 1
0000
0000
0000
0000
,  // measure 2
0000
0000
0000
0000
,  // measure 3
1001
0000
0000
0001
0100
0000
0010
0000
,  // measure 4
1000
0000
0000
1000
0100
0000
1001
0000
,  // measure 5
1001
0000
0010
0000
,  // measure 6
0100
0000
0000
0010
1000
0000
0100
0000
,  // measure 7
0011
0000
1100
0000
,  // measure 8
1001
1010
0101
0011
,  // measure 9
1001
0000
0000
0001
1000
0000
0000
0000
,  // measure 10
0110
0000
0000
0010
0100
0000
0000
0000
,  // measure 11
0001
0100
1100
0000
,  // measure 12
0001
0010
1010
0000
,  // measure 13
1001
0000
0000
1000
0001
0000
0000
0001
,  // measure 14
1000
0000
0000
1000
0001
0000
1001
0000
,  // measure 15
1001
0000
0000
0001
1000
0000
0000
1000
,  // measure 16
0001
1000
1001
0000
,  // measure 17
1010
0000
0110
0000
,  // measure 18
0001
0100
1000
0010
,  // measure 19
0011
0000
0110
0000
,  // measure 20
0001
0100
1000
0010
,  // measure 21
0020
0000
1000
0000
,  // measure 22
0100
0100
0001
0000
,  // measure 23
0100
0000
0100
0000
,  // measure 24
1000
1000
1000
0000
,  // measure 25
1031
0000
0001
0000
,  // measure 26
1000
0000
0001
1000
0001
0000
1010
0000
,  // measure 27
0101
0000
0000
0001
1000
0000
0100
1000
,  // measure 28
0001
1001
1001
1010
,  // measure 29
1001
0000
0000
0000
;
