#TITLE:Neckbreaker (Plus System Remix);
#SUBTITLE:;
#ARTIST:Scott Brown;
#GENRE:Trancecore;
#TITLETRANSLIT:;
#SUBTITLETRANSLIT:;
#ARTISTTRANSLIT:;
#CREDIT:;
#BANNER:neck.png;
#BACKGROUND:neck-bg.png;
#LYRICSPATH:;
#CDTITLE:;
#MUSIC:neck.ogg;
#OFFSET:0.000;
#SAMPLESTART:21.993;
#SAMPLELENGTH:13.000;
#SELECTABLE:YES;
#BPMS:0.000=174.600;
#STOPS:;
#BGCHANGES:;

//---------------dance-single - Renard----------------
#NOTES:
     dance-single:
     Renard:
     Challenge:
     10:
     0.752,0.735,0.328,0.131,0.328:
0000
0000
0000
0000
,
0000
0000
0000
0000
,
0000
0000
0000
0000
,
0000
0000
0000
0000
,
1000
0010
0001
0010
0000
1010
0000
0110
,
0000
0011
0000
0010
0001
1000
0100
0010
,
0001
0001
0010
0100
0001
1100
0000
1010
,
1001
0000
0000
0000
,
0100
1000
0100
1000
0010
1000
0001
0010
,
0001
0010
0100
1000
0100
0001
0100
1000
,
0001
1000
0010
1000
0100
1000
0010
0100
,
0001
0010
1000
0001
1000
0010
0001
1000
,
0100
1000
0010
1000
0100
0010
0001
0010
,
1000
0001
0100
1000
0100
0010
0001
1000
,
0100
0010
1000
0001
0100
1000
0010
0100
,
1001
0000
0000
0000
,
1010
0000
1100
0000
1010
0000
0100
0001
,
0000
0010
0100
0000
1001
0000
0110
0000
,
1010
0000
0101
0000
0110
0000
1000
0001
,
0000
0100
0010
0000
1010
0000
1001
0000
,
0101
0000
0011
0000
1001
0000
0100
0010
,
0000
0010
0100
0000
1001
0000
0110
0000
,
1010
0000
0011
0000
0010
2000
0200
0000
,
0011
3300
0000
0000
,
1000
0100
1000
0000
0010
0000
0100
0000
0001
0010
0000
0001
0010
0000
0001
0000
,
1000
0001
1000
0000
0010
0000
0100
0000
0001
1000
0000
0001
1000
0000
0001
0000
,
1000
0010
1000
0000
0001
0000
0100
0000
0010
1000
0000
0010
1000
0000
0010
0000
,
1000
0100
0010
0000
0001
0000
0010
0000
0100
1000
0000
0100
0010
0000
0010
0000
,
0001
0010
0001
0000
0100
0000
0010
0000
1000
0100
0000
1000
0100
0000
1000
0000
,
0001
1000
0001
0000
0100
0000
0010
0000
1000
0001
0000
1000
0001
0000
1000
0000
,
0001
0100
0001
0000
1000
0000
0010
0000
0100
0001
0000
0100
0001
0000
0100
0000
,
0001
0010
0100
0000
1000
0000
0100
0000
0010
0001
0000
0010
0100
0000
0100
0000
,
1000
0010
0100
1001
0000
0010
0100
0000
,
0001
0100
0010
1001
0000
0100
0010
0000
,
1000
0100
0010
1001
0000
0010
0100
0000
,
0001
0010
0100
1001
0000
0010
0100
0010
,
1000
0100
1000
0100
0010
0001
0010
0001
,
0010
1000
0010
1000
0010
0100
0010
0100
,
0001
0100
0001
0100
1000
0100
1000
0010
,
1001
0000
0000
0000
,
0010
0001
0010
0001
0100
0001
1000
0100
,
1000
0100
0010
0001
0010
1000
0010
0001
,
1000
0001
0100
0001
0010
0001
0100
0010
,
1000
0100
0001
1000
0001
0100
1000
0001
,
0010
0001
0100
0001
0010
0100
1000
0100
,
0001
1000
0010
0001
0010
0100
1000
0001
,
0010
0100
0001
1000
0010
0001
0100
0010
,
2000
0000
3020
0000
0230
0000
0301
0000
0000
0000
0000
0000
,
1000
0100
0000
0100
1000
0000
0010
0000
0100
0000
0001
0000
0010
0000
0001
0000
,
1000
0010
0000
0010
0100
0000
0001
0000
0010
0000
0100
0000
2000
0000
0000
0000
,
3010
0100
0000
0100
0001
0000
0100
0000
0010
0000
1000
0000
0100
0000
0010
0000
,
0001
0010
0000
0010
0100
0000
1000
0000
0010
0000
0100
0000
0002
0000
0100
0000
,
0103
0010
0000
0010
0100
0000
0001
0000
0100
0000
0010
0000
1000
0000
0100
1000
,
0100
1000
0000
1000
0010
0000
0100
0000
0001
0000
0010
0000
0002
0000
1000
0000
,
1003
0010
0000
0010
0100
0000
0001
0000
0010
0000
0100
0000
1000
0000
0010
0100
,
0010
0100
0000
0100
0001
0000
0010
0000
0100
0000
1000
0000
0010
0000
0000
0000
,
1000
0000
0100
0000
1000
0000
0010
0000
0100
0001
0000
0001
0010
0000
0001
0000
,
0100
0000
0010
0000
1000
0000
0100
0000
0001
0100
0000
0100
1000
0000
0010
0000
,
0100
0000
0001
0000
0010
0000
0100
0000
1000
0010
0000
0010
1000
0000
0001
0000
,
0010
0000
0100
0000
1000
0000
0010
0000
0100
0001
0000
0001
0100
0000
0100
0000
,
0001
0000
0010
0000
0001
0000
0100
0000
0010
1000
0000
1000
0100
0000
1000
0000
,
0010
0000
0100
0000
0001
0000
0010
0000
1000
0010
0000
0010
0001
0000
0100
0000
,
0010
0000
1000
0000
0100
0000
0010
0000
0001
0100
0000
0100
0001
0000
1000
0000
,
0200
0000
0302
0000
2000
0003
0020
0000
0000
0000
0000
0000
,
3030
0000
0000
0000
;

//---------------dance-single - Renard----------------
#NOTES:
     dance-single:
     Renard:
     Hard:
     8:
     0.594,0.586,0.164,0.109,0.071:
0000
0000
0000
0000
,
0000
0000
0000
0000
,
0000
0000
0000
0000
,
0000
0000
0000
0000
,
1000
0001
0100
0010
0000
1010
0000
0101
,
0000
1001
0000
1000
0100
0010
0001
0010
,
0000
0100
1000
0001
0000
1010
0000
0002
,
0200
0000
0303
0000
,
0001
0100
0001
0000
0101
0000
0001
0100
,
0000
0100
0001
0000
0100
0001
0100
0000
,
0010
1000
0010
0000
1010
0000
1000
1000
,
0000
0010
0010
0000
1000
0010
1000
0000
,
0001
0010
0001
0000
0011
0000
0010
0001
,
0000
0001
0010
0000
0010
0010
0001
0000
,
1000
0100
1000
0000
1100
0000
0100
2000
,
0200
0000
0000
3300
,
1000
1000
0100
1000
0100
0100
1000
0100
,
1000
0100
0010
0100
0010
0100
0010
0100
,
0010
0001
0010
0001
0010
0010
0001
0001
,
0010
0001
0010
0001
0010
0010
0001
0001
,
0100
0001
0100
0001
0100
0100
0001
0001
,
0100
0010
1000
0010
1000
0010
1000
0010
,
1000
0001
1000
0001
1000
1000
0001
0100
,
0101
0000
0000
0000
,
0001
0000
0000
0000
0100
0000
0010
0000
1000
0000
0000
1000
0100
0000
0000
0100
,
0010
0000
0000
0000
0001
0000
0100
0000
0001
0000
0000
0001
1000
0000
0000
1000
,
0100
0000
0000
0000
0010
0000
0001
0000
0010
0000
0000
0010
0100
0000
0000
0100
,
1000
0000
0000
0000
0001
0000
0100
0000
0010
0000
0000
0010
1000
0000
0000
0000
,
0001
0000
0100
0000
0001
0000
1000
0000
0100
0000
0000
0100
0010
0000
0000
0000
,
0100
0000
1000
0000
0010
0000
0100
0000
0001
0000
0000
0000
0100
0000
0000
0100
,
0010
0000
1000
0000
0100
0000
0010
0000
0001
0000
0000
0001
0010
0000
0000
0000
,
0100
0000
1000
0000
0001
0000
0100
0000
0001
0000
0000
0001
1000
0000
0000
0000
,
0001
0100
0010
2000
0000
0100
3100
0000
,
1000
0100
0010
0002
0000
0010
0013
0000
,
0001
0100
0010
2000
0000
0100
3100
0000
,
1000
0001
0000
0110
0000
1001
0000
0000
,
0001
0100
0010
2000
0000
0100
3100
0000
,
1000
0100
0010
0002
0000
0010
0013
0000
,
0001
0100
0010
2000
0000
0100
3100
0000
,
1000
0000
0001
0000
0100
0000
1001
0000
0000
0000
0000
0000
,
1000
0100
1000
0000
0100
0000
0010
0100
,
0000
0100
1000
0000
0100
1000
0100
0000
,
0001
0100
0001
0100
0001
0000
0001
0100
,
0000
0100
1000
0000
0100
1000
0100
0100
,
1000
0010
1000
0010
0010
0000
1000
0010
,
0000
1000
0010
0000
0001
0010
0001
0000
,
0010
0100
0001
0100
0001
0100
0001
0001
,
1001
0000
0000
0000
,
1000
0000
0100
0010
0001
0000
0010
0100
,
1000
0000
0010
0100
0001
0000
0100
0010
,
1000
0000
0100
0010
0001
1000
0100
1000
,
0001
0000
0100
0010
1000
0000
1001
0000
,
0110
0000
1000
0010
0100
0000
0001
0010
,
0100
0000
0010
0001
0100
0000
0010
1000
,
0100
0000
0100
0010
0001
0000
0010
0100
,
1000
0000
0010
0100
0001
0100
0010
1000
,
0010
0100
0001
1000
0000
0100
0010
0000
,
0001
0010
0100
1000
0000
0001
0100
0000
,
0010
1000
0100
0010
0000
0001
0010
0000
,
0100
1000
0001
0100
0010
1000
0100
1000
,
0001
0100
0010
1000
0000
1000
0001
0000
,
0100
0010
1000
0100
0000
0010
0001
0000
,
1000
0100
0010
0001
1000
0001
0010
0100
,
1000
0000
0000
0000
;

//---------------dance-single - Renard----------------
#NOTES:
     dance-single:
     Renard:
     Medium:
     6:
     0.384,0.446,0.044,0.055,0.000:
0000
0000
0000
0000
,
0000
0000
0000
0000
,
0000
0000
0000
0000
,
0000
0000
0000
0000
,
0000
0001
1000
0100
0000
0100
0000
0100
,
0000
0100
0000
0100
0010
0001
0010
0001
,
0000
0010
0100
1000
0000
1000
0000
1000
,
0020
0000
0000
0000
,
1030
0000
1000
0000
0001
0000
0100
0010
,
0000
1000
0100
0000
0000
0000
0000
0000
,
0010
0000
0010
0000
0001
0000
0010
0100
,
0000
1000
0010
0000
0000
0000
0000
0000
,
0100
0100
0001
1010
,
0000
0100
0001
0000
1000
0000
0100
0000
,
0010
0000
0010
0000
0001
0000
0010
0100
,
1000
0000
0000
0000
,
0010
0000
0010
0000
0100
0000
0001
1000
,
0000
0001
1000
0000
1000
0000
1000
0000
,
0001
0000
1000
0000
0001
0000
1000
0001
,
0000
1000
0001
0000
1000
0000
1000
0000
,
0010
0000
0100
0000
0010
0000
0100
0010
,
0000
0100
0010
0000
0010
0000
0010
0000
,
1000
0000
0001
0100
0001
0000
1000
0000
,
0200
0000
0000
0000
0000
0000
0000
0300
,
0010
0010
0010
0010
,
0001
0001
0001
0001
,
1000
1000
1000
1000
,
0010
1000
0001
0100
,
0010
0010
0010
1000
,
0100
0100
0100
0010
,
0001
0000
1000
0000
,
0010
1000
0001
0001
,
0100
0000
0000
0001
1000
0000
0100
0000
,
0010
0000
0000
0001
0010
0000
0100
0000
,
1000
0000
0000
0010
0100
0000
0001
0000
,
1000
0000
0001
0000
0100
0001
0100
0001
,
1000
0000
0000
0100
1000
0000
0000
0000
,
0010
0000
0000
0100
0001
0000
1000
0000
,
0100
0000
0000
0010
0001
0000
1000
0000
,
2002
0000
0000
3003
,
1000
0000
1000
0000
0001
0000
0100
0001
,
0000
1000
0001
0000
0000
0000
0000
0000
,
1000
0000
0001
0000
1000
0000
0100
0010
,
0000
0001
1000
0000
0010
0000
0100
0000
,
0001
0000
1000
0000
0001
0000
0100
0001
,
0000
1000
0100
0000
0000
0000
0000
0000
,
0010
0000
0001
0000
1000
0000
0010
0100
,
0002
0000
0000
0000
,
1003
1000
1000
1000
,
1000
0000
1000
0000
1000
0000
1000
1000
,
0001
0001
0001
0001
,
0001
0000
0001
0000
0001
0000
0001
0001
,
1000
1000
0001
0001
,
1000
1000
0001
0001
,
1000
0001
1000
0000
0001
1000
0001
0000
,
1000
1000
1000
1000
,
0000
0001
0000
0001
0000
0001
0001
0000
,
0000
0001
0000
0001
0000
0001
0001
0000
,
0000
0001
0000
0001
0000
0001
0001
0000
,
0000
0001
0000
0001
0000
0001
0001
0000
,
1000
1000
1000
1000
,
1000
0001
1000
0001
1000
0001
1001
0000
,
1000
0001
1000
0001
1000
0001
1001
0000
;

//---------------dance-single - Renard----------------
#NOTES:
     dance-single:
     Renard:
     Easy:
     3:
     0.306,0.345,0.153,0.044,0.000: // measure 1
0000
0000
0000
0000
,  // measure 2
0000
0000
0000
0000
,  // measure 3
0000
0000
0000
0000
,  // measure 4
0000
0000
0000
0000
,  // measure 5
1000
1000
1000
1000
,  // measure 6
0001
0001
0001
0001
,  // measure 7
1000
1000
0001
0001
,  // measure 8
1000
0001
1000
0000
,  // measure 9
0001
0000
1000
0001
,  // measure 10
1000
0000
1001
0000
,  // measure 11
0001
0000
1000
0001
,  // measure 12
1000
0000
1001
0000
,  // measure 13
1000
0000
0001
1000
,  // measure 14
0001
0000
1001
0000
,  // measure 15
1000
0001
1000
0001
,  // measure 16
1000
0000
0000
0000
,  // measure 17
0001
1000
0001
1000
,  // measure 18
1000
0001
0001
1000
,  // measure 19
0001
1000
0001
0001
,  // measure 20
1000
0001
1000
1000
,  // measure 21
0001
1000
1001
0000
,  // measure 22
0001
1000
1001
0000
,  // measure 23
1001
0000
1001
0000
,  // measure 24
2002
0000
0000
3003
,  // measure 25
1000
0001
1000
0001
,  // measure 26
1000
1000
0001
0001
,  // measure 27
1000
0001
1000
0001
,  // measure 28
1000
1000
0001
0001
,  // measure 29
1000
0001
1000
0001
,  // measure 30
1000
1000
0001
0001
,  // measure 31
1000
0001
1000
0001
,  // measure 32
1000
0001
0010
0000
,  // measure 33
0001
1000
0001
1000
,  // measure 34
0001
0001
1000
1000
,  // measure 35
0001
1000
0001
1000
,  // measure 36
0001
0001
1000
1000
,  // measure 37
0001
1000
0001
1000
,  // measure 38
0001
1000
0001
1000
,  // measure 39
1000
0001
1000
0001
,  // measure 40
0100
0000
0000
0000
,  // measure 41
0001
0000
0000
0000
,  // measure 42
1000
0000
0001
0000
,  // measure 43
1000
0000
0000
0000
,  // measure 44
0001
0000
0000
0000
,  // measure 45
1001
0000
0000
0000
,  // measure 46
1000
0000
0001
0000
,  // measure 47
1001
0000
0000
0000
,  // measure 48
2002
0000
0000
3003
,  // measure 49
1000
0001
1000
1000
,  // measure 50
0001
1000
0001
0001
,  // measure 51
1000
0001
1000
1000
,  // measure 52
0001
1000
0001
0001
,  // measure 53
1000
0001
1000
1000
,  // measure 54
0001
1000
0001
0001
,  // measure 55
1000
0001
1000
0001
,  // measure 56
0110
0000
0000
0000
,  // measure 57
1001
0000
1000
0001
,  // measure 58
1000
0000
0001
0000
,  // measure 59
1000
0000
0001
1000
,  // measure 60
0001
0000
1000
0000
,  // measure 61
0001
0000
1000
0001
,  // measure 62
1000
0000
0001
0000
,  // measure 63
1000
0000
0001
1000
,  // measure 64
1001
0000
0000
0000
;
