#TITLE:Neckbreaker (Nustyle Mix);
#SUBTITLE:;
#ARTIST:Scott Brown;
#GENRE:Dutch Mainstyle;
#TITLETRANSLIT:;
#SUBTITLETRANSLIT:;
#ARTISTTRANSLIT:;
#CREDIT:;
#BANNER:neck.png;
#BACKGROUND:neck-bg.png;
#LYRICSPATH:;
#CDTITLE:;
#MUSIC:neck.ogg;
#OFFSET:0.000;
#SAMPLESTART:21.393;
#SAMPLELENGTH:12.000;
#SELECTABLE:YES;
#BPMS:0.000=179.000;
#STOPS:56.000=1.341
,124.000=10.056
,186.000=0.670
;
#BGCHANGES:;

//---------------dance-single - Ryvard----------------
#NOTES:
     dance-single:
     Ryvard:
     Challenge:
     10:
     0.525,0.542,0.775,0.277,0.010:
0000
0000
0000
0000
,
0000
0000
0000
0000
,
0000
0000
0000
0000
,
0000
0000
0000
0000
,
2000
0000
3010
0000
,
0002
0000
0103
0000
,
2200
0000
3322
0000
,
1133
0000
0000
0000
0001
0010
0100
1000
,
2001
0000
0010
0000
0100
0000
0001
0001
,
0000
0100
0000
0010
0010
0000
0001
0000
,
0100
0000
0010
0000
0001
0000
0001
0010
,
0000
0010
0000
0000
0111
0000
3000
0000
,
0022
0000
0100
0000
1000
0000
1000
1000
,
0000
0100
0000
0100
1000
0000
1000
0000
,
2200
3333
0000
0000
0000
0000
0000
0000
0000
0000
0000
0000
0000
0000
0000
0000
,
0220
0001
1000
0001
,
1000
0001
1000
1331
,
2200
0000
0011
0000
0001
0010
0001
0000
,
0010
0001
0010
0000
0011
0000
3300
0000
,
1010
1100
0101
0022
,
1100
0033
2200
0000
,
3311
0000
0000
0000
1000
0100
0001
0000
,
1001
0000
0001
0010
1000
0100
0000
0000
,
1010
0000
1100
0000
1001
0000
1100
1100
,
0000
1010
0000
1001
1100
0000
1001
0000
,
1010
0000
0110
0000
1010
0000
0011
0011
,
0000
0110
0000
1010
1010
0000
0110
0000
,
0011
0000
0010
0001
0010
1000
0010
0001
,
0010
1000
0100
0010
0001
0100
0010
1000
,
0001
0100
1000
0100
0010
1000
0001
0001
,
1000
0000
1000
0000
0010
0000
0000
0001
1000
0000
0000
1000
0010
0000
0000
0000
,
0202
0303
0000
0000
0000
0000
0000
0000
1000
0000
0000
0000
0000
0000
1000
0000
,
0000
0000
0000
0100
0001
0100
0010
1000
,
0100
0000
0110
0000
1000
0000
0000
1000
,
0000
0000
0000
0000
0001
0100
0010
1000
,
0001
0100
0010
1000
0001
0000
0000
0001
,
0000
0000
0000
0010
1000
0010
0100
0001
,
0010
0000
0110
0000
0001
0000
0000
0001
,
0000
0000
0000
0000
1000
0010
0100
0001
,
1000
0010
0100
0001
0010
0000
1000
0000
,
0001
0100
0000
0010
0000
1000
0000
0001
,
1010
0100
1100
0000
0011
0000
1100
0000
,
0001
0010
0000
0001
0000
0100
0000
0001
,
1000
0001
1000
0000
0010
0000
0100
0000
,
0010
0100
0000
0101
0000
1010
0000
0001
,
1000
0010
0100
0000
0001
0000
1000
0000
,
0001
1000
0000
0001
1000
0000
0000
0000
,
0220
1000
0001
1000
,
0001
1000
0001
1331
,
0022
0000
1100
0000
1000
0100
1000
0000
,
0100
1000
0100
0000
1100
0000
0033
0000
,
0101
0011
1010
2200
,
0011
3300
0022
0000
,
1133
0000
0000
0000
0001
0010
1000
0000
,
1001
0000
1000
0100
0001
0010
0000
0000
,
0101
0000
0011
0000
1001
0000
0011
0011
,
0000
0101
0000
1001
0011
0000
1001
0000
,
0101
0000
0110
0000
0101
0000
1100
1100
,
0000
0110
0000
0101
0101
0000
0110
0000
,
1100
0000
0100
1000
0100
0001
0100
1000
,
0100
0001
0100
0010
1000
0100
0010
0001
,
0100
0010
1000
0010
0100
0001
1000
0010
,
0100
0000
0010
1000
0001
0000
0100
0000
,
1111
0000
0000
0000
;

//---------------dance-single - Renard----------------
#NOTES:
     dance-single:
     Renard:
     Hard:
     8:
     0.523,0.482,0.947,0.057,0.010:
0000
0000
0000
0000
,
0000
0000
0000
0000
,
0000
0000
0000
0000
,
0000
0000
0000
0000
,
1000
0000
0000
0000
0001
0000
0000
0000
0100
0000
0000
0000
0010
0000
0000
0010
,
1000
0000
0100
0000
0010
0000
0001
0100
,
0010
0000
0000
0000
1000
0000
0000
0000
0001
0000
0000
0000
0010
0000
0000
0010
,
0001
0000
1000
0000
0001
1000
0001
0000
,
1010
0000
0101
0000
1001
0000
1000
0001
,
0000
0100
0000
0010
1000
0000
0100
0000
,
0110
0000
0011
0000
1001
0000
0010
0100
,
0000
0101
0000
0010
1000
0000
1001
0000
,
0101
0000
1010
0000
1100
0000
0010
0001
,
0000
0010
0000
0100
1000
0000
0001
0000
,
1001
0000
0000
0000
,
1000
0100
0001
0000
0101
0000
0100
1000
,
0000
0010
0000
0001
0010
0000
0011
0000
,
0001
0010
1000
0000
1010
0000
1000
0100
,
0000
1100
0000
0100
0001
0000
0101
0000
,
0100
0010
0001
0000
0011
0000
0010
1000
,
0000
1010
0000
0010
0001
0000
0011
0000
,
0001
0100
1000
0000
1100
0000
0100
0001
,
0000
0101
0000
0001
0010
0000
0011
0000
,
0001
0010
0100
0000
1001
0000
1000
0010
,
0000
1001
0000
0001
0100
0000
1001
0000
,
1000
0100
0001
0000
1001
0000
0001
0100
,
0000
0101
0000
0100
1000
0000
1100
0000
,
1000
0010
0100
0000
1001
0000
0100
0001
,
0000
1010
0000
0010
0100
0000
0101
0000
,
1000
0100
0001
0000
0101
0000
0100
1000
,
0000
1100
0000
1000
0010
0000
2002
0000
,
3023
0030
0000
0000
0000
0000
0000
0000
0000
0000
0000
0000
0000
0000
0000
0000
0000
0000
0000
0000
0000
0000
0000
0000
0000
0000
0000
0000
0000
0000
0000
0000
1100
0000
0000
0000
0000
0000
0000
0000
0000
0000
0000
0000
0000
0000
0000
0000
0000
0000
0000
0000
0000
0000
0000
0000
1010
0000
0000
0000
0000
0000
0000
0000
,
0000
0001
0000
0110
0000
1001
0000
1000
,
0100
0000
0110
0000
1001
0000
0000
0110
,
0000
1001
0000
0110
0000
0101
0000
0001
,
1000
0000
1100
0000
0011
0000
0000
1100
,
0000
0001
0000
0110
0000
0011
0000
1000
,
0100
0000
0110
0000
1001
0000
0000
1010
,
0000
0100
0000
1001
0000
0100
0000
0010
,
1000
1001
2100
3010
,
0100
0001
0000
0011
0000
1100
0000
1000
,
0010
0100
0001
0000
0012
0000
0103
0000
,
0010
1000
0000
1100
0000
0011
0000
0001
,
0100
0010
1000
0000
0201
0000
1300
0000
,
0001
0010
0000
1010
0000
0101
0000
0100
,
1000
0001
0010
0000
1010
0000
0100
0000
,
1001
0010
0101
0000
,
1010
0000
0101
0000
1000
0100
0010
0001
,
0000
0110
0000
1000
0100
0000
0011
0000
,
1100
0000
0001
0100
0010
1000
0000
0101
,
0000
1010
0000
1000
0100
0000
0101
0000
,
0101
0000
1010
0000
0001
0010
0100
1000
,
0000
0110
0000
0001
0010
0000
1100
0000
,
0011
0000
1000
0010
0100
0001
0000
1010
,
0000
0101
0000
0001
1000
0000
1010
0000
,
1100
0000
0011
0000
0100
0001
1000
0010
,
0000
1001
0000
0100
0001
0000
1010
0000
,
0101
0000
0010
0001
1000
0100
0000
0011
,
0000
1100
0000
1000
0001
0000
0011
0000
,
1100
0000
0011
0000
0100
0001
1000
0010
,
0000
1001
0000
0100
0001
0000
1010
0000
,
0101
0000
0010
0001
1000
0100
0000
0011
,
0000
1100
0000
0100
0001
0100
1000
0000
,
1001
0000
0000
0000
;

//---------------dance-single - Renard----------------
#NOTES:
     dance-single:
     Renard:
     Medium:
     6:
     0.392,0.452,0.555,0.000,0.000:
0000
0000
0000
0000
,
0000
0000
0000
0000
,
0000
0000
0000
0000
,
0000
0000
0000
0000
,
0000
0000
0000
0000
,
0000
0000
0000
0000
,
0000
0000
0000
0000
,
0000
0000
0000
0000
,
1000
0000
0001
0000
1000
0000
0001
1000
,
0000
0001
0000
1000
0001
0000
1000
0000
,
0001
0000
1000
0000
0001
0000
1000
0001
,
0000
1000
0000
0001
1000
0000
0001
0000
,
1000
0000
0001
0000
1000
0000
0001
1000
,
0000
0001
0000
1000
0001
0000
1000
0000
,
1001
0000
0000
0000
,
1001
1001
1001
1001
,
1000
1000
0001
0001
,
1001
1001
1001
1001
,
1000
0001
0001
0001
,
0110
0110
0100
0100
,
0110
0110
0010
0010
,
0110
0110
0100
0010
,
0110
1010
1001
0101
,
1001
0000
1000
0000
0001
0000
1000
0001
,
0000
1000
0000
0001
1000
0000
0001
0000
,
1000
0000
0001
0000
1000
0000
0001
1000
,
0000
0001
0000
1000
0001
0000
0000
0000
,
0110
0000
0010
0000
0100
0000
0010
0100
,
0000
0010
0000
0100
0010
0000
0000
0000
,
0110
0000
0100
0000
0010
0000
0100
0010
,
0000
0100
0000
0010
0100
0000
0000
0000
,
1001
0000
0000
0000
1000
0000
0000
0001
,
0000
0000
1000
0001
,
1001
0000
0000
0000
0001
0000
0000
1000
,
0000
0000
1001
1000
,
1001
0000
0001
0000
1001
0000
0000
1000
,
0000
0001
0000
1000
0001
0000
1000
0000
,
0001
0000
0000
0000
1001
0000
0000
1001
,
0000
1000
0000
0001
1000
0000
0001
0000
,
1000
0000
0000
0000
0010
0000
0000
0100
,
0000
0000
0110
0000
,
0110
0000
0000
0000
0110
0000
0000
0110
,
0000
0000
0010
0000
0100
0010
0100
0010
,
0100
0010
0100
0000
0010
0000
0100
0010
,
0100
0000
0000
0000
0010
0000
0100
0010
,
0100
0000
0000
0000
1000
0001
1000
0000
,
0010
0100
0010
0000
1001
0000
0000
0000
,
1001
1001
1001
1000
,
0001
1000
1001
1001
,
0001
0000
1000
0000
0001
1000
0001
0000
,
1001
1001
1001
0000
,
0110
0000
0110
0000
0010
0100
0010
0000
,
0110
0000
0100
0010
0100
0000
0010
0000
,
0110
0000
0100
0010
0100
0000
0110
0000
,
0010
0100
0010
0000
0110
0000
0000
0000
,
1001
0000
1000
0001
1000
0000
1001
0000
,
0001
1000
0001
0000
1001
0000
1000
0001
,
1000
0000
1001
0000
0001
1000
0001
0000
,
1001
0000
1000
0001
1000
0001
1000
0000
,
0110
0000
0010
0100
0010
0000
0110
0000
,
0100
0010
0100
0000
0110
0000
0010
0100
,
0010
0000
0110
0000
0100
0010
0100
0000
,
0010
0100
0010
0100
0010
1000
0001
0000
,
1001
0000
0000
0000
;

//---------------dance-single - Renard----------------
#NOTES:
     dance-single:
     Renard:
     Easy:
     3:
     0.313,0.422,0.469,0.019,0.000: // measure 1
0000
0000
0000
0000
,  // measure 2
0000
0000
0000
0000
,  // measure 3
0000
0000
0000
0000
,  // measure 4
0000
0000
0000
0000
,  // measure 5
0000
0000
0000
0000
,  // measure 6
0000
0000
0000
0000
,  // measure 7
0000
0000
0000
0000
,  // measure 8
0000
0000
0000
0000
,  // measure 9
0001
1000
0100
0000
,  // measure 10
1000
0000
0010
0000
,  // measure 11
0100
0001
0010
0000
,  // measure 12
0001
0000
0100
0000
,  // measure 13
0010
1000
0100
0000
,  // measure 14
1000
0010
0100
0000
,  // measure 15
1001
0000
0000
0000
,  // measure 16
1000
0010
0100
0001
,  // measure 17
1000
0001
1000
1001
,  // measure 18
0001
0010
0100
1000
,  // measure 19
1001
1010
1001
0101
,  // measure 20
1001
1000
0001
0100
,  // measure 21
0001
1000
1001
1100
,  // measure 22
1001
0101
0100
1001
,  // measure 23
1000
1010
0101
0000
,  // measure 24
1001
0000
1000
0010
,  // measure 25
1010
0000
0001
0100
,  // measure 26
0101
0000
0001
0010
,  // measure 27
0011
0000
1100
0000
,  // measure 28
1010
0001
1000
0100
,  // measure 29
1001
0100
0001
1000
,  // measure 30
0101
0000
1001
0000
,  // measure 31
0001
1000
1010
1001
,  // measure 32
0101
0000
0010
1000
,  // measure 33
0001
1000
0100
1000
,  // measure 34
0001
0000
0001
0100
,  // measure 35
0001
0010
0001
1000
,  // measure 36
0100
0000
1000
0001
,  // measure 37
0010
0001
1000
0010
,  // measure 38
1000
0000
0001
1000
,  // measure 39
0100
1000
0001
0001
,  // measure 40
1000
0000
0010
1000
,  // measure 41
0001
1000
1010
1001
,  // measure 42
1100
0000
0001
0010
,  // measure 43
0001
0100
0101
1001
,  // measure 44
0011
0000
1001
0000
,  // measure 45
1010
0000
1100
0000
,  // measure 46
1001
0000
0001
0010
,  // measure 47
0100
1000
1001
0000
,  // measure 48
1000
1000
0010
0100
,  // measure 49
0001
0001
0010
0100
,  // measure 50
1000
1000
0010
0100
,  // measure 51
0001
1000
0001
1000
,  // measure 52
0001
0001
0010
0100
,  // measure 53
1000
1000
0010
0100
,  // measure 54
0001
1000
0001
1000
,  // measure 55
0010
0010
1010
0000
,  // measure 56
0101
0000
0011
0000
,  // measure 57
0100
1000
0010
1000
,  // measure 58
1010
0000
1100
0000
,  // measure 59
0010
0001
0101
0000
,  // measure 60
1001
0000
1010
0000
,  // measure 61
1100
0000
0011
0000
,  // measure 62
0001
0100
0010
1000
,  // measure 63
0100
0000
2200
0000
,  // measure 64
3311
0000
0000
0000
;
