#TITLE:Neckbreaker (Dougal & Gammer Remix);
#SUBTITLE:;
#ARTIST:Scott Brown;
#TITLETRANSLIT:;
#SUBTITLETRANSLIT:;
#ARTISTTRANSLIT:;
#CREDIT:;
#BANNER:neck.png;
#BACKGROUND:neck-bg.png;
#LYRICSPATH:;
#CDTITLE:;
#MUSIC:neck.ogg;
#OFFSET:0.000;
#SAMPLESTART:40.921;
#SAMPLELENGTH:12.000;
#SELECTABLE:YES;
#BPMS:0.000=170.000;
#STOPS:;
#BGCHANGES:;
#GENRE:Hardcore;

//---------------dance-single - Renard----------------
#NOTES:
     dance-single:
     Renard:
     Challenge:
     14:
     1.000,1.000,0.918,0.185,1.000: // measure 1
0000
0000
0000
0000
,  // measure 2
0000
0000
0000
0000
,  // measure 3
0000
0000
0000
0000
,  // measure 4
1000
0000
0100
0000
0010
0000
0000
0011
0000
0000
0010
0000
0100
0000
0000
1100
,  // measure 5
0000
0000
0010
0000
0001
0000
0000
0110
0000
0000
1000
0000
0010
0000
0000
0101
,  // measure 6
0000
0000
0010
0000
1000
0000
0000
0101
0000
0000
0001
0000
0010
0000
0000
1100
,  // measure 7
0000
0000
0010
0000
0001
0000
0000
1001
0000
0001
1000
0000
0100
0000
1000
0001
,  // measure 8
1000
0000
0101
0000
0110
0000
0000
1010
0000
0000
1001
0000
0101
0000
0000
0011
,  // measure 9
0000
0000
0110
0000
1100
0000
0000
1001
0000
0000
0101
0000
0011
0000
0000
1001
,  // measure 10
0000
0000
0101
0000
0110
0000
0000
1010
0000
0000
1100
0000
0110
0000
0000
0010
,  // measure 11
0001
0000
0001
0010
0000
0010
0100
0000
1000
0000
0101
0000
1010
0000
0000
0001
,  // measure 12
1001
0000
1000
0000
0010
0100
0000
0001
1000
0000
0001
0100
0001
0000
1000
0000
,  // measure 13
0110
0000
0001
0000
0010
0100
0000
1000
0010
0000
0100
0001
0100
0000
0010
0000
,  // measure 14
1010
0000
0001
0000
0100
0001
0000
1000
0010
0000
1000
0001
1000
0000
0001
0000
,  // measure 15
1100
0000
0010
0001
0010
0000
0100
1000
0100
0000
1000
0010
1000
0001
0100
0000
,  // measure 16
1001
0000
0010
1000
0001
0100
0010
0000
1001
0000
1000
0100
0010
0001
0010
0000
,  // measure 17
1001
0000
0001
0010
0100
1000
0100
0000
1001
0000
1000
0010
0100
0001
0100
0000
,  // measure 18
1001
0100
1010
0100
0011
0100
1001
0010
,  // measure 19
1100
0000
0011
0000
1000
0100
0001
0100
0010
0001
0010
0100
1000
0100
0001
0100
,  // measure 20
2000
0000
0000
0000
0010
0000
0000
0000
0001
0000
3000
0000
0001
1000
0001
0000
,  // measure 21
1100
0000
0000
0110
0000
0000
0011
0000
1001
0000
0000
0000
1000
0001
1000
0001
,  // measure 22
1000
0000
0100
1000
0000
0010
1000
0000
0001
0000
0100
0010
0000
1000
0100
0000
,  // measure 23
0001
0000
0100
0010
0000
1000
0100
0000
0010
0000
0100
0001
0100
0000
0010
0000
,  // measure 24
0100
0000
1000
0010
0000
0100
0001
0000
0100
0000
0010
1000
0000
0100
0001
0000
,  // measure 25
0100
0010
0001
0010
1000
0000
0010
0100
1000
0000
0100
0001
0100
0000
1000
0000
,  // measure 26
0010
0000
0100
0001
0000
1000
0010
0000
1010
0000
0001
0100
0001
0000
1000
0000
,  // measure 27
0100
0000
0010
0001
0000
0001
0010
0000
0011
0000
0010
0100
1000
0100
0010
0000
,  // measure 28
0001
0010
0100
1000
0100
0000
0010
0001
0010
0100
1000
0000
0100
0010
0100
0000
,  // measure 29
0010
0001
0000
2002
0000
0000
3113
0000
,  // measure 30
1000
0000
0000
0000
0000
0000
0100
0000
1000
0000
0100
0000
1000
0000
0000
0000
0000
0000
0001
0000
0010
0000
0001
0000
0010
0000
0000
0000
0000
0000
0001
0000
0000
1000
0000
0000
0001
0000
0000
0000
0000
0000
1000
0000
0000
0000
0000
0000
,  // measure 31
0010
0000
0100
0001
1000
0000
0001
1000
0100
0010
0000
0001
0010
0000
1100
0000
,  // measure 32
0011
0000
0001
0100
0000
0010
1000
0001
0100
0000
0001
1000
0000
0100
0010
0000
,  // measure 33
0011
0000
0010
0100
0000
0100
1000
0010
0100
0001
0100
0000
0010
1000
0010
0000
,  // measure 34
0100
0000
0000
0001
0100
0001
0100
0000
0000
0010
1000
0010
1000
0000
0000
0010
0000
0000
0100
0000
0000
0001
0000
0000
,  // measure 35
1000
0100
1000
0100
1000
0000
0001
0000
0010
0001
0000
0100
0001
0000
1000
0000
,  // measure 36
0010
0100
0010
0100
0010
0000
0100
0000
0001
1000
0000
0100
1000
0000
0001
0000
,  // measure 37
0011
0000
0000
0011
0000
0000
0101
0000
0000
1001
0000
0000
0000
0000
0000
0000
,  // measure 38
2000
0200
0000
0022
0000
0000
0000
0000
,  // measure 39
3333
0000
0000
0000
,  // measure 40
1000
0000
0000
0001
0100
0001
0100
0000
0000
0001
1000
0001
1000
0000
0000
0001
0000
0000
0100
0000
0000
0010
0000
0000
,  // measure 41
1000
0000
0000
0100
1000
0100
1000
0000
0000
0001
1000
0001
1000
0000
0000
0001
0000
0000
0100
0000
0000
0000
0000
0000
,  // measure 42
0010
0000
0000
1000
0010
1000
0010
0000
0000
0100
0001
0100
0001
0000
0000
0100
0000
0000
0010
0000
0000
1000
0000
0000
,  // measure 43
0000
0000
0000
0000
0000
0000
0100
0000
1000
0000
0100
0000
1000
0000
0000
0000
0000
0000
0001
0000
0010
0000
0001
0000
0010
0000
0000
0000
0000
0000
0001
0000
0000
0100
0000
0000
0001
0000
0000
0000
0000
0000
1000
0000
0000
0000
0000
0000
,  // measure 44
0001
0000
0000
1000
0010
1000
0010
0000
0000
1000
0001
1000
0001
0000
0000
1000
0000
0000
0010
0000
0000
0100
0000
0000
,  // measure 45
0001
0000
0000
0010
0001
0010
0001
0000
0000
1000
0001
1000
0001
0000
0000
1000
0000
0000
0010
0000
0000
0000
0000
0000
,  // measure 46
0100
0000
0000
0001
0100
0001
0100
0000
0000
0010
1000
0010
1000
0000
0000
0010
0000
0000
0100
0000
0000
0001
0000
0000
,  // measure 47
0000
0000
0000
0000
0000
0000
0010
0000
0001
0000
0010
0000
0001
0000
0000
0000
0000
0000
1000
0000
0100
0000
1000
0000
0100
0000
0000
0000
0000
0000
1000
0000
0000
0010
0000
0000
1000
0000
0000
0010
0000
0000
1000
0000
0000
0000
0000
0000
,  // measure 48
0010
1000
0010
1000
0001
0000
0100
0001
0100
0001
0100
0000
0010
1000
0010
1000
,  // measure 49
0100
1000
0001
0010
0001
0000
0100
0001
0100
0000
0010
1000
0010
1000
0010
0000
,  // measure 50
1000
0000
0100
1000
0100
0000
0010
0001
0010
0001
0100
0010
1000
0001
0100
0000
,  // measure 51
0001
0000
1000
0100
1000
0000
0001
0010
0001
0000
0100
0001
0100
0010
1000
0000
,  // measure 52
0100
0000
1000
0010
0100
0001
0010
0001
0100
0000
0001
1000
0100
0000
1000
0000
,  // measure 53
0001
0010
0001
0000
0100
0001
0100
0000
0010
0000
1000
0100
1000
0000
0001
0000
,  // measure 54
0020
0001
0032
0000
0100
0100
0203
0000
,  // measure 55
0310
1000
0010
1000
0020
0000
0000
0000
0130
0000
0001
0100
0001
0000
0000
0000
,  // measure 56
1000
0000
1100
0000
0010
0001
0000
0011
0000
0000
0110
0000
0100
1000
0000
1010
,  // measure 57
0000
0000
0110
0000
0001
0100
0000
0110
0000
0000
1010
0000
0001
0100
0000
0011
,  // measure 58
0000
0000
0110
0000
0100
1000
0000
1010
0000
0000
0101
0000
0001
0010
0000
0110
,  // measure 59
0000
0000
1100
0000
1000
0010
0000
0101
0000
0000
1001
0000
1000
0100
0000
1001
,  // measure 60
0000
0000
0101
0000
0010
1000
0000
1001
0000
0000
0110
0000
1000
0010
0000
0110
,  // measure 61
0000
0000
0101
0000
0010
0100
0000
0101
0000
0000
1001
0000
1000
0100
0000
0110
,  // measure 62
0000
0000
0101
0000
0001
0100
0000
0110
0000
0000
1100
0000
1000
0010
1000
0000
,  // measure 63
0002
0200
0000
2020
0000
0000
3333
0000
,  // measure 64
0001
0100
0001
1000
0000
1100
0000
0001
0010
0001
0100
0010
1000
0100
1000
0000
,  // measure 65
0001
0100
0001
1000
0000
1100
0000
1000
0100
0010
0001
0010
0100
1000
0001
0000
,  // measure 66
0100
0001
1000
0010
0000
1010
0000
0010
1000
0001
0100
0001
1000
0100
0010
0000
,  // measure 67
0001
0010
0100
1000
0001
0010
0001
1000
0100
1000
0001
0010
0100
1000
0001
0000
,  // measure 68
1000
0100
1000
0001
0000
1001
0000
1000
0010
0100
0001
1000
0100
0000
0011
0000
,  // measure 69
0100
1000
0010
0100
0000
1000
0010
0100
0001
0100
0010
1000
0000
0101
0000
0001
,  // measure 70
0100
0010
1000
0000
0010
0000
0100
0000
0001
0000
1000
0000
0100
0000
0010
0000
,  // measure 71
0011
0000
0110
0000
2200
0000
0022
0000
0000
0000
0000
0000
,  // measure 72
3333
0000
0000
0000
;
