#TITLE:Nautical Exploration System;
#SUBTITLE:;
#ARTIST:Kitsune²;
#GENRE:Chiptune;
#TITLETRANSLIT:;
#SUBTITLETRANSLIT:;
#ARTISTTRANSLIT:;
#CREDIT:;
#BANNER:nes.png;
#BACKGROUND:nes-bg.png;
#LYRICSPATH:;
#CDTITLE:;
#MUSIC:nes.ogg;
#OFFSET:0.000;
#SAMPLESTART:11.368;
#SAMPLELENGTH:13.980;
#SELECTABLE:YES;
#BPMS:0.000=180.000;
#STOPS:;
#BGCHANGES:;

//---------------dance-single - Renard----------------
#NOTES:
     dance-single:
     Renard:
     Hard:
     9:
     0.737,0.703,0.416,0.142,0.061:
0000
0000
0000
0000
,
0000
0000
0000
0000
,
0000
0000
0000
0000
,
0000
0000
0000
0000
,
0000
0000
0000
0000
,
1000
0000
1100
1000
0000
1000
1010
0000
,
0100
0000
0110
0100
0000
0100
0101
0000
,
0001
0000
0011
0001
0000
0100
0101
0000
,
0001
0000
1000
0000
0100
0000
1000
0000
0001
0100
0001
0100
0001
0000
1000
0000
,
0001
0100
0010
1000
0100
0000
0200
2000
,
0000
0010
0001
0000
0011
0000
3311
0000
,
1000
0010
0100
0001
1000
0100
0010
0100
,
0000
0100
1000
0000
0110
0000
1001
0000
,
0001
0100
0010
1000
0100
0000
0200
2000
,
0000
0010
0001
0000
0011
0000
3311
0000
,
1000
0100
0010
0001
0010
0100
1000
0010
,
0000
0010
0100
0001
0100
0000
0010
0000
,
1000
0010
0100
0001
1000
0100
0010
0100
,
0000
0100
1000
0000
0010
0000
0100
0000
,
0001
0100
0010
1000
0100
0010
0100
1000
,
0000
1001
0000
0101
0000
1000
0001
0100
,
0010
1000
0100
1000
0010
0100
0001
1000
,
0000
2000
0002
0000
0100
0000
3013
0000
,
0010
1000
0100
0010
0001
0010
0100
2000
,
0000
0022
0000
0000
0000
0000
3033
0000
,
1000
0010
0100
0001
1000
0010
0100
0001
,
0000
0002
0200
0000
0010
0000
1313
0000
,
0010
1000
0100
1000
0010
0100
0001
1000
,
0000
1001
0000
0101
0000
0001
1000
0100
,
1000
0010
0100
0001
1000
0100
1000
0100
,
0000
0100
1000
0000
1100
0000
1010
0000
,
0001
0100
0010
1000
0100
1000
0010
0200
,
0000
2002
0000
0000
0000
0000
3303
0000
,
1000
0100
0001
1000
0010
0001
1000
0100
,
0001
1000
0010
0001
1000
0100
0001
0000
,
0100
1000
0010
0001
1000
0100
0001
1000
,
0010
0001
1000
0100
0001
1000
0010
0000
,
0001
0010
1000
0100
0001
1000
0010
0001
,
1000
0100
0001
1000
0010
0001
1000
0000
,
0010
0100
0001
1000
0010
0100
0001
1000
,
0001
0001
0100
0010
1000
1000
0010
0100
,
0001
0010
1000
0001
0100
1000
0001
0010
,
1000
0001
0100
1000
0001
0010
1000
0000
,
0010
0001
0100
1000
0001
0010
1000
0001
,
0100
1000
0001
0010
1000
0001
0100
0000
,
1000
0100
0001
0010
1000
0001
0100
1000
,
0001
0010
1000
0001
0100
1000
0001
0000
,
0100
1010
0101
1001
,
1000
0001
0100
0001
1000
0000
0100
0000
1000
0000
0010
0000
0100
0000
0001
0000
,
0101
0000
1010
0000
1000
0100
1000
1100
,
0000
0000
1010
0000
0000
0000
0001
0000
0100
0000
0001
0100
0001
0000
1000
0000
,
0100
0000
1100
0000
0010
0100
0001
1001
,
0000
0000
0110
0000
0000
0000
0100
0000
0001
0000
0010
0100
1000
0000
0100
0000
,
1010
0000
0101
0000
0001
0010
0001
0011
,
0000
0000
0101
0000
0000
0000
1000
0000
0010
0000
1000
0010
1000
0000
0001
0000
,
0010
0000
0011
0000
0100
0010
1000
1001
,
0000
0000
1001
0000
0000
0000
0010
0000
1000
0000
0010
0100
0001
0000
0100
0000
,
0010
1000
0100
0001
0100
1000
0010
0100
,
0001
0100
0010
1000
0100
0001
0100
0000
,
1000
0010
0001
0010
1000
0100
0010
0100
,
1000
0001
0010
0001
1000
0100
1000
0000
,
0010
0100
0001
0100
1000
0100
0001
0010
,
0100
1000
0010
0100
0001
0100
0010
0000
,
1000
0100
1000
0010
0100
0001
1000
0100
,
1000
0000
0000
0000
1000
0100
1000
0000
0001
0010
0001
0000
1001
0000
0000
0000
,
1000
0100
1000
0001
0010
0001
1000
0100
,
1000
0001
0010
0001
1000
0000
0001
0000
,
1000
0010
1000
0001
0100
0001
1000
0010
,
1000
0001
0100
0001
1000
0000
1001
0000
,
0010
1000
0100
0001
0100
0000
0100
1000
,
0000
1000
0010
0000
1000
0000
0100
0000
,
0001
0100
1000
0010
0100
0001
1000
0100
,
0000
0000
0100
0000
1000
0000
0010
0000
0100
0001
0100
0000
0001
0100
0001
0000
,
0101
0000
0000
0000
;

//---------------dance-single - Renard----------------
#NOTES:
     dance-single:
     Renard:
     Medium:
     6:
     0.359,0.518,0.091,0.020,0.000: // measure 1
0000
0000
0000
0000
,  // measure 2
0000
0000
0000
0000
,  // measure 3
0000
0000
0000
0000
,  // measure 4
0000
0000
0000
0000
,  // measure 5
0000
0000
0000
0000
,  // measure 6
0001
0000
1000
0001
1000
0000
0000
0000
,  // measure 7
0001
0000
1000
0001
1000
0000
0000
0000
,  // measure 8
0001
0000
0000
0001
0100
0000
0000
0100
,  // measure 9
0010
1000
0100
0010
,  // measure 10
0001
0000
1000
0001
1000
0000
0001
0100
,  // measure 11
0000
0001
1000
0100
,  // measure 12
0010
0000
0000
0000
0001
0000
0000
1000
,  // measure 13
0000
0010
0100
0001
,  // measure 14
1000
0000
0100
1000
0001
0000
0000
1000
,  // measure 15
0000
0010
0100
0001
,  // measure 16
1000
0000
0000
0000
0001
0000
0000
0100
,  // measure 17
0000
0001
1000
0100
,  // measure 18
0010
0000
0000
0000
0001
0000
0000
1000
,  // measure 19
0000
0010
0100
0001
,  // measure 20
0010
0000
0000
0000
0100
0000
0000
1000
,  // measure 21
0000
0010
0000
0100
0000
0000
0000
0000
,  // measure 22
0001
0000
0000
0000
1000
0000
0000
0100
,  // measure 23
0000
0010
0001
0010
,  // measure 24
0100
0000
0000
0000
1000
0000
0000
0001
,  // measure 25
0000
0100
0000
0000
0001
0000
1000
0000
,  // measure 26
0100
0000
0000
0000
0010
0000
0000
0001
,  // measure 27
0000
1000
0010
0100
,  // measure 28
0001
0000
0000
0000
1000
0000
0000
0001
,  // measure 29
0000
1000
0010
0100
,  // measure 30
0001
0000
0000
0000
1000
0000
0000
0100
,  // measure 31
0000
0010
0001
1000
,  // measure 32
0010
0000
1000
0000
0001
0000
0100
0001
,  // measure 33
0000
1000
0000
0000
0001
0000
1000
0000
,  // measure 34
0001
0000
0000
0000
1000
0100
0000
1000
,  // measure 35
0000
0010
0000
0100
0000
0001
0000
0000
,  // measure 36
1000
0000
0100
0010
0000
0001
0000
0000
,  // measure 37
1000
0000
0010
0100
0000
0000
0001
0000
,  // measure 38
1000
0000
0000
0000
0100
0010
0000
0001
,  // measure 39
0000
1000
0000
0010
0000
0100
0000
0000
,  // measure 40
0001
0000
0100
0010
0000
1000
0000
0000
,  // measure 41
0001
0001
0100
0100
,  // measure 42
0010
0000
0000
0000
1000
0100
0000
0010
,  // measure 43
0000
0001
0000
0100
0000
0010
0000
0000
,  // measure 44
1000
0000
0000
0100
0000
0000
0010
0000
,  // measure 45
0001
0000
0000
0010
0000
0000
0100
1000
,  // measure 46
0010
0000
0000
0000
0100
0001
0000
1000
,  // measure 47
0000
0010
0000
1000
0000
0000
0001
0100
,  // measure 48
0002
0000
2000
0000
,  // measure 49
0010
0010
3013
0000
,  // measure 50
1000
0000
1000
0000
0001
0100
0000
1001
,  // measure 51
0000
0000
0000
0000
,  // measure 52
0001
0000
0001
0000
1000
0100
0000
1001
,  // measure 53
0000
0000
0000
0000
,  // measure 54
0001
0000
0001
0000
0001
1000
0010
0000
,  // measure 55
1001
0000
0000
0000
,  // measure 56
1000
0000
1000
0000
1000
0001
0010
0000
,  // measure 57
1001
1010
0101
1001
,  // measure 58
1000
0000
0100
0000
0010
0001
1000
0001
,  // measure 59
0000
0000
0000
0000
,  // measure 60
0001
0000
0010
0000
0100
0000
1000
0001
,  // measure 61
0000
0000
0000
0000
,  // measure 62
1000
0000
0100
0000
0010
0001
1000
0001
,  // measure 63
0000
0010
0100
1000
,  // measure 64
0001
0000
1000
0001
0000
0100
0010
0000
,  // measure 65
1000
0100
0000
0010
0001
0000
1000
0000
,  // measure 66
0001
0000
0100
0001
1000
0000
0000
1001
,  // measure 67
0000
1000
0010
0100
,  // measure 68
0001
0000
0000
0000
0001
0000
1000
0100
,  // measure 69
0000
0010
0001
0010
,  // measure 70
0100
0000
1000
0000
0001
0000
0100
0001
,  // measure 71
0000
1000
0001
0000
0100
0000
0010
0000
,  // measure 72
1000
0000
0000
0000
0100
0000
0000
0010
,  // measure 73
0000
0001
1000
0010
,  // measure 74
1001
0000
0000
0000
;

//---------------dance-single - Renard----------------
#NOTES:
     dance-single:
     Renard:
     Easy:
     3:
     0.294,0.333,0.010,0.020,0.000:
0000
0000
0000
0000
,
0000
0000
0000
0000
,
0000
0000
0000
0000
,
0000
0000
0000
0000
,
0000
0000
0000
0000
,
1000
0001
0100
0010
,
1000
0000
0100
0000
,
0010
0001
1000
0010
,
0100
0000
0001
0000
,
1000
0100
1000
0000
,
0001
0010
0001
1000
,
0010
0000
0010
0100
,
0001
0000
1000
0100
,
0010
0000
0001
0010
,
0100
0000
1000
0010
,
0100
0000
0001
1000
,
0001
1000
0001
1000
,
0010
0000
0010
0000
,
1000
0100
0010
0001
,
1000
0000
1000
0000
,
0001
0010
0100
1000
,
0010
0000
0010
0000
,
0100
0001
1000
0001
,
1000
0000
0010
0000
,
0100
0001
1000
0001
,
1000
0000
0100
0000
,
0010
0001
1000
0001
,
1000
0000
0010
0000
,
1000
0001
0100
0001
,
1000
0000
0010
0000
,
1000
0001
0100
0001
,
1000
0000
0100
0000
,
0010
0000
0001
0000
,
1000
0000
1000
0000
,
0001
0000
0001
0000
,
0100
0010
1000
0100
,
0010
0001
0010
0100
,
0100
1000
1000
0000
,
0010
0000
0100
0000
,
0001
0001
0100
0100
,
0010
1000
0100
0010
,
0001
0000
0001
0000
,
0010
0100
1000
0010
,
0100
0000
0100
0001
,
1000
0000
1000
0001
,
0010
0000
0010
0001
,
1000
0010
0100
0001
,
1000
2000
0000
0000
,
0001
0002
0000
3003
,
1000
0000
1000
0000
,
0001
0000
0001
0000
,
0100
0000
0100
0000
,
0010
0000
0010
0000
,
1000
0000
1000
0000
,
0001
0000
0001
0000
,
0100
0000
0010
0000
,
1000
0000
0100
0000
,
0010
0001
1000
0010
,
1000
0001
0100
0001
,
1000
0100
0000
0010
,
0001
0010
0100
1000
,
0010
0100
0001
0100
,
0010
1000
0100
0010
,
0001
0000
0010
0000
,
0100
0000
1000
0000
,
0010
0000
0100
0000
,
0001
0100
0010
1000
,
0100
0000
0010
0000
,
0001
0010
0100
1000
,
0010
0000
0100
0000
,
0001
0100
0010
1000
,
0100
0000
0010
0001
,
1000
0010
1000
0000
,
1001
0000
0000
0000
;
