#TITLE:Multiplies;
#SUBTITLE:;
#ARTIST:Mad Capsule Markets;
#GENRE:Digital Rock;
#TITLETRANSLIT:;
#SUBTITLETRANSLIT:;
#ARTISTTRANSLIT:;
#CREDIT:;
#BANNER:mult.png;
#BACKGROUND:mult-bg.png;
#LYRICSPATH:;
#CDTITLE:;
#MUSIC:mult.ogg;
#OFFSET:0.000;
#SAMPLESTART:20.000;
#SAMPLELENGTH:12.000;
#SELECTABLE:YES;
#BPMS:0.000=120.000;
#STOPS:;
#BGCHANGES:;

//---------------dance-single - Renard----------------
#NOTES:
     dance-single:
     Renard:
     Hard:
     8:
     0.591,0.575,0.635,0.042,0.333:
0000
0000
0000
0000
,
0000
0000
0000
0000
,
1010
0100
0001
0100
0010
1000
0100
0010
,
0001
0100
0001
1000
0100
1000
0010
0100
,
1001
0100
0010
1000
0100
1000
0001
0010
,
0001
0100
0010
1000
0001
0100
0010
0000
,
1001
0100
0001
1000
0100
0010
0001
1000
,
0010
1000
0001
0010
0001
0100
0010
1000
,
0110
0001
0010
0100
1000
0010
0100
0001
,
1000
0000
0100
0000
0010
0000
0001
0000
1000
0000
1000
0000
0001
1000
0001
1000
,
0001
0000
0001
0000
0100
0000
0010
1000
0000
1000
0100
0000
1000
0000
0010
0000
,
0100
0000
0001
0000
0010
0000
0001
0100
0000
0100
0010
0000
1000
0000
0100
0000
,
0010
0000
0001
0000
0010
0000
0100
0010
0000
0010
0001
0000
0010
0000
0100
0000
,
1000
0000
0010
0000
0100
0000
0100
0001
0000
0001
0010
0000
0001
0000
0001
0000
,
1000
0000
1000
0000
0010
0000
0100
0001
0000
0001
0010
0000
0001
0000
0100
0000
,
0010
0000
1000
0000
0100
0000
1000
0010
0000
0010
0100
0000
0001
0000
0010
0000
,
0100
0000
1000
0000
0100
0000
0010
0100
0000
0100
1000
0000
0100
0000
0010
0000
,
0001
0000
0100
0000
0010
0000
0010
1000
0000
1000
0100
0000
1000
0010
1000
0000
,
1010
0000
0100
0000
0001
0000
0010
0000
1001
0000
0000
0110
0000
1010
0000
0000
,
1001
0000
0100
0000
0010
0000
1000
0000
1010
0000
0000
1100
0000
1001
0000
0000
,
0101
0000
0010
0000
0100
0000
0001
0000
0011
0000
0000
0101
0000
0011
0000
0000
,
1001
0000
0100
0000
0010
0000
1000
0000
0101
0000
0000
1010
0000
0101
0000
0000
,
0101
0000
0010
0000
1000
0000
0100
0000
1001
0000
0000
0110
0000
0101
0000
0000
,
1001
0000
0010
0000
0100
0000
0001
0000
0101
0000
0000
0011
0000
1001
0000
0000
,
1010
0000
0100
0000
0010
0000
1000
0000
1100
0000
0000
1010
0000
1100
0000
0000
,
1001
0000
0010
0000
0100
0000
0001
0000
0100
0010
0100
0000
1001
0000
0000
0000
,
0110
0000
2010
0010
0100
3100
1001
0000
,
0101
0000
0012
0010
0100
0103
1001
0000
,
1010
0000
0210
0010
0001
0301
1001
0000
,
1010
0000
0210
0010
1000
1000
0310
0000
,
1001
0000
0000
0000
,
0000
0000
0000
0000
,
0110
0000
0000
0000
,
0000
0000
1010
0101
,
0001
0000
0001
0100
0000
0100
0010
0000
0010
1000
0000
1000
0100
0000
0010
0000
,
0001
0000
0001
0010
0000
0010
0100
0000
0100
1000
0000
1000
0010
0000
0000
0000
,
1001
0000
0001
1000
0000
1000
0010
0000
0010
0100
0000
0100
0001
0000
1000
0000
,
0010
0000
0010
0100
0000
0100
0001
0000
1001
0000
0000
0000
0110
0000
0000
0000
,
1010
0000
1000
0000
0010
0000
0100
0001
0000
0001
0010
0000
0001
0000
0100
0000
,
0101
0000
0100
0000
0010
0000
1000
0100
0000
0100
1000
0000
0010
0000
0100
0000
,
0110
0000
0100
0000
0001
0000
0010
0100
0000
0100
1000
0000
0010
0000
0100
0000
,
0110
0000
0100
0000
0001
0000
1000
0100
0000
0100
1000
0000
0010
0000
0100
0000
,
0101
0000
0001
0000
0100
0000
0010
1000
0000
1000
0100
0000
1000
0000
0010
0000
,
1010
0000
0010
0000
0100
0000
0001
0010
0000
0010
0001
0000
0100
0000
0010
0000
,
0110
0000
0010
0000
1000
0000
0100
0010
0000
0010
0001
0000
0100
0000
0010
0000
,
0110
0000
0010
0000
1000
0000
0001
0010
0000
0010
0001
0000
0100
0000
0010
0000
,
0110
0000
0000
0000
;

//---------------dance-single - Renard----------------
#NOTES:
     dance-single:
     Renard:
     Challenge:
     10:
     0.775,0.767,0.219,0.000,1.000:
0000
0000
0000
0000
,
0000
0000
0000
0000
,
1000
0010
0100
0001
0000
0000
0001
0100
0010
1000
0100
0010
0000
0000
0010
0001
,
0010
0100
1000
0001
0100
0100
0010
1000
0100
0100
1000
0010
0100
0000
0000
0000
,
0010
1000
0001
0100
0000
0000
0100
0010
1000
0100
0010
0001
0000
0000
0001
0010
,
0100
0100
1000
0010
0100
0100
0001
0100
0010
0010
1000
0100
0010
0000
0000
0000
,
0001
0010
0001
0010
0001
0000
0001
0010
0100
1000
0100
1000
0100
1000
0100
0000
,
1000
0010
1000
0010
0100
0001
0100
0001
1000
0100
0010
0001
1000
0000
0000
1000
,
0001
0100
0001
1000
0001
0010
0001
1000
0001
0100
0001
0010
0001
0000
0000
0001
,
1000
0100
1000
0001
1000
0010
1000
0001
1000
0100
1000
0010
1000
0100
0000
0000
,
1000
0000
0100
0000
1000
0000
0010
0100
0000
0100
0001
0000
0100
0000
0010
0000
,
1000
0000
0100
0000
0010
0000
0001
0010
0000
0010
0001
0000
0100
0010
1000
0000
,
0010
0000
0100
0000
0001
0000
1000
0100
0000
0100
0010
0000
0100
0000
1000
0000
,
0001
0000
0100
0000
0010
0000
1000
0001
0000
0001
1000
0000
0100
1000
0100
0000
,
1000
0000
0100
0000
1000
0000
0010
0100
0000
0100
0001
0000
0100
0000
0010
0000
,
1000
0000
0100
0000
0010
0000
0001
0010
0000
0010
0001
0000
0100
0010
1000
0000
,
0010
0000
0100
0000
0001
0000
1000
0100
0000
0100
0010
0000
0100
0000
1000
0000
,
0001
0000
0100
0000
0010
0000
1000
0001
0000
0001
1000
0000
0100
1000
0100
0000
,
1000
0100
1000
0010
0100
0000
0001
0000
1000
0100
0000
1100
0000
1001
0000
0001
,
0100
0010
1000
0100
1000
0000
0010
0100
0001
0100
0000
0101
0000
1010
0000
1000
,
0010
0100
0001
0010
0100
0000
0100
1000
0010
0100
0000
1001
0000
1010
0000
1000
,
0010
0100
0001
0010
0100
0000
0100
1000
0010
0100
0000
1001
0000
0110
0000
1000
,
0010
0100
0001
0100
0010
1000
0100
0010
0100
1000
0000
1001
0000
1010
0000
1000
,
0010
0100
0001
0010
0001
0100
0010
1000
0100
0010
0000
1001
0000
0110
0000
0010
,
0100
0001
0010
0001
0100
0010
1000
0100
0010
0001
0000
1001
0000
0101
0000
0100
,
0010
1000
0100
0010
0001
0010
0100
1000
0010
0100
0000
1001
0000
0110
0000
0000
,
1000
0010
0100
0001
1000
0000
0000
1000
0001
0100
0010
1000
0001
0000
0000
0001
,
1000
0100
0010
0001
1000
0000
0000
1000
0001
0010
0100
1000
0001
0000
0000
0001
,
1000
0010
1000
0001
0010
0000
0000
0010
0001
1000
0010
1000
0001
0000
0000
0001
,
1000
0100
1000
0001
0100
0000
0000
0100
0001
1000
0100
1000
0001
0100
0001
1000
,
1001
0000
0000
0000
,
0000
0000
0000
0000
,
0110
0000
0000
0000
,
0000
0000
0110
1001
,
1000
1000
0100
0010
0010
0100
0001
0001
0100
1000
0100
0010
0001
0010
0001
0000
,
0010
0010
0001
0010
0010
0100
0010
0010
1000
0010
0010
0001
0010
0100
1000
0000
,
1000
1000
0100
1000
1000
0010
1000
1000
0001
1000
1000
0010
0100
0001
1000
0000
,
0001
0100
0001
0010
0001
0100
0010
1000
0100
0010
0001
0010
0100
1000
0001
1000
,
0001
0100
0001
0100
0010
0000
0010
1000
0000
1000
0100
0000
0010
0001
0010
0000
,
0001
0010
0100
1000
0010
0000
0010
0100
0000
0100
0001
0000
1000
0100
1000
0100
,
1000
0010
0100
0001
0010
0000
0010
0001
0000
0001
0100
0000
0010
1000
0010
0000
,
0100
0001
1000
0100
0010
0000
0010
0100
0000
0100
1000
0000
0010
0100
0001
1000
,
0001
0100
0010
1000
0001
0000
0001
1000
0000
1000
0100
0000
0100
1000
0010
0000
,
0100
0001
0100
0010
1000
0000
1000
0100
0000
0100
0010
0000
0001
0010
0100
1000
,
0010
0100
0001
1000
0100
0000
0100
1000
0000
1000
0010
0100
0001
1000
0100
0010
,
0001
1000
0010
0100
0001
1000
0100
1000
0010
0100
0001
0100
0010
1000
0100
0000
,
0011
0000
0000
0000
;

//---------------dance-single - Renard----------------
#NOTES:
     dance-single:
     Renard:
     Medium:
     6:
     0.379,0.407,0.333,0.000,0.000:
0000
0000
0000
0000
,
0000
0000
0000
0000
,
1000
0000
0001
0000
0100
0001
1000
0100
,
0010
0010
0001
0001
0010
0010
0100
0000
,
1000
0001
0100
0010
,
1000
1000
0010
0010
0100
0001
1000
0000
,
0001
1000
0100
1000
,
0001
0001
0010
0001
1000
1000
0010
1000
,
0001
0000
0100
0000
0001
1000
0100
0000
,
1000
0001
1000
0001
1000
0010
1000
0000
,
0001
0000
0100
0000
0010
1000
0100
0000
,
0011
0000
0100
0000
1000
0010
0100
0000
,
1010
0000
0101
0000
0001
0010
0100
0000
,
1100
0000
0011
0000
1000
0010
1000
0000
,
0101
0000
0010
1000
0100
0000
0011
0000
,
1100
0000
0001
0100
0010
1000
0100
0000
,
0011
0000
0100
1000
0010
1000
0001
0000
,
0100
0000
0100
0010
1000
0001
1000
0000
,
0001
1000
0010
0000
,
1001
0000
1010
0101
,
1001
1000
0100
0000
,
0011
0100
1010
0100
,
1001
0000
1000
0000
0001
0100
0001
0100
,
0001
1000
0001
1000
0001
1000
0001
0000
,
1000
1000
0010
0010
0100
0100
0001
0001
,
1000
0100
0010
0001
0010
0100
1000
0000
,
1001
0000
1100
1000
0001
0001
1000
0000
,
1001
0000
0001
0001
1000
1000
0001
0000
,
1001
0000
1000
1000
0001
0001
1000
0000
,
1001
0000
0001
0001
1000
1000
0001
0000
,
1000
0000
0000
0000
,
0000
0000
0000
0000
,
1001
0000
0000
0000
,
0101
0000
0101
0110
,
1010
0000
0000
0000
,
1000
0000
0001
0100
,
0110
0000
1000
0001
,
0101
0000
0110
1010
,
1000
0001
0100
0001
1000
0100
1000
0000
,
0001
0010
0001
1000
0010
1000
0001
0000
,
1000
0100
1000
0001
0010
0001
1000
0010
,
1000
0001
0100
0001
1000
0000
1001
0000
,
0001
0010
0001
0000
1000
0100
1000
0000
,
0010
1000
0010
0000
0001
0100
0001
0000
,
1000
0000
0100
0000
1000
0001
0010
0000
,
0100
1000
0010
0000
1000
0001
1000
0000
,
1001
0000
0000
0000
;

//---------------dance-single - Renard----------------
#NOTES:
     dance-single:
     Renard:
     Easy:
     2:
     0.256,0.383,0.448,0.292,0.000: // measure 1
0000
0000
0000
0000
,  // measure 2
0000
0000
0000
0000
,  // measure 3
1001
0000
1010
0000
,  // measure 4
0010
0000
0101
0000
,  // measure 5
1010
0000
1100
0000
,  // measure 6
0010
0000
0101
0000
,  // measure 7
1000
1000
0001
0100
,  // measure 8
0010
1000
0100
0010
,  // measure 9
0011
0010
0110
0100
,  // measure 10
1100
1001
1010
1001
,  // measure 11
2000
0000
0000
3200
,  // measure 12
0310
0020
0000
0032
,  // measure 13
0203
0000
0000
0320
,  // measure 14
2030
0000
0000
0000
,  // measure 15
3200
0000
0000
0320
,  // measure 16
0032
0000
0000
0203
,  // measure 17
0302
0000
0000
2003
,  // measure 18
3200
0000
0000
0000
,  // measure 19
0310
0010
0100
0000
,  // measure 20
0010
0010
0100
0000
,  // measure 21
1000
1000
0001
0000
,  // measure 22
1000
1000
0001
1000
,  // measure 23
1001
1010
0101
0000
,  // measure 24
0011
0101
1001
0000
,  // measure 25
1100
1010
1001
0000
,  // measure 26
1001
1010
1100
1001
,  // measure 27
0101
0011
0000
1001
,  // measure 28
0101
0011
0000
1001
,  // measure 29
1010
1100
0000
1001
,  // measure 30
1010
1100
0000
1000
,  // measure 31
0001
0000
0000
0000
,  // measure 32
0000
0000
0000
0000
,  // measure 33
1001
0000
0000
0000
,  // measure 34
0000
0000
1010
1001
,  // measure 35
0101
0000
0000
0000
,  // measure 36
0000
0000
0000
0000
,  // measure 37
1001
0000
0000
0000
,  // measure 38
0000
0000
1100
1010
,  // measure 39
2000
0000
0000
3002
,  // measure 40
0203
0000
0000
0320
,  // measure 41
2030
0000
0000
3200
,  // measure 42
2300
0000
0000
0000
,  // measure 43
3002
0000
0000
0203
,  // measure 44
0310
0020
0000
2030
,  // measure 45
3200
0000
0000
0320
,  // measure 46
0032
0000
0000
0000
,  // measure 47
0103
0000
0000
0000
;
