#TITLE:Moonstruck Ardor;
#SUBTITLE:;
#ARTIST:Sonitus Vir;
#GENRE:Electronic Orchestra;
#TITLETRANSLIT:;
#SUBTITLETRANSLIT:;
#ARTISTTRANSLIT:;
#CREDIT:;
#BANNER:ardor.png;
#BACKGROUND:ardor-bg.png;
#LYRICSPATH:;
#CDTITLE:;
#MUSIC:ardor.ogg;
#OFFSET:0.000;
#SAMPLESTART:30.316;
#SAMPLELENGTH:12.000;
#SELECTABLE:YES;
#BPMS:0.000=190.000,160.000=95.000,192.000=190.000;
#STOPS:;
#BGCHANGES:;

//---------------dance-single - Renard----------------
#NOTES:
     dance-single:
     Renard:
     Hard:
     9:
     0.706,1.000,0.391,0.032,0.306:
0000
0000
0000
0000
,
0000
0000
0000
0000
,
0000
0000
0000
0000
,
0000
0000
0000
0000
,
0000
0000
0000
0000
,
0000
0000
0000
0000
,
0000
0000
0000
0000
,
0000
0000
0000
0000
,
1000
0100
0010
0010
0001
0010
0100
0100
,
1000
0010
0100
0001
1000
0100
1000
0000
,
0001
0010
0100
0100
1000
0010
0100
0100
,
0001
0100
0010
1000
0100
0010
0001
1000
,
0100
1000
0001
0001
0010
0001
1000
1000
,
0100
1000
0010
0100
0001
1000
0100
0000
,
1000
0000
1000
0010
0100
0000
0100
0001
,
0010
0000
0010
0100
1000
0001
1000
0000
,
0001
0010
0001
0010
0000
0001
0100
0001
,
0100
0010
1000
0100
0000
0100
1000
0010
,
0100
0001
0100
0001
0000
1000
0100
1000
,
0010
0100
0001
0010
0000
0010
0001
0010
,
0100
1000
0010
0100
0000
0100
0001
1000
,
0100
0010
0100
1000
0000
1000
0001
0010
,
0001
0100
0010
1000
0000
1000
0001
0100
,
0010
1000
0100
1000
0001
0100
0101
0000
,
0001
0001
0010
0100
0100
0000
1000
0000
,
0010
0000
0000
0000
0000
0000
0100
0000
0000
0001
0000
0000
1000
0000
0100
0000
0010
0000
0001
0000
0000
0000
0000
0000
,
0001
0010
0100
1000
0001
0100
0010
1000
,
0001
0010
0001
1000
0001
0100
0001
1000
,
0010
0000
0000
1001
0000
0000
0001
0010
0100
1000
0000
0000
,
0011
0000
0000
1100
0000
0000
1000
0010
0100
0001
0000
0000
,
1100
0000
1010
0000
0100
0001
0010
0000
,
1001
0000
0101
0000
0001
1000
1001
0000
,
1000
1000
0100
0010
0010
0000
0001
0000
,
0100
0000
0000
0000
0000
0000
0010
0000
0000
1000
0000
0000
0001
0000
0010
0000
0100
0000
1000
0000
0000
0000
0000
0000
,
1000
0100
0010
0001
1000
0010
0100
0001
,
1000
0100
1000
0001
1000
0010
1000
0001
,
0100
0000
0000
1001
0000
0000
1000
0100
0010
0001
0000
0000
,
1100
0000
0000
0011
0000
0000
0001
0100
0010
1000
0000
0000
,
0011
0000
0101
0000
0010
1000
0100
0000
,
1001
0000
1010
0000
0100
0001
0010
0100
,
0020
0000
0000
0000
0031
0000
0000
0001
0100
0010
1000
0000
1001
0000
1010
0000
,
0101
0000
0000
0001
0100
0000
0000
0100
0010
1000
0100
0000
1100
0000
1100
0000
,
0010
0000
0000
0001
0000
0000
0010
0000
0100
0000
0000
1000
0000
0000
0100
0000
0010
0000
0000
0001
0000
0000
0100
0000
0010
0000
1000
0000
0001
0000
0100
0000
,
0001
0010
0100
1000
0001
0010
0100
1000
0010
0100
0001
1000
0100
0010
0100
1000
,
0010
0100
0001
0100
0010
0000
0010
1000
0100
0000
0100
1000
0010
0100
0001
0010
,
0100
1000
0010
0100
0001
0000
0001
0100
0010
0000
1000
0000
1001
0000
0101
0000
,
1001
0000
1000
0100
0010
0000
0010
0100
1000
0000
1001
0000
0101
0000
0001
0000
,
0100
0010
0000
0010
1000
0000
1001
0000
0101
0000
0011
0000
1001
0000
1010
0000
,
0202
0000
0000
0300
,
1003
0000
0001
0000
0100
0010
0110
0000
,
1010
0000
0100
0001
0010
0100
1000
0010
,
0100
0001
0100
0010
1000
0100
0010
0000
,
0100
0000
0000
1000
0000
0000
0001
0000
0000
0100
0000
0000
0010
0000
1000
0000
0001
0000
0100
0000
0000
0010
0000
0000
,
1000
0000
0000
0001
0000
0000
0100
0000
0000
0001
0000
0000
1000
0000
0100
0000
0010
0000
0001
0000
0000
0010
0000
0000
,
0100
0000
1000
0000
0100
1000
0000
1000
0100
0000
1000
0000
0010
0000
0100
0000
,
0001
0000
0010
0000
0001
0100
0000
0100
0001
0000
1000
0000
1001
0000
0000
0000
,
1010
0000
0100
0001
0100
0010
1000
0100
,
0010
0001
0010
0100
1000
0010
0100
0001
,
1000
0100
1000
0001
0010
0001
0100
0010
,
1000
0100
0010
0001
0010
0100
1000
0001
,
0100
0000
0000
0010
0000
0000
0100
0000
0000
0001
0000
0000
0100
0000
0010
0000
1000
0000
0010
0000
0000
0100
0000
0000
,
0001
0000
0000
0100
0000
0000
0010
0000
0000
1000
0000
0000
0100
0000
0010
0000
0001
0000
0010
0000
0000
0100
0000
0000
,
1000
0010
0100
0001
1000
0100
1000
0001
,
0010
0001
0100
0010
1000
0100
1000
0001
,
1001
0000
0000
0000
;

//---------------dance-single - Renard----------------
#NOTES:
     dance-single:
     Renard:
     Challenge:
     11:
     0.844,1.000,0.486,0.317,0.486:
0000
0000
0000
0000
,
0000
0000
0000
0000
,
0000
0000
0000
0000
,
0000
0000
0000
0000
,
0000
0000
0000
0000
,
0000
0000
0000
0000
,
0000
0000
0000
0000
,
1000
0100
0010
0001
0100
0010
0100
0001
0010
0100
1000
0010
0100
0010
1000
0001
,
1000
0100
1100
1010
1001
0100
0011
0101
,
1001
0000
0001
0100
0010
1000
0100
1000
,
0010
0100
0101
0110
1100
0000
1100
0110
,
0201
0010
1000
0310
,
1000
0010
1001
1010
1100
0000
1100
0110
,
1100
0000
0010
1000
0001
0100
0001
0000
,
0201
0000
0010
0000
1000
0000
0010
0010
,
0020
0000
0300
0000
2000
0000
0030
0000
3001
1000
0001
1000
0001
1000
0001
0000
,
2000
0100
0010
0100
3200
0010
0001
0010
,
0320
0001
0100
0001
0032
0100
0010
0100
,
0203
0010
1000
0010
0320
1000
0100
1000
,
2030
0001
0010
3001
0100
0001
1000
0000
,
0001
0100
0101
0011
1001
0000
1001
0101
,
0011
0000
0001
0100
0010
1000
0100
1000
,
2100
0100
0010
0010
,
3001
0100
0001
0000
0001
0000
1000
0100
1000
0000
0001
0100
0001
0000
0000
0000
,
0001
0010
0100
0100
0200
0000
2000
0000
,
0010
0000
0001
0302
0200
0003
3311
0000
,
0100
1000
0100
1000
0010
1000
0010
1000
,
0010
0001
0010
0001
0100
0001
0100
1000
,
0100
0000
0000
1010
0000
0000
1000
0010
0100
0001
0000
0000
,
2002
0000
0010
3010
2000
0000
3113
0000
,
1000
0100
1000
0010
0100
0001
0010
0100
,
1000
0000
0001
0000
0100
0000
0001
0000
1000
0001
1000
0000
0001
1000
0001
0000
,
1000
0100
1000
1000
2000
0000
0200
0000
,
0010
0000
0001
0302
0200
0003
3311
0000
,
0010
0001
0010
0001
0100
0001
0100
0001
,
0100
1000
0100
1000
0010
1000
0010
0001
,
0010
0000
0000
0101
0000
0000
0001
0100
0010
1000
0000
0000
,
2002
0000
0100
0103
0002
0000
3113
0000
,
0001
0010
0001
0100
0010
1000
0100
0010
,
0001
0000
1000
0000
0010
0000
1000
0000
0001
1000
0001
0000
1000
0010
1000
0000
,
0001
0000
0000
0000
0000
0000
0100
0000
0000
0001
0000
0000
0101
0000
0000
0000
0000
0000
0000
0000
0000
0001
0000
0000
0100
0000
0000
0000
0000
0000
0010
0000
0000
0000
0000
0000
1000
0000
0100
0000
1000
0000
0100
0000
0000
1000
0000
0000
,
0100
1000
0010
0100
0001
0010
0100
1000
0010
0100
0001
0100
1000
0100
0010
1000
,
0010
0000
0000
0100
0000
0000
0001
0000
1000
0000
0000
0100
0000
0000
0010
0000
0001
0000
0000
0010
0000
0000
0100
0000
1000
0000
0100
0000
1000
0000
0010
0000
,
0100
0001
1000
0001
0100
0001
0100
0010
1000
0100
0010
0001
0010
0100
0010
0001
,
0010
0100
0001
0100
0010
0100
0001
0100
0010
0100
1000
0001
1000
0100
0010
0001
,
0010
0100
1000
0001
0100
0010
1000
0010
0100
0001
0100
0001
1000
0010
1000
0010
,
0100
0001
0010
0001
0100
0010
1000
0100
1000
0010
0100
0001
0010
0001
0100
0010
,
1000
0100
0000
0100
1000
0010
0100
0000
0101
0000
0110
0000
1010
0000
1100
0000
,
1001
0000
0000
0000
,
0000
0000
0000
0000
0000
0000
0000
0000
0000
0000
0100
0010
0110
0000
0000
0000
,
1000
0100
0010
0001
0010
0100
1000
0010
,
0100
0001
0010
0100
1000
0100
0010
0001
,
0010
1000
0010
0100
1000
0100
0001
1000
,
0001
0100
1000
0010
0001
1000
0001
0010
,
1000
0000
1000
0100
1000
0000
0010
0100
0010
0000
0100
0001
0010
0000
0001
0000
,
0010
0100
1000
0010
0100
0001
0010
0100
1000
0001
0010
0100
1000
0010
0100
0000
,
0001
0010
1000
0010
0100
0001
0010
0100
,
1000
0100
0001
0100
0010
0001
0010
1000
,
0010
0100
1000
0010
0100
0001
1000
0100
,
1000
2000
0100
3200
0010
0320
0001
0032
,
1003
0001
0100
0010
1010
0100
0001
0010
,
0011
0010
0100
1000
0010
0100
0001
0100
,
0010
0000
1010
0010
0100
0001
0101
0001
,
0010
0000
0100
0000
0010
0000
0100
0000
1000
0001
1000
0000
0001
1000
0001
1000
,
1001
0000
0000
0000
;

//---------------dance-single - Renard----------------
#NOTES:
     dance-single:
     Renard:
     Medium:
     6:
     0.416,0.574,0.169,0.000,0.000:
0000
0000
0000
0000
,
0000
0000
0000
0000
,
0000
0000
0000
0000
,
0000
0000
0000
0000
,
1000
0000
0001
1000
,
0100
0000
1000
0001
,
0100
0100
0010
0010
,
1000
0000
1000
0000
0001
1000
0001
0000
,
0100
0000
0001
0100
0001
0000
0001
0000
,
1000
0000
0100
0000
,
1000
0000
0010
1000
0010
0000
1000
0001
,
1000
0000
0001
0000
,
0100
0000
0001
1000
0001
0000
1000
0100
,
1000
0000
0010
0000
,
0100
0100
0010
0010
,
1000
1000
0001
0000
,
0100
0000
0001
0000
1000
0000
0100
1000
,
0100
1000
0010
0100
,
0001
0000
0010
0000
0001
0000
1000
0100
,
1000
1000
0010
0100
,
0001
0000
0010
0000
0001
0000
1000
0100
,
1000
0010
0100
0001
,
1000
1000
0001
0001
,
0010
0010
0100
0000
,
1000
0000
0001
1000
0001
0000
1000
0000
,
0010
0000
0100
0000
,
0001
0000
0010
0001
0010
0000
0100
0000
,
1000
1000
0001
0000
,
1000
0000
0000
1000
0010
0000
0000
0010
,
0100
0000
0000
0100
0001
0000
0000
0001
,
1000
1000
0001
0001
,
1000
0000
0001
0000
1000
0001
1000
0000
,
0001
0000
0100
0001
0100
0000
0001
1000
,
0001
1000
0100
1000
,
0001
1000
0100
1000
,
0011
0010
0110
0100
,
1100
0000
1000
0000
0010
0000
1000
0010
,
1000
0010
0100
0001
,
0010
0010
0001
0001
,
0100
0000
0001
0100
0001
0000
1000
0000
,
0001
0000
0100
0000
0010
1000
0100
0010
,
0001
0000
0010
0000
0100
1000
0010
0100
,
0001
1000
0100
1000
,
0011
0010
0110
0100
1100
1000
1001
0000
,
0101
0110
1100
0110
,
0001
0100
1000
0100
0001
0010
1000
0010
,
0001
0010
0100
1000
,
1001
1010
0101
1001
,
0001
0010
0100
1000
0001
0000
1000
0000
,
0001
1000
0001
1000
,
0001
1000
0010
1000
,
0001
0000
0100
0000
0001
1000
0001
0000
,
0100
0001
1000
0100
,
1000
0001
0010
0001
,
1000
1000
0001
0001
,
1000
0000
0001
0000
1000
0001
1000
0001
,
1000
1000
0001
0001
,
0100
0010
1000
0100
,
0010
0001
0010
0100
,
1000
1000
0001
0001
,
0100
0000
0001
0000
1000
0000
0001
0010
,
0001
1000
0010
1000
,
0001
0001
0100
0100
,
0001
1000
0100
0000
,
1001
0000
0000
0000
;

//---------------dance-single - Renard----------------
#NOTES:
     dance-single:
     Renard:
     Easy:
     3:
     0.326,0.405,0.095,0.053,0.000: // measure 1
0000
0000
0000
0000
,  // measure 2
0000
0000
0000
0000
,  // measure 3
0000
0000
0000
0000
,  // measure 4
0000
0000
0000
0000
,  // measure 5
0001
0000
1000
0100
,  // measure 6
1000
0010
0100
0001
,  // measure 7
1000
0000
1000
0000
,  // measure 8
0001
0000
0001
0000
,  // measure 9
1000
0001
0100
0001
,  // measure 10
1000
0000
1000
0000
,  // measure 11
0001
0010
0001
1000
,  // measure 12
0010
0010
1000
1000
,  // measure 13
0000
0001
0100
0001
,  // measure 14
1000
0000
0001
0000
,  // measure 15
1000
1000
0001
0001
,  // measure 16
0010
0010
0100
0000
,  // measure 17
1000
0001
0100
0001
,  // measure 18
1000
0010
1000
0001
,  // measure 19
0010
0001
1000
0100
,  // measure 20
0010
0010
0001
0001
,  // measure 21
0000
0010
0100
1000
,  // measure 22
0010
0000
0100
0001
,  // measure 23
2000
0000
3002
0000
,  // measure 24
0203
0000
0320
0000
,  // measure 25
1030
1000
0010
0100
,  // measure 26
0001
0001
0100
0010
,  // measure 27
1000
0000
1000
0000
,  // measure 28
0001
0000
0001
0000
,  // measure 29
0010
0001
0010
0100
,  // measure 30
1000
1000
0100
1000
,  // measure 31
0100
0000
0010
0001
,  // measure 32
1000
0000
0010
1000
,  // measure 33
0001
0001
0100
0100
,  // measure 34
0001
0000
1000
0000
,  // measure 35
0010
0010
1000
0010
,  // measure 36
0100
0000
0010
1000
,  // measure 37
0100
0100
0010
0010
,  // measure 38
0001
1000
0001
0010
,  // measure 39
0100
0000
1000
0000
,  // measure 40
0010
1000
0001
0000
,  // measure 41
0100
0100
0010
0010
,  // measure 42
1000
1000
0001
0010
,  // measure 43
0100
0010
0100
1000
,  // measure 44
1001
0100
1010
0100
,  // measure 45
1001
0100
0011
0100
,  // measure 46
0001
1000
0010
0100
,  // measure 47
0001
1000
0100
0010
,  // measure 48
0001
1000
0010
0100
,  // measure 49
0002
0000
0000
0000
,  // measure 50
0000
0000
0000
1003
,  // measure 51
1000
0010
0100
0001
,  // measure 52
1000
0001
1000
0010
,  // measure 53
0100
0001
0010
0100
,  // measure 54
1000
0000
0010
0000
,  // measure 55
1001
0100
1010
0100
,  // measure 56
0011
0100
1001
0000
,  // measure 57
0001
0100
0010
0010
,  // measure 58
1000
0010
0100
0100
,  // measure 59
0001
1000
0100
0100
,  // measure 60
0010
0001
0100
0100
,  // measure 61
0001
1000
0001
0010
,  // measure 62
0001
1000
0010
1000
,  // measure 63
0001
0100
0001
1000
,  // measure 64
0100
0010
0001
0000
,  // measure 65
1001
0000
0000
0000
;
