#TITLE:Mike Tyson's Punch Out;
#SUBTITLE:;
#ARTIST:Totally Radd!!;
#GENRE:Digital Rock;
#TITLETRANSLIT:;
#SUBTITLETRANSLIT:;
#ARTISTTRANSLIT:;
#CREDIT:;
#BANNER:punchout.png;
#BACKGROUND:punchout-bg.png;
#LYRICSPATH:;
#CDTITLE:;
#MUSIC:punchout.ogg;
#OFFSET:0.000;
#SAMPLESTART:2.743;
#SAMPLELENGTH:12.000;
#SELECTABLE:YES;
#BPMS:0.000=175.000;
#STOPS:;
#BGCHANGES:;

//---------------dance-single - Renard----------------
#NOTES:
     dance-single:
     Renard:
     Challenge:
     9:
     0.770,0.821,1.000,0.314,0.020:
0000
0000
0000
0000
,
1000
1000
1000
1000
,
1111
0000
0000
0000
0000
1000
0001
1000
,
1001
0000
0000
0000
,
1111
0000
0000
0000
0000
0001
1000
0001
,
1001
0000
0000
0000
,
1111
0000
0000
0000
0000
0100
0010
0100
,
0110
0000
0000
0000
,
1111
0000
0000
0000
0000
0010
0100
0010
,
0110
0000
0000
1010
,
0101
0000
1001
0000
0001
0100
0001
0100
,
0001
0000
1000
0010
1000
0010
1000
0000
,
0001
0100
0010
1000
0001
0100
0010
1000
,
0001
0100
0010
1000
0001
0100
0010
1000
,
0202
0000
0000
1313
0000
0000
2200
0000
,
0000
3311
0000
0000
0220
0000
1331
0000
,
1000
0010
0100
0001
1000
0010
0100
0001
,
1000
0010
0100
0001
1000
0010
0100
0001
,
2200
0000
0000
3311
0000
0000
0202
0000
,
0000
1313
0000
0000
0220
0000
1331
0000
,
1000
0100
0010
0001
1000
0100
0010
0001
,
1000
0100
0010
0001
1000
0100
0010
0001
,
0100
0010
1000
0100
0010
0001
0100
0010
,
1000
0100
0010
0001
0100
0010
1000
0001
,
1000
0100
0010
0001
0100
0010
1000
0001
,
1000
0100
0010
0001
0100
0010
1000
0001
,
1000
1100
1010
1001
,
1000
0001
1000
0002
0000
0000
0000
0000
0000
1113
0000
0000
,
1000
0010
0100
0001
0000
1001
1001
0000
,
0001
0100
0010
1000
0000
1001
1001
0000
,
1000
0100
0010
0001
0000
1001
1001
0000
,
0001
0010
0100
1000
0000
1001
1001
0000
,
0100
0010
1000
0001
0000
0110
0110
0000
,
0010
0100
0001
1000
0000
0110
0110
0000
,
1000
0100
0010
0100
0000
0110
0110
0000
,
0001
0010
0100
0010
0000
0110
0110
0000
,
1111
0000
0110
0000
1001
1000
0010
0100
,
1001
1001
1001
1001
,
1111
0000
0110
0000
1001
0001
0100
0010
,
1001
1001
1001
1001
,
1111
0000
0110
0000
1001
1000
0100
0010
,
1001
0110
0110
0110
,
1111
0000
0110
0000
1001
0001
0010
0100
,
1001
0000
0000
1100
,
1001
0000
0101
0000
0011
0000
1000
0100
,
1000
0000
0001
0010
0001
0010
0001
0000
,
1000
0100
1000
0100
1000
0100
1000
0100
,
1000
0100
1000
0100
1000
0100
1000
0000
,
2200
0000
0000
0011
3311
0000
0202
0000
,
0000
1010
1313
0000
1001
1001
0000
0000
,
0001
0010
0001
0010
0001
0010
0001
0010
,
0001
0010
0001
0010
0001
0010
0001
0000
,
0202
0000
0000
1010
1313
0000
2200
0000
,
0000
0011
3311
0000
1001
1001
0000
0000
,
1000
0010
0100
0001
1000
0100
0010
0100
,
0000
1100
0000
1010
0000
1001
0000
0101
,
0000
0001
0100
0010
1000
0100
1000
0010
,
0000
1010
0000
1001
0000
0001
0100
0000
,
0101
0000
1000
0010
0100
0001
1000
0100
,
0000
1100
0000
0000
1010
1010
0000
0000
,
2002
0000
0000
0000
,
0100
0010
0100
0020
0000
0000
0030
0000
0000
3113
0000
0000
,
1000
0100
0010
0001
0000
1001
1001
0000
,
0001
0010
0100
1000
0000
1001
1001
0000
,
1000
0010
0100
0001
0000
1001
1001
0000
,
0001
0100
0010
1000
0000
1001
1001
0000
,
1000
0100
0010
0002
0000
1010
1013
0000
,
0001
0010
0100
2000
0000
0011
3011
0000
,
1000
0010
0100
0002
0000
1010
1013
0000
,
0001
0100
0010
1000
0200
2000
0020
0000
,
0002
0000
3333
0000
;

//---------------dance-single - Ryvard and Renard----------------
#NOTES:
     dance-single:
     Ryvard and Renard:
     Hard:
     8:
     0.495,0.603,0.496,0.101,0.010:
0000
0000
0000
0000
,
0000
0000
0000
0000
,
1010
0000
0000
0000
0000
0001
0100
1000
,
0100
0000
0000
0000
,
0010
0000
0000
0000
0000
1000
0001
0100
,
0101
0000
0000
0000
,
1010
0000
0000
0000
0000
0001
0100
0001
,
0110
0000
0000
0000
,
0110
0000
0000
0000
0000
0010
0100
0001
,
1000
0000
0000
0000
0000
0000
0000
0101
,
1001
0110
1000
0001
,
0100
0010
1000
0001
,
0110
1000
0100
0001
,
1000
0000
0001
0000
0100
0010
0000
0000
,
0110
0000
0000
1001
0000
0000
0100
0010
,
0000
1001
0000
0000
0110
0000
1001
0000
,
0110
1000
0001
1000
,
0100
0000
0010
0000
1000
0001
0000
0000
,
0110
0000
0000
1001
0000
0000
0110
0000
,
0000
1001
0000
0000
0010
1000
0010
1000
,
1010
0000
0100
0000
0001
0000
0010
1000
,
0000
0001
0000
0100
0000
0010
0000
1000
,
0000
0000
0000
0000
0000
0000
0001
0100
,
0000
0010
0000
1000
0000
0001
1000
0000
,
0200
0000
0000
0000
0000
0300
0010
1000
,
0000
0001
0000
0000
0100
0010
0100
0000
,
2002
0000
0000
0000
0000
3003
0000
0000
,
0010
0000
0100
0000
0010
0000
0100
0000
0010
0000
0100
0000
0010
0100
0010
0100
,
0001
1000
0001
1000
0000
0010
0100
0000
,
0010
0100
0010
0100
0000
0010
0100
0000
,
0001
1000
0001
0110
0000
0010
0100
0000
,
0010
1000
0010
1001
0000
0010
1000
0000
,
0001
0100
0010
1001
0000
0001
0100
0000
,
1000
0100
0010
1001
0000
0001
0101
0000
,
1000
0001
0100
0010
,
2000
0010
0001
3100
,
1010
0000
1001
0000
0100
0001
1000
0010
,
0100
0001
1000
0010
,
0101
0000
1010
0000
0001
0100
0001
0100
,
0001
1010
0101
1010
,
1010
0000
1000
0000
0001
0100
0001
0100
,
0010
0110
0001
0101
,
0010
0000
0110
0000
0001
1000
0001
0100
,
0001
0000
0110
0000
0010
1000
0001
0100
,
1001
0220
0000
0000
,
0000
0330
1000
0001
,
0110
0010
0100
1001
,
1001
0000
0010
0000
0100
0010
0000
0000
,
0101
0000
0000
0110
0000
0000
1100
0000
,
0000
0110
0000
0000
0001
1000
0001
0000
,
0110
1000
0100
0001
,
0010
0000
0100
0000
0001
1000
0000
0000
,
0010
0000
0000
0100
0000
0000
0110
0000
,
0000
0001
0000
0000
0001
1000
0001
1000
,
0001
0000
1000
0000
0001
0000
0010
0100
,
0000
0010
0000
1000
0000
0001
0000
0100
,
0000
0000
0010
0000
1000
0000
0010
1000
,
0000
0001
0000
0100
0000
0010
0000
1000
,
0000
0000
0001
0000
0100
0000
0001
1000
,
0000
0010
0000
0000
0100
0010
0100
0000
,
0001
1000
0010
0100
,
0001
0001
0001
0000
0100
0000
0010
0000
,
2000
0100
0001
0010
,
0001
0000
0010
0000
0001
3000
0100
0000
,
0002
0010
0100
1000
,
0010
0000
0100
0000
1000
0100
1000
0003
,
0020
0100
0001
1000
,
0001
0000
1000
0000
0100
0000
1000
0030
,
2000
0100
0001
0100
,
0010
0000
0001
0000
0100
0001
0100
0000
,
3001
0000
0000
0000
;

//---------------dance-single - Renard----------------
#NOTES:
     dance-single:
     Renard:
     Medium:
     6:
     0.428,0.461,0.162,0.041,0.000:
0000
0000
0000
0000
,
1000
1000
1000
0000
,
0001
0000
1000
0000
0000
0010
1000
0000
,
0001
0000
1000
0000
0000
0001
1000
0000
,
0100
0000
1000
0000
0000
0001
1000
0000
,
0010
0000
0100
0000
0000
0001
0010
0000
,
0100
0000
1000
0000
0000
0001
1000
0000
,
0010
0000
1000
0000
0000
0001
0100
0000
,
0001
0000
0000
0000
0000
1000
0001
0000
,
1001
0000
0000
0000
,
1010
0101
0000
1001
,
1010
1100
0000
0011
,
0100
0000
0000
0001
,
1000
0000
0100
0000
1000
0010
0000
0000
,
1000
0000
0000
0001
0100
0000
0010
0000
,
0000
1000
0001
0000
1000
0001
0000
0000
,
1000
0000
0000
0010
,
0100
0000
0001
0000
1000
0001
0000
0000
,
0100
0000
0000
0010
1000
0000
0001
0000
,
0000
0100
0001
0000
0010
0001
0000
0000
,
0010
0000
0100
0000
1000
0000
0001
1000
,
0000
1000
0000
0010
0000
0100
0000
0001
,
0000
0000
1000
0000
0001
0000
0100
0001
,
0000
1000
0000
0100
0000
0000
1000
0000
,
0010
0000
0010
0000
0100
0000
0001
1000
,
0000
0001
0000
0000
0100
0001
0000
0000
,
1000
1000
0001
0001
,
0100
0100
0010
0010
,
1000
0000
1000
0010
0000
0010
1000
0000
,
0001
0000
0001
0100
0000
0100
0001
0000
,
1000
0000
1000
0100
0000
0100
1000
0000
,
0001
0000
0001
0010
0000
0010
0001
0000
,
1000
0000
1000
0010
0000
0010
1000
0000
,
0001
0000
0001
0100
0000
0100
0001
0000
,
1000
0000
1000
0100
0000
0100
1000
0000
,
0001
0000
0001
0010
0000
0010
0001
0000
,
1000
1000
1000
1000
,
0010
0010
0010
0010
,
0100
0100
0100
0100
,
0001
0001
0001
0001
,
1000
1000
1000
1000
,
0100
0100
0100
0100
,
0010
0010
0010
0010
,
0001
0001
0001
0001
,
1001
1001
1000
1000
,
1001
1001
0001
0001
,
2000
0000
0000
3010
,
0100
0000
0001
0000
1000
0001
0000
0000
,
1001
0000
0000
0001
1000
0000
1001
0000
,
0000
1000
0001
0000
1000
0001
0000
0000
,
0002
0000
0000
0013
,
0100
0000
1000
0000
0010
1000
0000
0000
,
0001
0000
0000
1000
0001
0000
1001
0000
,
0000
0001
1000
0000
1000
0000
0001
0000
,
0100
0000
0100
0000
0010
0000
1000
0001
,
0000
1000
0000
0010
0000
0100
0000
0001
,
0000
0000
0010
0000
0100
0000
1000
0001
,
0000
1000
0000
0010
0000
0100
0001
0000
,
1000
0000
1000
0000
0001
0000
0100
0001
,
0000
1000
0000
0000
0001
1000
0000
0000
,
0001
0001
1000
1000
,
0001
0001
0100
0100
,
0010
0000
1000
0010
0000
1000
0010
0000
,
0100
0000
0001
0100
0000
0001
0100
0000
,
0001
0000
0010
0001
0000
0010
0001
0000
,
1000
0000
0100
1000
0000
0100
1000
0000
,
0010
0010
1000
1000
,
0001
0100
0001
0000
0001
0000
0001
0000
,
1000
1000
0100
0100
,
0010
0001
0010
0000
2200
0000
0000
0000
,
3311
0000
0000
0000
;

//---------------dance-single - Renard----------------
#NOTES:
     dance-single:
     Renard:
     Easy:
     4:
     0.286,0.425,0.030,0.000,0.000: // measure 1
0000
0000
0000
0000
,  // measure 2
0000
0000
0000
0000
,  // measure 3
1000
0000
0000
0000
0000
0001
0000
0000
,  // measure 4
0100
0000
0000
0000
,  // measure 5
0010
0000
0000
0000
0000
1000
0000
0000
,  // measure 6
0100
0000
0000
0000
,  // measure 7
0010
0000
0000
0000
0000
0001
0000
0000
,  // measure 8
0100
0000
0000
0000
,  // measure 9
0010
0000
0000
0000
0000
1000
0000
0000
,  // measure 10
0100
0000
0000
0000
,  // measure 11
1001
1001
0000
0000
,  // measure 12
1000
0000
0001
0000
,  // measure 13
1000
0000
0001
0000
,  // measure 14
0100
0000
0010
0000
1000
0010
0000
0000
,  // measure 15
1000
0000
0000
0001
0000
0000
0100
0000
,  // measure 16
0000
0001
0000
0000
1000
0000
0100
0000
,  // measure 17
0010
0000
0000
0001
0000
0000
1000
0000
,  // measure 18
0001
0000
0100
0000
0001
1000
0000
0000
,  // measure 19
0001
0000
0000
0100
0000
0000
0010
0000
,  // measure 20
0000
1000
0000
0000
0100
0000
1000
0000
,  // measure 21
0001
0000
0000
0000
1000
0000
0000
0001
,  // measure 22
0000
1000
0000
0010
0000
0100
0000
0000
,  // measure 23
0001
0000
0000
0000
1000
0000
0000
0100
,  // measure 24
0000
1000
0000
0001
0000
0000
0100
0000
,  // measure 25
0001
0000
0000
0000
1000
0000
0000
0100
,  // measure 26
0000
1000
0000
0001
0000
0100
0000
0000
,  // measure 27
0001
0000
0001
0000
,  // measure 28
1000
1000
1000
0000
,  // measure 29
0001
0001
0100
0100
,  // measure 30
0001
0000
0100
0000
,  // measure 31
0001
0001
1000
1000
,  // measure 32
0001
0000
0001
0000
,  // measure 33
1000
1000
0100
0100
,  // measure 34
1000
0000
0100
0000
,  // measure 35
1000
1000
0001
0001
,  // measure 36
1000
0001
1000
0000
,  // measure 37
0001
0000
0001
0000
,  // measure 38
0010
0010
0010
0000
,  // measure 39
0100
0000
0100
0000
,  // measure 40
1000
1000
1000
0000
,  // measure 41
0001
0000
0001
0000
,  // measure 42
0100
0100
0100
0000
,  // measure 43
0010
0000
0010
0000
,  // measure 44
1000
1000
1000
0000
,  // measure 45
1000
0010
1000
0010
,  // measure 46
1000
0010
1000
0000
,  // measure 47
1001
0000
0000
0010
,  // measure 48
1000
0000
0001
0000
1000
0001
0000
0000
,  // measure 49
0100
0000
0000
0010
0000
0000
1000
0000
,  // measure 50
0000
0100
0000
0000
0010
0000
0001
0000
,  // measure 51
1000
0000
0001
0100
,  // measure 52
0001
0000
1000
0000
0001
1000
0000
0000
,  // measure 53
0010
0000
0000
0100
0000
0000
0001
0000
,  // measure 54
0000
1000
0000
0000
0100
0000
1000
0000
,  // measure 55
0001
0000
0000
0000
1000
0000
0000
0010
,  // measure 56
0000
1000
0000
0001
0000
0100
0000
0000
,  // measure 57
0001
0000
0000
0000
1000
0000
0000
0100
,  // measure 58
0000
1000
0000
0001
0000
0100
0000
0000
,  // measure 59
0001
0000
0000
0000
1000
0000
0000
0100
,  // measure 60
0000
1000
0000
0000
0001
0000
0100
0000
,  // measure 61
0001
0000
0001
0000
,  // measure 62
1000
1000
0100
1000
,  // measure 63
0001
0000
0000
1000
0000
0000
0001
0000
,  // measure 64
0100
0000
0000
0010
0000
0000
0100
0000
,  // measure 65
0001
0000
0000
1000
0000
0000
0001
0000
,  // measure 66
0100
0000
0000
0010
0000
0000
0100
0000
,  // measure 67
0001
0000
0000
1000
0000
0000
0001
0000
,  // measure 68
0100
0000
0000
0010
0000
0000
0100
0000
,  // measure 69
0001
0000
0000
1000
0000
0000
0001
0000
,  // measure 70
1000
0100
1000
0100
1000
0100
1000
0100
,  // measure 71
1000
0000
0000
0000
;
