#TITLE:Midnight;
#SUBTITLE:;
#ARTIST:Uncut;
#GENRE:Jazzstep;
#TITLETRANSLIT:;
#SUBTITLETRANSLIT:;
#ARTISTTRANSLIT:;
#CREDIT:;
#BANNER:midnight.png;
#BACKGROUND:midnight-bg.png;
#LYRICSPATH:;
#CDTITLE:;
#MUSIC:midnight.ogg;
#OFFSET:0.000;
#SAMPLESTART:43.866;
#SAMPLELENGTH:11.000;
#SELECTABLE:YES;
#BPMS:0.000=175.000;
#STOPS:77.000=0.343
;
#BGCHANGES:;

//---------------dance-single - Renard----------------
#NOTES:
     dance-single:
     Renard:
     Hard:
     9:
     0.692,0.648,0.593,0.055,0.041:
0000
0000
0000
0000
,
0000
0000
0000
0000
,
0000
0000
0000
0000
,
0000
0000
0000
0000
,
1000
0000
1010
0000
0000
1000
1100
0000
,
1000
0000
1010
0000
0000
1000
1100
0000
,
0001
0000
0011
0000
0000
0001
0101
0000
,
0001
0000
0011
0000
0000
0001
0101
0000
,
0011
0000
1100
0000
1000
0010
0100
0000
,
0110
0000
1001
0000
0001
0100
0010
0000
,
0110
0000
1010
0000
1000
0010
0100
0001
,
0101
0000
1010
0000
1000
0100
1000
0000
,
1100
0000
0011
0000
0001
0100
0010
0000
,
0110
0000
1001
0000
1000
0010
0100
0000
,
0110
0000
0101
0000
0001
0100
0010
1000
,
1010
0000
0101
0000
0001
0010
0001
0000
,
0001
0010
0100
0010
0001
0100
0010
0100
,
0001
0010
0100
0010
0001
0100
0010
0000
,
1000
0100
0010
0100
1000
0010
0100
0010
,
0100
0000
0001
0000
0200
0300
0000
0000
0110
0000
0000
0000
0010
0000
1000
0000
,
0100
0000
0010
0000
0100
0000
1000
0000
0010
0000
0100
0010
0100
0000
0010
0000
,
1000
0100
0010
0001
0010
0000
0001
0010
,
1000
0000
0010
0000
0100
0000
0001
0000
0100
1000
0100
0000
1000
0000
0010
0000
,
0100
0001
0100
0010
1000
0000
0010
0010
,
0100
0000
0001
0000
1000
0000
0010
0100
0010
0000
1000
0000
0001
0000
0001
0000
,
0100
0000
0010
1000
0100
0000
1000
0000
0010
0000
0000
0000
0100
0000
0100
0000
,
0010
0000
1000
0000
0100
0000
1000
0001
1000
0000
0001
0000
0100
0000
0100
0000
,
0010
0000
1000
0000
0100
0000
1000
0100
1000
0000
0000
0000
0100
0000
0000
0100
,
1000
0000
1000
0000
0010
0000
0000
0010
0001
0000
0001
0000
0010
0000
0000
0010
,
0100
0100
0001
0100
0010
1000
0001
0100
,
0010
1000
0100
0001
0100
1000
0010
0100
,
0001
0100
0020
0000
0130
0000
1010
0000
,
0101
0000
0001
1000
0100
0000
1100
0000
,
0011
0000
1000
0001
0100
0000
0001
0100
,
0001
0100
1000
0100
1000
0100
0001
0010
,
0001
0010
1000
0010
1000
0000
0011
0000
,
1100
0000
1000
0010
1000
0000
0101
0000
,
0110
0000
0010
1000
0100
0000
1000
0100
,
1000
0100
0001
0100
0001
0100
1000
0010
,
1000
0010
0001
0010
0001
0000
0101
0000
,
1010
0000
1000
0010
0100
0000
1010
0000
,
0101
0000
0001
1000
0010
0000
1000
0010
,
1000
0010
0001
0010
0001
0010
1000
0100
,
1000
0100
0001
0100
0001
0000
1100
0000
,
0011
0000
0001
1000
0100
0000
1010
0000
,
0110
0000
1000
0010
1000
0000
0001
0010
,
0001
0010
1000
0010
1000
0010
0001
0100
,
0001
0100
1000
0000
0100
0001
0100
0010
,
1000
0100
0010
0100
1000
0001
0100
0010
,
0100
0010
0100
0010
1000
0100
0010
0100
,
1000
0001
0010
0100
0010
0001
1000
0001
,
1000
0001
1000
0000
0010
0100
0001
1000
,
0100
0010
0100
1000
0001
0010
0100
0010
,
0100
0010
0100
0010
0001
0100
0010
1000
,
0100
0010
0100
1000
0001
0010
0001
0000
,
1000
0100
1000
0000
0001
0000
0101
0000
,
0101
0000
0001
0100
0010
1000
1010
0000
,
1100
0000
1000
0100
0010
0000
0011
0000
,
1100
0000
1000
0010
0100
0001
0101
0000
,
0101
0000
0001
0100
0010
0000
1100
0000
,
1100
0000
1000
0010
0100
0001
1001
0000
,
1001
0000
1000
0010
0100
0001
1000
1000
,
0100
0100
1000
0010
0100
0001
1000
0001
,
0100
0010
1000
0100
0010
0001
0011
0000
,
1100
0000
1000
0010
0100
0001
0011
0000
,
1100
0000
1000
0010
0100
0000
0001
0000
,
0100
0000
0010
1000
0000
1000
0010
0000
,
0100
0000
0001
0100
0001
0000
0101
0000
,
1010
0000
1000
0100
1000
0000
0010
0000
,
0100
0000
0001
0010
0000
0010
0001
0000
,
0001
0100
0000
0100
0010
0000
1000
0000
,
0002
0200
0003
0310
,
1000
0000
0100
0010
0100
0000
1000
0000
,
0001
0100
0000
0010
,
1000
0000
0001
0100
0010
0000
1000
0000
,
0100
0010
0000
0100
,
1000
0000
0001
0100
0001
0000
1001
0000
,
1001
0000
1000
0010
0100
0000
0101
0000
,
0202
0000
0303
0110
,
1010
0000
0000
0000
;

//---------------dance-single - Renard----------------
#NOTES:
     dance-single:
     Renard:
     Medium:
     6:
     0.388,0.504,0.219,0.000,0.000:
0000
0000
0000
0000
,
0000
0000
0000
0000
,
0000
0000
0000
0000
,
0000
0000
0000
0000
,
1000
0000
0001
0000
0100
0010
1000
0000
,
0010
0101
0000
1001
,
1000
0000
0100
0000
0010
0001
0010
0000
,
0100
1001
0000
1010
,
1010
0000
1010
0000
0000
0001
0100
0000
,
0011
0000
0011
0000
0000
0001
1000
0000
,
1100
0000
1100
0000
0000
1000
0010
0000
,
0101
0000
0101
0000
0000
0001
0010
0000
,
0001
0000
1000
0000
0010
1000
0001
0000
,
1000
1000
0001
0000
,
0100
0000
0001
0000
1000
0001
1000
0000
,
0001
1000
0001
0000
,
1000
1000
0010
0100
,
0001
0000
0000
0001
0000
0000
0001
0000
,
0010
0000
0100
0000
1000
0000
0001
1000
,
0000
0000
0000
0001
,
1000
0000
0010
0000
0100
0001
0000
1000
,
0000
0001
1000
0000
0100
0000
1000
0000
,
0000
0001
0000
0100
,
0100
0000
0010
0000
1000
0001
1000
0000
,
0000
0001
0000
0000
0100
0000
0010
0000
,
1000
0100
0010
0001
,
0000
1000
0000
0000
0010
0000
0100
0000
,
0001
1000
0100
1000
,
1000
0001
0000
0001
1000
0000
0001
0000
,
1000
0010
0100
0001
,
1000
0001
1000
0001
,
1000
0100
1000
0000
0001
0000
1000
0000
,
1000
0001
0000
0000
0000
0000
0100
0000
,
0100
0001
0000
0000
0000
0000
0010
0000
,
0010
0001
0000
0000
0000
0000
1000
0000
,
1000
0001
0000
0000
0000
0000
0001
0000
,
0001
0010
0000
0000
0000
0000
0001
0000
,
0001
1000
0000
0000
0000
0000
0001
0000
,
0001
0100
0000
0000
0000
0000
1001
0100
,
1010
0101
0000
1000
,
0000
0001
0000
0000
0100
0000
0010
0000
,
1000
0100
0010
0001
,
0000
1000
0000
0010
0000
0100
0000
0000
,
0000
0001
0000
0000
0000
0000
1000
0000
,
0000
0001
0000
1000
0000
0010
0000
0000
,
0000
0100
0000
0000
0000
0000
0001
0000
,
0000
0001
1000
0000
0000
1000
0010
0000
,
0100
0001
1000
0001
,
0100
0000
0001
0000
1000
0100
1000
0000
,
0001
0100
0001
0010
,
0010
0100
0100
1000
,
1000
0001
1000
0010
,
1000
0001
0100
0001
,
1000
0010
1000
1001
,
1001
0000
0000
1001
,
1001
0000
0000
1000
,
0001
0000
0100
0000
0001
1000
0001
0000
,
0011
0000
0000
1000
,
0010
0000
1000
0000
0001
1000
0001
0000
,
1000
1000
0000
1000
,
0000
1000
0001
0000
0000
0001
0010
0000
,
0001
1000
0010
1000
,
0000
1000
0001
0000
0000
0001
1000
0000
,
0010
0100
0001
1000
,
0000
1000
0000
0001
,
0100
0010
1000
0100
,
0000
1000
0000
0001
0000
0100
0001
0000
,
1000
0100
1000
0010
,
0000
1000
0000
0001
0000
1000
0001
0000
,
1000
0010
0100
0001
,
0000
0100
0000
0010
0000
1000
0010
0000
,
0100
0001
1000
0100
,
0000
1000
0000
0000
0010
0000
0100
0000
,
0001
0100
0000
0001
,
0000
1000
0000
0100
0000
1000
0000
0010
,
0100
0001
1000
0100
,
0000
1000
0000
0010
0000
0100
0001
0000
,
1000
0001
0100
1001
,
1001
0000
0000
1001
,
1001
0000
0000
0000
;

//---------------dance-single - Renard----------------
#NOTES:
     dance-single:
     Renard:
     Easy:
     3:
     0.324,0.396,0.438,0.000,0.000: // measure 1
0000
0000
0000
0000
,  // measure 2
0000
0000
0000
0000
,  // measure 3
0000
0000
0000
0000
,  // measure 4
0000
0000
0000
0000
,  // measure 5
1000
0001
0100
0000
,  // measure 6
0001
0000
1000
0000
,  // measure 7
0001
0010
0001
0000
,  // measure 8
1000
0000
0010
0000
,  // measure 9
1001
0000
0000
0000
,  // measure 10
1010
0000
0000
0000
,  // measure 11
1100
0000
0000
0000
,  // measure 12
0011
0000
0000
0000
,  // measure 13
0101
0000
0000
0000
,  // measure 14
1001
0000
0000
0000
,  // measure 15
1010
0000
0000
0000
,  // measure 16
1001
1001
1001
0000
,  // measure 17
1000
0001
0100
0001
,  // measure 18
1000
0100
0010
0001
,  // measure 19
1000
0010
1000
0001
,  // measure 20
1001
0000
0000
1000
,  // measure 21
0010
0100
0001
1000
,  // measure 22
1000
0100
0100
0010
,  // measure 23
0001
1000
0010
1000
,  // measure 24
0001
1001
1001
0000
,  // measure 25
0001
0000
0100
0000
,  // measure 26
0010
1000
0100
0000
,  // measure 27
0010
0000
0001
0000
,  // measure 28
0100
0001
1000
0010
,  // measure 29
1000
0000
0001
1000
,  // measure 30
0010
0000
1000
0001
,  // measure 31
0100
0001
1000
0100
,  // measure 32
1000
0001
1000
0001
,  // measure 33
0000
1000
0000
0010
,  // measure 34
0000
0100
0000
0001
,  // measure 35
0000
1000
0000
0100
,  // measure 36
0000
1000
0000
0001
,  // measure 37
0000
0010
0000
0001
,  // measure 38
0000
1000
0000
0010
,  // measure 39
0000
1000
0000
0001
,  // measure 40
1000
0001
0100
0001
,  // measure 41
0000
1000
0000
0010
,  // measure 42
1000
0001
1000
0001
,  // measure 43
0000
0100
0000
0010
,  // measure 44
1000
0010
1000
0010
,  // measure 45
0000
1000
0000
0001
,  // measure 46
0100
0001
1000
0001
,  // measure 47
0000
1000
0000
0001
,  // measure 48
1000
1001
0000
1001
,  // measure 49
1001
0000
0000
1010
,  // measure 50
1010
0000
0000
1100
,  // measure 51
1100
0000
0000
0011
,  // measure 52
0011
0000
0000
0101
,  // measure 53
0101
0000
0000
1010
,  // measure 54
1010
0000
0000
1001
,  // measure 55
1001
0000
0000
1000
,  // measure 56
0001
1000
0001
1000
,  // measure 57
1000
0000
1000
0001
,  // measure 58
0001
0000
0001
0010
,  // measure 59
0010
0000
0010
0100
,  // measure 60
0100
0000
0100
1000
,  // measure 61
1000
0000
1000
0001
,  // measure 62
0001
0000
0001
0100
,  // measure 63
0000
0001
0000
1000
,  // measure 64
0001
1000
0000
1001
,  // measure 65
1001
0000
1000
0010
,  // measure 66
0100
0001
0000
1001
,  // measure 67
1001
0000
0001
0010
,  // measure 68
0100
1000
0000
1001
,  // measure 69
1001
0000
0001
0100
,  // measure 70
0010
1000
0000
1001
,  // measure 71
1001
0000
1000
0010
,  // measure 72
0100
0001
0000
1001
,  // measure 73
1001
0000
1000
0001
,  // measure 74
0100
0001
1000
1100
,  // measure 75
1100
0000
0001
1000
,  // measure 76
0100
1000
0001
0101
,  // measure 77
0101
0000
0000
1001
,  // measure 78
1001
0000
0000
1010
,  // measure 79
1010
0000
0000
1001
,  // measure 80
1001
0000
0000
0000
;
