#TITLE:Mercury;
#SUBTITLE:;
#ARTIST:Renard;
#GENRE:Dark Speedcore;
#TITLETRANSLIT:;
#SUBTITLETRANSLIT:;
#ARTISTTRANSLIT:;
#CREDIT:;
#BANNER:mad.png;
#BACKGROUND:mad-bg.png;
#LYRICSPATH:;
#CDTITLE:;
#MUSIC:mad.ogg;
#OFFSET:0.000;
#SAMPLESTART:6.316;
#SAMPLELENGTH:11.000;
#SELECTABLE:YES;
#BPMS:0.000=304.000;
#STOPS:280.000=1.382
;
#BGCHANGES:;

//---------------dance-single - Renard----------------
#NOTES:
     dance-single:
     Renard:
     Challenge:
     12:
     1.000,1.000,0.152,0.012,0.000:
0000
0000
0000
0000
,
0000
0000
0000
0000
,
0000
0000
0000
0000
,
0000
0000
0000
0000
,
1000
0000
0000
0000
0001
0000
0000
1000
,
0000
1000
0001
0000
1001
0000
0000
0000
,
1000
0000
0000
0000
1010
0000
0000
0010
,
0000
0010
0100
0000
0101
0000
0000
0000
,
0010
0100
0010
0100
0001
1000
0010
0100
,
0001
1000
0010
0100
0010
0100
0001
1000
,
0100
0010
0100
0010
0001
1000
0010
0100
,
0010
0100
0001
1000
0100
0010
0100
0010
,
0001
1000
0100
0010
0001
1000
0100
0010
,
0001
1000
0001
0010
0100
1000
0100
0010
,
0001
1000
0010
0100
0010
1000
0100
0010
,
0001
0010
1000
0010
0001
0100
0010
0000
,
0100
0010
0100
0010
1000
0001
0100
0010
,
1000
0001
0100
0010
0100
0010
1000
0001
,
0010
0100
0010
0100
1000
0001
0100
0010
,
0100
0010
1000
0001
0010
0100
0010
0100
,
1000
0001
0010
0100
1000
0001
0010
0100
,
1000
0001
1000
0100
0010
0001
0010
0100
,
1000
0001
0100
0010
0100
0001
0010
0100
,
1000
0100
0001
0100
1000
0100
0001
0000
,
0100
1000
0010
0100
0001
0000
1000
0000
,
0100
0000
1000
0010
0100
0000
0001
0000
,
0100
0010
0100
0010
0100
0000
0010
0000
,
1000
0001
0100
0000
0010
0000
1000
0000
,
0001
0100
0001
0100
0001
0000
0100
0000
,
0010
0000
1000
0100
1000
0000
0010
0000
,
0100
0010
0100
0010
0100
0000
0001
0000
,
1000
0100
1000
0001
,
0010
0001
0100
0010
1000
0000
0001
0000
,
0010
0000
0001
0100
0010
0000
1000
0000
,
0010
0100
0010
0100
0010
0000
0100
0000
,
0001
1000
0010
0000
0100
0000
0001
0000
,
1000
0010
1000
0010
1000
0000
0010
0000
,
0100
0000
0001
0010
0001
0000
0100
0000
,
0010
0100
0010
0100
0010
0000
1000
0000
,
0001
0000
1000
0001
1001
0000
0000
0000
,
1000
0100
0010
0100
1000
0000
0100
0000
,
0010
0001
0010
0100
0010
0000
0001
0000
,
0010
0100
1000
0010
0100
1000
0100
0000
,
0001
0010
0100
0001
0100
1000
0010
0000
,
0001
0010
0100
0010
0001
0000
0010
0000
,
0100
1000
0100
0010
0100
0000
1000
0000
,
0100
0010
0001
0010
1000
0100
1000
0000
,
1000
0100
0010
1000
0010
0001
0100
0000
,
0001
0010
0100
0010
0001
0100
0010
0000
,
0100
0001
0010
0100
1000
0000
0100
0000
,
1000
0010
0100
0010
1000
0100
0010
0100
,
1000
0001
0010
0100
2000
0000
3001
0000
,
1000
0010
0100
0000
0001
0100
0010
0000
,
1000
0100
0010
0000
0001
0010
0100
0000
,
1000
0001
0100
0010
1000
0001
0100
0010
,
1000
0100
0010
1000
0010
0100
0001
0100
,
1000
0000
0100
1000
0010
0000
0100
0001
,
1000
0001
1001
0000
,
1000
0010
0100
0001
1000
0000
0010
0100
,
0010
0100
0110
0000
,
0010
1000
0001
0100
0010
0000
1000
0010
,
0100
0001
1001
0000
,
1000
0100
0010
0100
1000
0000
0001
0010
,
0100
0010
0001
0000
1001
0000
0000
0000
,
1000
0100
0010
0100
1000
0001
0010
0100
,
0010
0001
1000
0100
1000
0001
0010
0000
,
0001
1000
0100
1000
0001
1000
0001
0100
,
0010
1000
0001
0100
0010
0000
0100
0000
,
0010
1000
0100
0000
0100
1000
0010
0000
,
0010
0100
0001
0000
0010
0001
1000
0000
,
0000
0000
1000
0001
0100
0010
1000
0100
,
0010
0100
1000
0001
0010
0100
0010
0001
,
0010
1000
0010
0001
0010
0100
1000
0100
,
0001
0100
1000
0010
0100
1000
0100
0001
,
0100
1000
0100
0010
0100
0001
0010
1000
,
0010
0001
0010
0100
1000
0100
0001
0100
,
1000
0010
0100
0001
1000
0100
1000
0001
,
0010
0001
1000
0100
0010
0100
1000
0001
,
0010
0100
0010
0001
1000
0001
0100
0010
,
1000
0010
0100
0001
0100
0010
1000
0100
,
0010
0100
1000
0010
0100
1000
0100
0010
,
0100
0010
0100
0001
0010
0100
0010
0001
,
0100
0010
0001
0010
0100
0001
0010
0100
,
0010
0001
1000
0100
0010
1000
0010
0100
,
0001
0100
0010
1000
0010
0001
0100
1000
,
0100
0001
0010
0100
0010
0001
1000
0001
,
0010
0100
1000
0001
1000
0100
0010
0100
,
1000
0010
0100
0001
0100
1000
0100
0001
,
0010
1000
0010
0001
0100
0010
1000
0100
,
0010
0100
1000
0010
0100
0001
1000
0100
,
0010
1000
0010
0001
0010
1000
0010
0100
,
0010
0001
0010
0100
0001
0100
1000
0100
,
1000
0100
0010
0001
0010
0100
1000
0010
,
0100
0001
0100
0001
0010
0001
0100
1000
,
0100
0000
1100
0000
0010
0001
1000
0100
,
1000
0010
0100
0001
1000
0001
0100
0001
,
1000
0000
1001
0000
0001
0100
0010
1000
,
0100
0010
1000
0010
0001
0010
1000
0010
,
0100
0000
1001
0000
0001
0100
0010
1000
,
0100
0010
0100
1000
0001
0100
0010
1000
,
0001
0000
0101
0000
0001
0100
0010
1000
,
0100
0010
1000
0001
0100
0010
0001
1000
,
0010
0100
0110
0000
0000
0000
0000
0000
;

//---------------dance-single - Renard----------------
#NOTES:
     dance-single:
     Renard:
     Hard:
     10:
     0.856,1.000,0.000,0.000,0.000:
0000
0000
0000
0000
,
0000
0000
0000
0000
,
0000
0000
0000
0000
,
0000
0000
0000
0000
,
0000
0000
0000
0000
,
0000
0000
0000
0000
,
0000
0000
0000
0000
,
0000
0000
0000
0000
,
0001
0000
1000
0000
0100
1000
0100
0000
,
1000
0001
0100
0001
,
0010
0000
0001
0000
1000
0001
1000
0000
,
0010
1000
0010
1000
0010
0000
1000
0000
,
0001
0000
0100
0000
0001
1000
0001
0000
,
1000
0000
0100
1000
0100
0000
1000
0000
,
0100
0010
0100
0010
0100
0000
0010
0000
,
0001
0010
0001
0010
0001
0000
0010
0000
,
0001
0000
1000
0001
1000
0000
0001
0000
,
0100
0001
0100
0001
0100
0000
0001
0000
,
1000
0000
0100
1000
0100
0000
1000
0000
,
0001
1000
0001
1000
0001
0000
1000
0000
,
0001
1000
0010
0000
1000
0001
1000
0000
,
0001
1000
0001
0000
1000
0001
1000
0000
,
0001
1000
0001
0000
0010
0001
0010
0000
,
0001
1000
0001
0000
1000
0001
1000
0000
,
0001
1000
0100
0010
0001
0000
0010
0000
,
0100
1000
0010
0100
,
0001
0000
1000
0100
1000
0000
0001
0010
,
0001
1000
0001
0000
,
0100
0001
0100
0001
0100
0000
0001
0000
,
1000
0100
0010
0001
,
0010
0100
1000
0010
0100
0001
0100
0000
,
0001
1000
0001
0000
,
1000
0001
1000
0001
1000
0000
0001
0000
,
0100
0010
1000
0100
,
0010
0000
0000
0010
0001
0000
0000
0001
,
0010
0100
1000
0000
0010
0000
0100
0000
,
0001
0000
0000
0001
1000
0000
0100
0000
,
0010
0001
0010
0001
0010
0000
0100
0000
,
1000
0010
1000
0010
1000
0000
0001
0100
,
0001
0100
0001
0000
1000
0001
1000
0000
,
0001
1000
0100
0010
0001
0000
0000
0001
,
0010
0100
1000
0010
,
0100
0001
0100
0001
0100
0000
0000
0001
,
1000
0000
0000
0100
0010
0000
0001
0000
,
0010
0100
1000
0010
0100
0000
0000
0001
,
0100
0000
0000
0010
1000
0000
0100
0000
,
0010
0001
0010
0100
1000
0000
0010
0100
,
0001
0000
0100
0010
1000
0000
0001
0000
,
1000
0100
0010
0001
0010
0000
0000
0100
,
1000
0000
0000
0010
0100
0000
0001
0000
,
1000
0100
1000
0100
1000
0000
0000
0001
,
0010
0000
0000
0100
1000
0000
0010
0000
,
0100
0001
0100
0001
0100
0000
0010
0000
,
1000
0001
1000
0001
1000
0000
0001
0000
,
0100
0001
0100
0000
0001
0100
0001
0000
,
0100
0001
0100
0000
0001
0100
0010
1000
,
0010
0000
1000
0000
0100
0000
0010
0001
,
0010
0100
1000
0010
,
0100
0000
0001
0000
1000
0000
0100
1000
,
0100
1000
0100
1000
0100
0000
1000
0000
,
0100
0000
0010
0000
0001
0000
1000
0001
,
1000
0001
0100
0010
,
1000
0000
0000
1000
0001
0000
0000
0001
,
0100
0010
0100
0000
0010
0000
1000
0000
,
0010
0000
0000
0010
0100
0000
0000
0100
,
0001
1000
0100
0000
1000
0000
0001
0000
,
0010
0000
0000
0010
0100
0000
0000
0100
,
1000
0010
1000
0000
0010
0000
0100
0000
,
0001
0100
0001
0000
1000
0001
1000
0000
,
0100
1000
0100
0000
0010
0001
0010
0001
,
0000
1000
0010
0100
,
0001
0000
1000
0100
1000
0100
1000
0100
,
1000
0100
0010
0001
,
1000
0000
0010
1000
0010
1000
0010
1000
,
0010
1000
0010
0100
,
0001
0000
0010
0001
0010
0001
0010
0001
,
0010
0001
0100
0010
,
1000
0000
0001
0100
0001
0100
0001
0100
,
0001
0000
1000
0000
0100
0010
0001
0000
,
0010
0000
0100
0000
1000
0000
0010
0100
,
0000
0000
0001
0000
1000
0100
1000
0000
,
0001
0010
0100
1000
,
0010
0100
0001
0000
1000
0000
0100
0010
,
0001
0000
0010
0100
1000
0000
0010
0100
,
0001
0000
1000
0100
0010
0001
0010
0100
,
1000
0010
0100
0001
1000
0100
0010
0001
,
0010
0100
1000
0010
0000
0010
0100
0000
,
0001
1000
0010
0100
,
0001
0000
1000
0010
0000
0010
0100
0000
,
0001
0010
0100
1000
,
0010
0000
0100
0001
0000
0001
1000
0000
,
0100
0000
0010
0001
0000
0001
0010
0000
,
0100
0000
1000
0010
0000
0010
0100
0000
,
0001
0000
1000
0100
1000
0100
1000
0000
,
0001
0000
0010
0100
1000
0010
0100
0000
,
0001
0000
1000
0100
0010
0001
0010
0000
,
0100
0000
1000
0010
0100
0001
0100
0000
,
0010
0000
1000
0001
0100
0010
1000
0000
,
0001
0000
1000
0100
0010
0001
0010
0100
,
1000
0010
0100
0001
0010
0100
1000
0010
,
0100
0001
0010
0100
1000
0010
0100
0001
,
0010
0100
1000
0100
0010
0001
0010
0100
,
1000
0010
0100
0000
0000
0000
0000
0000
;

//---------------dance-single - Renard----------------
#NOTES:
     dance-single:
     Renard:
     Medium:
     8:
     0.573,0.779,0.164,0.023,0.000:
0000
0000
0000
0000
,
0000
0000
0000
0000
,
0000
0000
0000
0000
,
0000
0000
0000
0000
,
0000
0000
0000
0000
,
0000
0000
0000
0000
,
0000
0000
0000
0000
,
0000
0000
0000
0000
,
1000
0000
0001
1000
,
0001
0100
0010
0000
,
1000
0000
0100
1000
,
0001
0000
1001
0000
,
0001
0000
0100
0000
0010
0000
0000
0010
,
1000
0000
0100
0000
0010
0000
0000
0010
,
0001
1000
0001
1000
,
0001
0000
0100
0000
,
0010
0000
1000
0100
,
0010
0000
1001
0000
,
0001
0010
0100
1000
,
0010
0000
1001
0000
,
1000
0000
0000
1000
0001
0000
0000
0001
,
0100
0000
0000
0100
0010
0000
0000
0010
,
1000
0100
0010
0001
,
0010
1000
0001
0000
,
1000
0000
1000
0000
,
0001
0000
0001
0000
,
1000
0001
0100
1000
,
0001
0000
1000
0000
,
0010
0000
1000
0001
,
0010
1000
0100
0000
,
0001
0000
1000
0010
,
0100
0000
0001
0000
,
1000
0000
0001
1000
,
0001
1000
0001
0000
,
1000
0000
1001
0000
,
1010
0000
0101
0000
,
1000
0100
0001
0000
,
0001
0010
1000
0000
,
1000
0100
0001
0010
,
1000
0000
0100
0000
,
1000
0000
0010
0000
,
0100
0000
0001
0000
1000
0000
0000
1000
,
0001
0100
0010
0000
,
1000
0100
0010
0000
,
0001
0000
0000
0001
1000
0000
0000
1000
,
0010
0100
0001
1000
,
0100
1000
0010
0000
,
0100
0001
1000
0000
,
0100
0000
0100
1000
,
0010
0100
0001
1000
,
0100
0000
0100
1000
,
0010
0100
0001
0000
,
1000
0100
1000
0001
,
0010
0000
0001
1000
,
0010
0000
1001
0000
,
1010
0000
0101
0000
,
1000
0001
0100
0001
,
1000
0100
0010
0001
,
0010
0100
1000
0010
,
0100
0000
0001
0000
0100
0001
0000
1000
,
0000
0100
1000
0001
,
0010
0001
1000
0010
,
1000
0000
0001
0000
0100
0001
0000
1000
,
0000
0100
0000
0000
0010
0000
0000
0000
,
0001
0010
0100
1000
,
0010
0100
0001
0000
,
1000
0000
0001
0000
,
0100
0010
1000
0000
,
1001
0000
1010
0000
,
0101
0000
2002
0000
,
3003
1000
0010
0100
,
0001
1000
0100
0010
,
0001
0010
0100
1000
,
0010
0100
0001
1000
,
0000
0001
1000
0000
0010
0000
0100
0000
,
0001
0010
0100
1000
,
0010
0100
0001
1000
,
0100
1000
0010
0100
,
0000
0100
0001
0000
0100
0000
0010
0000
,
1000
0000
0100
0000
0000
0100
0010
0000
,
0000
0010
0001
0000
0100
0000
0010
0000
,
1000
0000
0100
0000
0000
0100
1000
0000
,
0000
1000
0010
0000
0100
0000
0001
0000
,
0100
0000
0010
0000
0000
0010
1000
0000
,
0000
1000
0100
0000
0010
0000
0001
0000
,
0010
0100
1000
0010
,
1000
0010
1000
0000
0001
0000
0100
0000
,
0001
1000
0100
0010
,
0001
0010
0100
1000
,
0010
0100
0001
0100
,
0010
1000
0100
0010
,
0001
0010
0100
1000
,
0010
0000
0100
0000
0001
0100
0001
0000
,
0100
0000
0010
0000
1000
0010
1000
0000
,
0010
1000
0010
0100
,
0001
1000
0001
0000
1000
0000
0100
0000
,
0000
0010
0001
1000
,
0000
1000
0001
0000
0100
0000
0010
0000
,
0000
1000
0100
0010
,
0001
0010
0100
1000
,
0000
0000
1000
0100
0010
0001
1000
0000
,
0100
0010
0001
1000
0100
0000
0010
0001
,
1000
1001
0000
0000
;

//---------------dance-single - Renard----------------
#NOTES:
     dance-single:
     Renard:
     Easy:
     6:
     0.424,0.540,0.023,0.082,0.000: // measure 1
0000
0000
0000
0000
,  // measure 2
0000
0000
0000
0000
,  // measure 3
0000
0000
0000
0000
,  // measure 4
0000
0000
0000
0000
,  // measure 5
1000
0000
0001
0000
,  // measure 6
0100
0001
1000
0000
,  // measure 7
0100
1000
0001
0000
,  // measure 8
1000
0000
1001
0000
,  // measure 9
1000
0000
0001
0000
,  // measure 10
0100
0000
0010
1000
,  // measure 11
0001
0000
0100
0001
,  // measure 12
1000
0000
0100
1000
,  // measure 13
0001
0000
1000
0000
,  // measure 14
0010
0000
0100
0001
,  // measure 15
1000
0001
1000
0010
,  // measure 16
1000
0001
0100
0001
,  // measure 17
1000
0000
0100
0000
,  // measure 18
0010
0000
0001
1000
,  // measure 19
0010
0000
1000
0000
,  // measure 20
0001
0000
0100
0001
,  // measure 21
1000
0000
0100
0000
,  // measure 22
1000
0000
0001
0000
,  // measure 23
0010
0001
1000
0010
,  // measure 24
0010
0100
0001
0001
,  // measure 25
1000
0000
0100
0000
,  // measure 26
0010
0000
0001
0010
,  // measure 27
0100
0000
1000
0010
,  // measure 28
0100
0000
0001
0100
,  // measure 29
0010
0000
0010
0000
,  // measure 30
0010
0000
1000
0100
,  // measure 31
0010
0000
0001
0010
,  // measure 32
0100
0000
1000
0000
,  // measure 33
0010
0000
0100
0001
,  // measure 34
0100
0001
0100
0001
,  // measure 35
0100
0010
0100
0010
,  // measure 36
1000
0010
1000
0100
,  // measure 37
0010
0100
0010
0001
,  // measure 38
1000
0010
0001
0100
,  // measure 39
0010
1000
0001
0100
,  // measure 40
0010
1000
0100
0001
,  // measure 41
0010
0000
1000
0000
,  // measure 42
0100
0000
1000
0000
,  // measure 43
0010
0000
0100
0000
,  // measure 44
0001
0000
1000
0100
,  // measure 45
0001
0000
1000
0000
,  // measure 46
0001
0000
0010
0000
,  // measure 47
1000
0000
0001
0000
,  // measure 48
1000
0000
0001
0010
,  // measure 49
1000
0000
0001
0000
,  // measure 50
0100
0000
0010
0000
,  // measure 51
1000
0000
0001
0000
,  // measure 52
1000
0000
1000
0100
,  // measure 53
0001
0000
0001
0010
,  // measure 54
1000
0000
1000
0010
,  // measure 55
0001
0100
1000
0100
,  // measure 56
0001
0000
0010
0000
,  // measure 57
2000
0000
0000
0000
,  // measure 58
0000
0000
0000
0000
,  // measure 59
3010
0020
0000
0000
,  // measure 60
0230
0000
0000
0000
,  // measure 61
0301
0000
0001
0000
,  // measure 62
0001
0000
0001
1000
,  // measure 63
0100
0000
0100
0000
,  // measure 64
0100
1000
0001
0000
,  // measure 65
0020
0000
0000
0000
,  // measure 66
0000
0000
0000
0000
,  // measure 67
0230
0000
0000
0000
,  // measure 68
2300
0000
0000
0000
,  // measure 69
3010
0020
0000
0000
,  // measure 70
0000
0000
0130
0000
,  // measure 71
1001
1000
0000
0010
,  // measure 72
0000
0100
0000
0001
,  // measure 73
0000
1000
0000
0100
,  // measure 74
0000
0010
0000
0001
,  // measure 75
0000
0010
0000
0100
,  // measure 76
0000
1000
0000
0010
,  // measure 77
0000
0100
0001
0000
,  // measure 78
0000
1000
0000
0100
,  // measure 79
1000
0010
0000
0100
,  // measure 80
0000
0001
0000
1000
,  // measure 81
0001
0100
0010
1000
,  // measure 82
0000
0100
0010
0001
,  // measure 83
0000
0010
0000
0100
,  // measure 84
0000
1000
0000
0010
,  // measure 85
0000
0100
0000
0001
,  // measure 86
0000
0100
0000
0010
,  // measure 87
0000
1000
0000
0100
,  // measure 88
0000
0010
0000
0001
,  // measure 89
0000
0010
0000
0100
,  // measure 90
0000
1000
0000
0010
,  // measure 91
0000
0100
0000
0001
,  // measure 92
0000
0100
0000
0010
,  // measure 93
0000
1000
0100
1000
,  // measure 94
0000
0001
0010
0001
,  // measure 95
0000
1000
0010
1000
,  // measure 96
0001
0100
0001
1000
,  // measure 97
0000
0100
0000
1000
,  // measure 98
0000
0010
0000
0100
,  // measure 99
0000
0001
0000
0100
,  // measure 100
0000
0010
0000
1000
,  // measure 101
0000
0100
1000
0010
,  // measure 102
0100
0001
1000
0000
,  // measure 103
0000
0100
0000
0000
;
