#TITLE:Megawatt;
#SUBTITLE:;
#ARTIST:Neko;
#TITLETRANSLIT:;
#SUBTITLETRANSLIT:;
#ARTISTTRANSLIT:;
#CREDIT:;
#BANNER:megawatt.png;
#BACKGROUND:megawatt-bg.png;
#LYRICSPATH:;
#CDTITLE:;
#MUSIC:megawatt.ogg;
#OFFSET:-0.000;
#SAMPLESTART:28.740;
#SAMPLELENGTH:12.000;
#SELECTABLE:YES;
#BPMS:0.000=150.000;
#STOPS:;
#BGCHANGES:;
#GENRE:Hard Trancepop;

//---------------dance-single - Renard----------------
#NOTES:
     dance-single:
     Renard:
     Hard:
     9:
     0.672,0.703,0.469,0.068,0.557:
0000
0000
0000
0000
,
1000
0011
0100
1010
,
0001
1100
0010
0101
,
1000
0011
0100
1001
,
0010
1100
0001
1010
,
1100
1010
1100
1001
,
1100
1010
1100
1001
,
0101
0011
0101
1001
,
0010
0000
1000
0000
0100
0010
0000
0010
0100
0000
1000
0000
0001
0100
0001
0000
,
2000
0000
3200
0000
,
0320
0000
0000
0001
,
0032
0000
0203
0000
,
0020
0000
0300
1000
,
1030
0000
0010
1000
0010
0000
0100
0000
0001
0000
0010
0000
0100
0000
0000
0000
,
1000
0000
0100
1000
0100
0000
0010
0000
0001
0000
0000
0000
1001
0000
0000
0000
,
0100
0000
0000
0000
1010
0000
0000
0000
0100
0000
0001
0100
0001
0000
0000
0000
,
0010
0000
0100
0010
0100
0000
1000
0000
0010
0000
0000
0000
1001
0000
0000
0000
,
2001
0000
0000
0001
0000
0000
0010
0000
0000
0010
0000
0000
3100
1000
0000
0000
,
1000
0000
0100
0000
0010
0001
0000
0001
0010
0000
0100
0000
1000
0000
0010
0000
,
0100
0000
0001
0000
1000
0000
0100
0000
0010
0001
0000
0001
1000
0000
0010
0000
,
0100
0000
0001
1000
0000
1000
0001
0000
0100
0000
0010
0000
1000
0000
0100
0000
,
0010
0000
0001
0000
1000
0000
0010
0100
0000
0100
0001
0000
1000
0000
0100
1000
,
0001
0000
0010
0000
0100
1000
0000
1000
0100
0000
0010
0000
0001
0000
0100
0000
,
0010
0000
1000
0000
0001
0000
0010
0000
0100
1000
0000
1000
0001
0000
0100
0000
,
0010
0000
1000
0001
0000
0001
1000
0000
0010
0000
0100
0000
0001
0000
0010
0000
,
0100
0000
1000
0000
0001
0000
0100
0010
0000
0010
1000
0000
0001
0000
0010
0001
,
1000
0000
0100
0000
1000
0010
0000
1000
0001
0000
1000
0001
0000
1000
0001
0000
,
0100
0000
0001
0000
0100
0010
0000
0100
1000
0000
0100
0010
0000
0100
0001
0000
,
0010
0000
0001
0000
0010
0100
0000
0010
1000
0000
0010
0100
0000
0010
0100
0000
,
0010
0000
0001
0000
0100
0001
0000
1000
0001
0000
0010
0001
0000
0100
0001
0000
,
1000
0000
0100
0000
0001
0100
0000
1000
0100
0000
0001
0100
0000
0010
0100
0000
,
1000
0000
0010
0000
0001
0010
0000
0100
0010
0000
0001
0010
0000
1000
0010
0000
,
0100
0000
0001
0000
0100
1000
0000
0100
0001
0000
0100
0010
0000
0100
0001
0000
,
0010
0000
1000
0000
0010
0001
0000
0010
0100
1000
0100
1000
0001
0010
0001
0000
,
1001
0000
0000
0000
,
1010
0000
0000
0101
0000
0000
0001
0100
0010
1000
0000
0000
,
1010
0000
0100
0000
0011
0000
0001
0100
0001
1000
0000
1000
,
0100
0000
0000
0011
0000
0000
0100
1000
0010
0100
0000
0000
,
0101
0000
0100
0000
1001
0000
1000
0100
0010
0001
0010
0100
,
1000
0000
0000
0101
0000
0010
1000
0000
1100
0000
0000
0010
,
0001
0000
0000
0101
0000
0000
0001
0100
0010
1000
0000
0000
,
0100
0000
0000
0011
0000
0000
0100
0000
1010
0000
0000
0001
,
0100
0000
0000
0110
0000
0000
0010
1000
0001
0100
0001
1000
,
1001
0000
0000
0000
,
1000
0000
0100
0000
0010
0001
0000
0001
0010
0000
0100
0000
1000
0000
0010
0000
,
0100
0000
0001
0000
1000
0000
0100
0000
1000
0000
0001
0000
0100
0001
0100
0000
,
0001
0000
1000
0000
0100
1000
0000
1000
0010
0000
0100
0000
0001
0000
1000
0000
,
0100
0000
1000
0000
0001
0000
0010
0000
0100
0000
1000
0000
0001
0000
0100
0001
,
0100
0000
0010
0000
1000
0000
0001
0100
0000
0100
0001
0000
1000
0000
0100
0000
,
1000
0000
0001
0000
0010
0000
0100
0000
1000
0000
0010
0000
0100
0001
0100
0000
,
0010
0000
1000
0000
0100
0000
1000
0001
0000
0001
0010
0000
0100
0000
1000
0000
,
0010
0000
0100
0001
0000
0001
0100
0000
0010
0000
1000
0100
1000
0000
0001
0010
,
0001
0000
1010
0000
0100
0001
0101
0000
,
0001
0000
0001
0010
0000
0010
0100
0000
1000
0000
0010
0000
0001
0000
0010
0000
,
1000
0000
1010
0000
0001
0100
0110
0000
,
0010
0000
1000
0000
0010
0000
1000
0100
0000
0100
0001
0000
0100
0000
1000
0000
,
0010
0000
0101
0000
0010
1000
1100
0000
,
0010
0000
0001
0000
0100
0000
0001
1000
0000
1000
0100
0000
0100
0010
0000
0010
,
0001
0100
0110
0000
0010
1000
1100
0000
,
0010
0000
0001
0100
0001
0000
0001
1000
0000
1000
0100
0000
1000
0001
1000
0000
,
1001
0000
0000
0000
;

//---------------dance-single - Alezay----------------
#NOTES:
     dance-single:
     Alezay:
     Challenge:
     10:
     0.851,0.825,0.303,0.059,1.000:
0000
0000
0000
0000
,
0001
0100
0010
1000
0100
0010
0001
0010
,
0100
0000
1000
0000
0001
0000
0100
0000
0010
0000
0010
0000
1000
0001
1000
0001
,
1000
0100
0010
0100
1000
0001
0100
0010
,
1010
0000
0000
0101
0000
0000
0110
0000
0000
1001
0000
0000
1000
0001
0000
0001
,
1000
0100
1000
0010
0100
0001
1000
0100
,
0010
0000
0001
0000
1000
0000
0001
0000
0100
0000
0010
0000
1000
0100
1000
0100
,
1000
0100
0010
0001
0100
0010
1000
1001
,
0000
0000
0101
0000
0000
1001
0000
0000
1100
0000
0000
0110
0000
0000
0011
0000
,
1001
0000
0001
0000
0100
0010
0000
0010
1000
0000
1000
0100
0000
0010
0001
0000
,
1000
0000
0001
0000
0001
0100
0000
0010
1000
0000
1000
0010
0000
0100
0001
0000
,
1000
0000
0100
0000
0010
0001
0000
0001
1000
0000
0001
0100
0000
0010
1000
0000
,
0001
0000
0100
0000
0010
1000
0000
1000
0100
0000
0100
0010
0000
0010
0001
0000
,
1000
0000
0010
0000
0100
0001
0000
0100
0001
0000
1000
0001
0000
1000
0100
0000
,
0010
0000
0001
0000
0100
0010
0000
0100
0001
0000
0001
1000
0000
1000
0100
0000
,
0010
0000
0001
0000
0100
0010
0000
0010
1000
0000
1000
0001
0000
0001
0010
0000
,
0100
0000
1000
0000
0010
0100
0000
0100
0001
0000
0001
1000
0000
1000
0100
0000
,
1001
0000
0000
0101
0000
0000
1001
0000
0000
0101
0000
0000
0001
0100
0000
0100
,
0010
0000
1000
0000
0001
0000
1000
0000
0100
0000
0010
0000
0001
1000
0001
0100
,
0000
0010
1000
0001
1000
0100
0010
0100
1000
0001
0100
0010
1000
0001
0100
0000
,
0010
0000
1000
0000
0001
0100
0010
0000
0100
0010
1000
0000
0001
1000
0100
0010
,
0000
0100
1000
0001
0100
0010
1000
0100
0010
0100
1000
0001
0100
0010
0100
0000
,
0001
0000
0100
0000
0010
1000
0100
0000
0010
0001
0100
0000
0010
1000
0001
1000
,
0000
0001
0100
0010
1000
0100
0010
0001
0100
0010
0100
0001
0010
0100
1000
0000
,
0001
0000
0100
0000
0010
1000
0100
0000
0100
1000
0010
0000
0100
0001
0100
0001
,
0000
1000
0100
0010
0001
0010
0001
0010
0001
1000
0001
0100
0010
0100
0010
0000
,
1000
0000
0001
0000
0001
0100
0000
0100
1000
0000
1000
0100
0000
0100
0001
0000
,
1000
0000
0100
0000
0010
0001
0000
1000
0001
0000
0001
0100
0000
0010
1000
0000
,
0001
0000
0100
0000
0010
1000
0000
1000
0100
0000
0100
0010
0000
0010
0001
0000
,
1000
0000
0010
0000
0100
0001
0000
0001
1000
0000
1000
0010
0000
0010
0100
0000
,
0010
0000
1000
0000
1000
0100
0000
0010
0001
0000
1000
0001
0000
0100
0001
0000
,
1000
0000
0010
0000
0010
0100
0000
0100
0010
0000
0010
1000
0000
1000
0010
0000
,
1000
0000
0100
0000
0010
0001
0000
1000
0001
0000
0001
0100
0000
0100
0001
0000
,
1000
0000
0010
0000
1000
0100
0000
0010
0001
1000
0001
0100
0010
1000
0100
1000
,
2002
0000
0000
3003
,
0101
0000
0001
0100
0000
0100
0010
1000
0001
1000
0000
0000
,
1001
0000
1010
0000
0110
0000
0010
1000
0010
0100
0010
0100
,
0001
0000
0001
1000
0000
1000
0001
1000
0100
0010
0000
0000
,
0011
0000
1001
0000
0101
0000
0001
1000
0001
1000
0001
1000
,
0001
0000
1000
0100
0000
0010
0001
0100
0010
0100
0000
0000
,
0101
0000
1001
0000
1100
0000
0010
0001
0100
0010
1000
0001
,
0010
0000
0100
1000
0000
0010
0100
0001
1000
0010
0000
0000
,
0110
0000
0110
0000
0110
0000
0010
1000
0001
1000
0100
1000
,
2002
0000
0000
3003
,
0001
0000
0100
0000
0010
0000
1000
0001
0000
0000
1000
0000
0010
0000
0100
0001
,
0000
0000
0001
0000
1000
0000
0001
1000
0000
1000
0010
0000
1000
0100
0010
0001
,
0000
0000
1000
0000
0010
0000
0100
0010
0000
0000
0100
0000
0010
1000
0001
1000
,
0000
0000
0010
0000
1000
0000
0001
1000
0000
1000
0001
0000
1000
0010
0100
0001
,
0000
0000
1000
0000
0100
0000
0010
0001
0000
0000
1000
0000
0001
0100
0001
0100
,
0000
0000
0010
0000
1000
0000
0001
1000
0000
1000
0100
0000
0010
0001
0100
0010
,
0000
0000
0001
0100
0001
0100
0001
0100
0000
0000
0010
1000
0010
1000
0010
1000
,
0000
0000
1000
0100
0010
0001
0010
0100
1000
0001
0100
0010
0100
0010
1000
0100
,
0010
0000
0001
0000
0001
0000
1000
0010
0000
0000
0010
0000
1000
0000
1000
0100
,
0000
0000
0010
0000
0001
0000
0100
0010
0000
0010
0100
0000
0010
1000
0100
0010
,
0000
0000
0010
0000
0001
0000
0100
0010
0000
0000
0100
0000
0001
1000
0001
1000
,
0000
0000
1000
0000
0100
0000
0010
0001
0000
0001
1000
0000
0001
1000
0010
0100
,
0000
0000
0010
0000
1000
0000
0001
1000
0000
0000
1000
0000
0100
0010
0001
0100
,
0000
0000
0010
0000
1000
0000
0001
0100
0000
0100
0010
0000
0100
0001
1000
0100
,
0000
0000
0010
0001
0010
0001
0010
0001
0000
0000
1000
0100
1000
0100
1000
0100
,
0000
0000
0100
1000
0010
0100
0001
1000
0010
0100
0001
1000
0100
0010
0001
1000
,
2002
0000
0000
3003
0000
0000
0000
0000
;

//---------------dance-single - BlueChaos----------------
#NOTES:
     dance-single:
     BlueChaos:
     Medium:
     6:
     0.439,0.471,0.225,0.215,0.088:
0000
0000
0000
0000
,
0000
0000
0000
0000
,
0000
0000
0000
0000
,
0000
0000
0000
0000
,
0000
0000
0000
0000
,
1000
0100
0010
0001
0000
0001
0100
0010
,
0000
1000
0100
0010
0000
0001
1000
0001
,
0100
0101
1001
1100
,
1001
0000
1000
0100
0000
1000
0001
0100
,
0020
0000
2030
0000
,
3200
0000
0302
0000
,
0203
0000
0320
0000
,
0032
0000
2003
0000
,
3001
0100
0001
1000
0000
0001
0010
0100
,
0000
0010
0001
0100
0000
0001
1000
0100
,
1000
0001
0100
0000
0001
0100
0001
0000
,
1000
0100
0010
0000
0001
0100
0010
1000
,
1000
0000
0000
0100
0000
0000
0010
0000
0000
0001
0000
0000
2000
0000
0000
0000
,
3001
0100
0010
0000
0100
0001
1000
0000
,
0001
0010
0100
1000
1000
0001
0100
0000
,
0001
0100
0101
0000
0100
0010
0110
0000
,
0010
1000
1010
0000
1000
0100
0100
0000
,
1000
0001
1000
0000
0001
0010
0100
1000
,
0001
0000
0010
0001
1000
0010
0100
0000
,
0001
1001
1000
1001
,
0001
0000
0100
0000
0010
1000
0010
1000
,
0002
0010
1000
0013
,
0020
0001
0100
0031
,
0002
0100
1000
0103
,
0200
0010
0001
0310
,
0020
1000
0100
1030
,
2000
0100
0001
3100
,
0200
0010
1000
0310
,
0020
0000
0001
0000
0100
0000
0031
0010
,
0200
0000
0000
0000
,
1300
0000
0000
1100
0000
0000
1000
0100
1000
0100
0000
0000
,
1000
0000
0000
1001
0000
0000
0001
1000
0001
1000
0000
0000
,
0001
0000
0000
0101
0000
0000
0001
0100
0001
0100
0000
0000
,
0001
0000
0000
0011
0000
0000
0001
0010
0001
0010
0000
0000
,
0001
0000
0000
1001
0000
0000
0000
0000
1000
0100
0000
0100
,
0010
0000
0000
0011
0000
0000
0001
0010
0001
1000
0000
0000
,
0001
0000
0000
1001
0000
0000
0000
0000
0001
1000
0000
1000
,
0010
0000
0000
1010
0000
0000
1000
0100
1000
0002
0000
0000
,
2000
0000
0000
3003
,
0001
0100
0001
0000
1000
0000
0100
0000
,
1000
0010
0000
0010
1000
0000
0001
0000
,
0010
0001
0010
0000
0001
0000
0100
0000
,
0001
0100
0000
0100
0010
0000
1000
0000
,
1001
0001
0010
0001
,
0100
0000
0010
0000
1000
0001
1000
0001
,
0010
0100
1000
0100
,
1100
1001
0101
1001
,
1000
0100
1000
0000
0001
0000
0001
0000
,
0100
0001
0100
0000
0010
0000
0010
0000
,
1000
0001
1000
0000
0100
0000
0100
0000
,
1000
0100
1000
0000
0010
0000
0001
0000
,
0010
0001
1000
0000
0001
0000
1000
0000
,
0001
0100
0010
0000
0100
0000
0001
0000
,
1000
0100
0010
0000
0100
0000
1000
0000
,
0001
1000
0001
0000
1000
0000
0001
0000
,
2002
3003
0000
0000
;

//---------------dance-single - BlueChaos----------------
#NOTES:
     dance-single:
     BlueChaos:
     Easy:
     2:
     0.234,0.294,0.098,0.176,0.000:
0000
0000
0000
0000
,
0000
0000
0000
0000
,
0000
0000
0000
0000
,
0000
0000
0000
0000
,
0000
0000
0000
0000
,
1000
1001
0000
0101
,
0000
0011
0000
1000
,
1001
0000
0001
0000
,
1000
0000
0100
0000
,
0020
0000
0000
0000
,
0000
0000
0000
0000
,
0032
0000
0000
0000
,
0000
0000
0000
0000
,
1003
1000
0000
0010
,
0000
0100
0100
0000
,
0001
1000
0100
1000
,
0001
0000
1000
0001
,
2000
0000
0000
0000
,
3010
0000
1000
0000
,
0001
0000
0010
0010
,
0100
0000
1000
0000
,
0001
0000
0001
0001
,
1000
0000
0100
0000
,
0010
0010
0001
0000
,
0100
0000
0001
0000
,
1000
0000
0001
0001
,
0100
0100
0100
0000
,
0001
0001
0001
0000
,
1000
1000
1000
0000
,
0100
0100
0100
0000
,
0200
0000
1300
0000
,
2000
0000
3001
0000
,
0002
0000
0103
0000
,
0200
0000
0320
0000
,
2030
0000
0000
0000
,
3001
0001
0200
0000
,
0310
0010
2000
0000
,
3001
0001
0020
0000
,
0130
0100
2000
0000
,
3001
1001
0000
0001
,
1000
1100
0200
0000
,
0310
0011
0000
0010
,
0001
0011
0002
0000
,
2003
0000
0000
0000
,
3001
0000
1000
0000
,
0001
0000
0100
0100
,
0010
0000
1000
0000
,
0001
0000
0010
0010
,
0100
0000
1000
0000
,
0001
0000
0100
0100
,
0010
0000
1000
0001
,
1000
0000
1001
0000
,
0001
0010
0100
1000
,
0001
1000
0001
0000
,
1000
0010
0100
0001
,
1000
0010
0100
0000
,
0001
1000
0100
0010
,
0100
1000
0001
0000
,
1000
0100
1000
0001
,
0100
0010
1000
0001
,
2002
3003
0000
0000
;
