#TITLE:Mastermind;
#SUBTITLE:;
#ARTIST:Sonitus Vir;
#GENRE:Electronica;
#TITLETRANSLIT:;
#SUBTITLETRANSLIT:;
#ARTISTTRANSLIT:;
#CREDIT:;
#BANNER:mind.png;
#BACKGROUND:mind-bg.png;
#LYRICSPATH:;
#CDTITLE:;
#MUSIC:mind.ogg;
#OFFSET:0.000;
#SAMPLESTART:21.943;
#SAMPLELENGTH:12.000;
#SELECTABLE:YES;
#BPMS:0.000=175.000;
#STOPS:;
#BGCHANGES:;

//---------------dance-single - Renard----------------
#NOTES:
     dance-single:
     Renard:
     Hard:
     9:
     0.718,0.748,0.122,0.751,0.094:
0000
0000
0000
0000
,
0000
0000
0000
0000
,
0000
0000
0000
0000
,
0000
0000
0000
0000
,
1000
0001
0000
1000
0010
0000
0000
2002
,
0000
0000
0000
0003
0000
0010
0000
3010
,
0100
0000
0100
0010
0000
0000
1001
0000
,
0100
0000
0001
0000
0010
0100
2000
0000
,
3100
1000
0100
1000
0100
1000
0100
0000
,
0010
0001
0010
0001
0010
0001
0010
0000
,
0100
1000
0010
0100
0001
0010
0100
1000
,
0010
0100
0010
0100
0010
0100
0010
0000
,
0100
0001
0010
0100
1000
0100
1000
0000
,
0010
0100
1000
0100
0010
0001
0010
0000
,
1000
0010
0100
0001
0010
0100
1000
0000
,
0010
0100
1001
0000
1010
0000
0101
0000
,
0001
0200
2000
0300
3200
0002
0300
0023
,
0200
0030
2300
0200
3000
0302
1000
0000
,
1003
0002
0100
0003
0100
2000
0020
3000
,
0100
0030
0200
0001
0000
0302
0010
0000
,
0013
2000
0010
3000
0010
0002
0200
0003
,
1000
0300
2000
0001
0000
3002
1000
0003
,
0100
0002
0010
0003
0020
0000
0130
0000
,
2000
0000
3010
0100
0001
0100
0010
0000
,
1000
0020
0002
0030
0023
2000
0030
3200
,
0020
0300
0032
0020
0003
2030
0001
0000
,
3001
2000
0010
3000
0010
0002
0200
0003
,
0010
0300
0020
1000
0000
2030
0100
0000
,
3100
0002
0100
0003
0100
2000
0020
3000
,
0001
0030
0002
1000
0000
2003
0001
3000
,
0010
2000
0100
3000
0200
0000
0310
0000
,
0002
0000
0103
0010
1000
0010
0100
0000
,
0010
1000
0000
1000
0100
0000
0100
0010
,
0001
0010
0100
1000
0100
0000
0010
0000
0001
0000
0010
0000
0200
0000
0000
0000
,
1300
0100
0000
0010
0001
0000
0010
0100
,
1000
0010
0100
0001
0100
0000
0010
0000
0100
0000
0000
0000
1001
0000
0000
0000
,
0010
0001
0000
0001
0010
0000
0010
0100
,
1000
0100
0010
0001
0010
0000
0100
0000
1000
0000
0100
0000
0020
0000
0000
0000
,
0031
0010
0000
0100
1000
0000
0100
0010
,
0001
0100
0010
1000
0010
0000
0100
0000
0001
0000
0000
0000
1001
0000
0000
0000
,
0100
0001
0100
0010
0100
1000
0100
0010
,
0100
0001
0100
0010
1000
0000
0100
0000
0010
0000
0001
0000
0010
0000
0100
0000
,
0010
0100
1000
0100
0010
0100
0001
1000
,
0010
0100
1000
0100
0010
0000
0001
0000
0010
0000
0100
0000
1000
0000
0010
0000
,
0100
0001
0010
0001
0100
0001
0010
0001
,
0100
0001
0100
0010
0100
0000
0001
0000
0010
0000
0100
0000
1000
0000
0100
0000
,
1000
0100
0010
1000
0010
0100
1000
0010
,
0100
0010
1000
0010
0100
0000
0001
0010
0100
0000
0010
0000
1001
0000
0000
0000
,
0100
0000
0200
0001
0000
0002
0020
0000
,
0000
0333
0202
0313
,
1000
0000
2000
0100
0000
0200
0020
0000
,
3330
0000
2002
3013
,
0001
0000
0002
0100
0000
0200
2000
0000
,
0000
3303
1101
0000
,
0001
0000
0002
0010
0000
0020
2000
0000
,
3033
0000
0000
0000
1000
0010
0200
0000
,
0301
0100
1000
0100
0001
0010
0100
1000
,
0100
0001
0100
1000
0010
0100
0001
0000
,
0100
0010
1000
0100
0001
0100
1000
0010
,
0100
0001
0010
0000
0001
0100
0010
0000
,
1000
0100
0010
1000
0010
0100
1000
0000
,
0001
0010
0100
0001
0100
0010
0001
0000
,
1000
0100
0001
0100
1000
0010
0001
0010
,
0100
1000
0100
0001
0010
0200
2000
0000
,
0000
0000
3300
0000
;

//---------------dance-single - Renard----------------
#NOTES:
     dance-single:
     Renard:
     Medium:
     7:
     0.442,0.458,0.099,0.000,0.000:
0000
0000
0000
0000
,
0000
0000
0000
0000
,
0000
0000
0000
0000
,
0000
0000
0000
0000
,
1000
1000
0001
0001
,
0100
0001
1000
0001
,
0100
0100
0001
1000
,
0001
0000
0001
0000
1000
0001
1000
0000
,
0001
0000
0001
0100
0000
0100
0001
0000
,
1000
0100
1000
0001
,
1000
0000
1000
0100
0000
0100
1000
0000
,
0001
0100
0001
1000
,
0100
1000
0000
1000
0001
0000
0001
1000
,
0000
0001
0000
0100
0000
0001
0000
1000
,
0100
0000
0100
1000
0000
1000
0001
0000
,
0100
0000
0001
0000
1000
0100
1000
0000
,
0001
0001
0100
0010
,
1000
0000
0000
0100
0000
0000
0010
0000
,
0001
1000
0010
0100
,
0001
1000
0100
1000
,
0001
1000
0100
0010
,
0001
0000
0000
1000
0000
0000
0010
0000
,
0100
0001
1000
0100
,
1000
0001
1000
0000
0001
0000
1000
0000
,
0001
0000
0100
0000
0001
1000
0000
0100
,
1000
0000
0001
1000
0000
0010
1000
0000
,
0001
0000
0010
0001
0000
1000
0001
0000
,
1000
0100
1000
0010
,
0100
0000
0001
0000
1000
0100
0000
1000
,
0001
0000
0010
0001
0000
1000
0010
0000
,
0100
0000
0001
1000
0000
0001
1000
0000
,
0010
0000
0100
0000
0001
1000
0001
0000
,
0100
0010
1000
0100
,
1000
0001
1000
0000
0001
0000
0100
0000
,
0010
1000
0100
0010
,
0001
1000
0001
0000
1000
0000
0010
0000
,
0100
0001
1000
0100
,
1000
0001
1000
0010
1000
0000
0001
0000
,
0100
0000
0100
0001
0000
0001
1000
0000
,
0100
0000
1000
0000
0001
1000
0001
0000
,
1000
0010
0100
0001
,
1000
0001
1000
0000
0010
0000
0100
0000
,
0001
0010
0100
1000
,
0001
1000
0001
0000
1000
0000
0010
0000
,
0100
0000
0001
0000
1000
0000
0001
1000
,
0001
0000
1000
0001
1000
0000
0001
0000
,
1000
0000
0010
1000
0010
0000
1000
0010
,
1000
0000
0001
0100
0001
0000
0100
0001
,
0100
0000
0100
0001
0000
0001
1000
0000
,
0100
0000
1000
0000
0010
1000
0000
0010
,
1000
0000
0010
1000
0000
0010
1000
0000
,
0010
0100
0001
0010
,
0010
0001
0000
0001
0010
0000
0010
0001
,
0000
0001
0010
0000
0010
0000
0010
0000
,
0100
1000
0000
1000
0100
0000
0100
1000
,
0000
1000
0100
0000
1000
0000
1010
0000
,
1010
0101
0001
1000
,
0001
0001
1000
0000
,
0011
1100
1000
1000
,
0001
1000
0001
0000
,
1010
0101
1000
0000
,
0101
1010
0001
0000
,
1000
1000
0100
0100
,
0010
0000
0001
1000
0001
0000
0100
0000
;

//---------------dance-single - Renard----------------
#NOTES:
     dance-single:
     Renard:
     Easy:
     4:
     0.366,0.599,0.453,0.000,0.000: // measure 1
0000
0000
0000
0000
,  // measure 2
0000
0000
0000
0000
,  // measure 3
0000
0000
0000
0000
,  // measure 4
0000
0000
0000
0000
,  // measure 5
1000
0001
0100
0001
,  // measure 6
1000
0000
1000
0000
,  // measure 7
0001
1000
0100
1000
,  // measure 8
0010
1000
0001
0000
,  // measure 9
0000
1010
0000
0101
,  // measure 10
1000
0001
0100
0010
,  // measure 11
0000
0011
0000
1100
,  // measure 12
0000
1000
0001
0100
,  // measure 13
0010
1010
0000
0101
,  // measure 14
0001
1000
0100
1000
,  // measure 15
0000
0011
0000
1100
,  // measure 16
1000
0001
0100
0001
,  // measure 17
1000
0011
0000
0101
,  // measure 18
0000
1010
0000
1100
,  // measure 19
0000
1010
0000
0101
,  // measure 20
0000
0011
0000
1001
,  // measure 21
1000
0100
0001
0100
,  // measure 22
1000
0010
0001
0010
,  // measure 23
1000
0100
0001
1000
,  // measure 24
0010
0001
1000
0100
,  // measure 25
1000
0001
0010
1000
,  // measure 26
0001
0100
1000
0001
,  // measure 27
0010
1001
0000
1010
,  // measure 28
0000
0101
0000
1001
,  // measure 29
0001
0100
1000
0001
,  // measure 30
0010
1000
0001
0100
,  // measure 31
1000
0100
0001
1000
,  // measure 32
1010
0000
0011
0000
,  // measure 33
1001
0000
1000
0001
,  // measure 34
0100
0000
0100
0010
,  // measure 35
1000
0000
1000
0100
,  // measure 36
0010
0001
1000
0001
,  // measure 37
0100
0000
0100
0001
,  // measure 38
1000
0000
1000
0010
,  // measure 39
1000
0010
1010
1010
,  // measure 40
1001
1001
0101
0101
,  // measure 41
0001
1000
0100
1000
,  // measure 42
0001
0100
0001
0000
,  // measure 43
0010
0001
0100
0010
,  // measure 44
1000
0001
0001
0000
,  // measure 45
0100
0101
0001
0011
,  // measure 46
0010
0110
0100
1100
,  // measure 47
1000
1010
1010
1010
,  // measure 48
1001
1100
1001
1010
,  // measure 49
1001
0000
0001
0000
,  // measure 50
1000
0010
0100
0000
,  // measure 51
0001
0000
1000
0000
,  // measure 52
0100
1000
0010
1000
,  // measure 53
0001
0000
0100
0000
,  // measure 54
0010
1000
0001
1000
,  // measure 55
0001
0000
1000
0000
,  // measure 56
0010
1000
0001
1000
,  // measure 57
0100
0000
1000
0000
,  // measure 58
0010
0000
0100
0001
,  // measure 59
1000
0000
0100
0000
,  // measure 60
1000
0000
0010
0100
,  // measure 61
0001
0000
0100
0000
,  // measure 62
1000
0000
0010
0000
,  // measure 63
0001
0100
1000
0010
,  // measure 64
0001
0010
1000
0100
;
