#TITLE:Master of Diagrams;
#SUBTITLE:;
#ARTIST:Totally Radd!!;
#TITLETRANSLIT:;
#SUBTITLETRANSLIT:;
#ARTISTTRANSLIT:;
#CREDIT:;
#BANNER:diagrams.png;
#BACKGROUND:diagrams-bg.png;
#LYRICSPATH:;
#CDTITLE:;
#MUSIC:diagrams.ogg;
#OFFSET:0.000;
#SAMPLESTART:80.640;
#SAMPLELENGTH:15.200;
#SELECTABLE:YES;
#BPMS:0.000=125.000,136.000=62.500,152.000=125.000;
#STOPS:;
#BGCHANGES:0.000=diagrams.avi=1.000=0=1=0,
216.000=diagrams-bg.png=1.000=0=0=1,
99999=-nosongbg-=1.000=0=0=0 // don't automatically add -songbackground-
;
#GENRE:Digital Rock;

//---------------dance-single - Renard----------------
#NOTES:
     dance-single:
     Renard:
     Challenge:
     9:
     0.618,0.658,0.252,0.160,0.374:
0000
0000
0000
0000
,
0000
0000
0000
0000
0000
0000
0000
0000
0000
0000
1000
0001
0100
0001
0100
0001
,
0100
0001
0100
0010
1000
0010
0001
0010
,
0100
0001
0100
1000
0100
0001
0010
1000
,
0010
0001
0010
0100
0001
0100
1000
0010
,
0100
0001
0100
0010
1000
0100
0001
0100
,
0010
0001
0010
1000
0010
0100
1000
0100
,
0001
0100
1000
0010
0001
0010
0100
0001
,
0100
1000
0100
0001
0010
1000
0010
0001
,
0010
0100
0001
0100
0010
0001
0010
0100
,
0001
0100
1000
0010
0001
0010
1000
0100
,
0001
1000
0010
0001
1000
0100
0001
0100
,
1000
0010
0100
0001
1000
0100
0010
0100
,
0001
0010
0001
0100
1000
0010
1000
0100
,
1000
0010
0100
0001
1000
0100
0001
1000
,
0010
0001
0010
1000
0100
1000
0010
0001
,
0100
0010
1000
0100
0010
0001
0100
0010
,
1000
0000
0001
0000
0100
0000
0010
0000
1000
0000
0001
0000
1000
0001
1000
0000
,
0001
0000
0001
0010
0001
0000
0001
0100
0001
0000
0001
1000
0001
0000
0001
0100
,
0001
0000
0001
0010
0001
0000
0001
0010
0100
1000
0100
0010
0001
0010
0100
1000
,
0100
0000
0100
1000
0100
0000
0100
1000
0010
0000
0010
1000
0001
0000
0001
0100
,
0010
0000
1000
0100
0010
0000
0001
0010
0100
1000
0010
0100
0001
1000
0100
0000
,
1000
0000
1000
0100
1000
0000
1000
0010
1000
0000
1000
0001
1000
0000
1000
0010
,
1000
0000
1000
0100
0010
0000
0001
0010
0100
1000
0010
0100
0001
0000
0100
0000
,
0010
0000
1000
0010
0100
0000
0100
0001
0010
0000
0010
0100
1000
0000
1000
0010
,
0100
0010
1000
0010
0100
0000
0001
0000
0010
0100
1000
0010
0100
0000
0001
0000
,
0100
0000
0010
1000
0010
0000
1000
0010
1000
0000
0010
1000
0010
0100
0001
0010
,
0100
0000
1000
0100
1000
0000
0100
1000
0100
1000
0100
1000
0100
0000
1000
0000
,
0001
0000
0010
0100
0010
0000
0001
0010
0100
0000
0010
0001
0010
0100
1000
0010
,
0100
0000
0001
1000
0010
0000
0100
0001
1000
0100
0010
0100
1000
0000
0100
0000
,
1000
0100
0010
0100
1000
0000
0001
0000
0100
0000
0010
0000
1001
0000
0000
0000
,
0001
0010
0100
1000
0010
0000
0100
0000
0001
0000
1000
0000
0110
0000
0000
0000
,
0001
0010
0100
1000
0001
0000
0100
0000
0010
1000
0100
0010
0001
0000
0010
0000
,
0100
1000
0010
0100
0001
0000
1000
0100
0010
0001
0010
0100
1000
0000
0001
0000
,
1121
0000
2000
0000
0200
0030
0002
3000
,
0020
0030
2000
0003
0020
0300
0002
3033
,
1211
0000
0002
0000
0020
0300
2000
0003
,
0200
0000
0300
0000
0002
0000
3000
0000
0200
0000
0333
0000
1000
0001
1000
0000
,
0010
0100
1010
0000
1001
0000
0101
0000
,
1001
0110
1010
0101
,
1000
0100
0010
0100
1000
0001
0010
0100
,
2000
0110
0101
3110
,
0001
0110
1010
0101
,
1001
1010
0110
0101
,
0001
0100
1000
0100
0001
0010
1000
0010
,
0001
0000
0100
0001
0100
0000
0010
1000
0010
0000
1000
0100
1000
0000
1000
0000
,
0100
0010
0001
0010
0100
1000
0100
0010
,
0100
1000
0001
0010
0100
0010
0001
1000
,
0010
1000
0001
0100
0010
0000
1000
0000
0001
0100
0010
0000
1000
0000
0001
0000
,
0202
1010
1000
0313
,
0001
0100
0001
0100
0001
0000
1000
0000
0010
0000
0100
0000
0001
0000
1000
0000
,
0100
0010
0001
0010
0100
0000
1000
0000
0010
0000
0100
0000
0002
0000
0000
0000
,
0103
0010
1000
0100
0010
0000
0100
0000
1000
0001
0010
0100
0010
0000
0001
0000
,
0101
0000
0011
0000
0101
0000
1001
0000
1010
0000
1100
0000
,
1001
0000
0000
0000
;

//---------------dance-single - Renard----------------
#NOTES:
     dance-single:
     Renard:
     Hard:
     8:
     0.503,0.476,0.092,0.143,0.050:
0000
0000
0000
0000
,
0000
0000
0000
1001
,
1000
0100
1000
0100
1000
0100
1000
0100
,
0010
0001
0010
0001
0010
0001
0010
0001
,
1000
0010
1000
0010
1000
0010
1000
0010
,
0100
0001
0100
0001
0100
0001
0100
0000
,
0001
0100
0010
1000
0001
0100
0010
1000
,
0001
0010
0100
1000
0001
0010
0100
1000
,
0001
0100
0010
0100
0001
0100
0010
0100
,
0001
0010
0100
0010
0001
0010
0100
0010
,
0001
1000
0100
0010
0001
1000
0100
0010
,
0001
1000
0010
0100
0001
1000
0010
0100
,
0001
1000
0100
1000
0001
1000
0100
1000
,
0001
1000
0010
0100
0001
0100
0010
0100
,
0001
1000
0100
0010
1000
0010
0100
0000
,
0001
0100
0010
1000
0100
1000
0010
0000
,
0100
0001
1000
0100
0010
0100
1000
0000
,
0001
0100
0010
1000
0100
0000
1001
0000
,
1000
0010
0001
0010
1000
0100
0001
0100
,
1000
0010
0001
0010
1000
0100
0001
0100
,
1000
0010
0100
0001
0010
0100
1000
0100
,
0001
0100
1000
0010
0100
0001
1000
0000
,
0001
0100
1000
0100
0001
0010
1000
0010
,
0001
0100
1000
0100
0001
0010
1000
0010
,
0001
0100
0010
1000
0100
0010
0001
0010
,
1000
0010
0001
0100
0010
1000
0001
0000
,
1000
0000
0100
1000
0100
0000
0010
0000
0100
0000
1000
0000
0100
0000
1000
0000
,
0001
0000
0010
0001
0010
0000
0001
0000
0010
0000
0100
0000
0010
0000
0001
0000
,
0100
0000
0001
0100
0001
0000
1000
0000
0001
0000
0100
0000
0001
0000
0100
0000
,
0010
0000
1000
0010
1000
0000
0010
0000
1000
0000
0001
0000
1000
0000
0000
0000
,
0010
0000
1000
0010
1000
0000
0001
0000
1000
0000
0010
0000
1000
0000
0010
0000
,
0100
0000
0001
0100
0001
0000
0100
0000
0001
0000
1000
0000
0001
0000
0100
0000
,
1000
0000
0100
1000
0100
0000
0010
0000
0100
0000
1000
0000
0100
0000
1000
0000
,
0001
0000
0010
0001
0010
0000
0001
0000
0010
0000
0100
0000
0001
0000
1000
0000
,
0002
0100
0010
1000
2000
0003
0020
3000
,
0200
0030
0002
0300
0020
0000
2000
3033
,
0000
2000
0001
0100
0020
0000
0002
3000
,
0200
0000
0000
1333
,
0001
0100
0010
1000
0100
0010
0001
1000
,
0010
0100
0001
0010
1000
0010
0001
0010
,
0100
1000
0100
1000
0010
0100
0001
0010
,
0100
1000
1100
0000
0011
0000
1001
0000
,
1000
0010
0100
0001
0010
0100
1000
0001
,
0100
0010
1000
0100
0001
0100
1000
0100
,
0010
0001
0010
0001
0100
0010
1000
0100
,
0010
0001
0011
0000
1100
0000
1001
0000
,
1000
0010
0100
0001
0010
0100
0010
0001
,
1000
0100
1000
0010
0100
0001
0010
0100
,
1000
0100
0001
0100
1000
0010
0100
0001
,
0010
0100
1001
0000
1010
0000
0101
0000
,
0010
1000
0100
1000
0010
0100
0001
0010
,
0100
0010
0100
1000
0010
0100
0001
0100
,
0010
1000
0100
0010
0001
0010
0100
1000
,
0002
0000
0200
0003
0020
0300
2000
0030
0200
3000
0020
0300
,
0031
0000
0000
0000
;

//---------------dance-single - Renard----------------
#NOTES:
     dance-single:
     Renard:
     Medium:
     6:
     0.340,0.386,0.134,0.042,0.017:
0000
0000
0000
0000
,
0000
0000
0000
0000
,
1000
0000
0001
0000
1000
0100
1000
0000
,
0001
0000
0100
0000
0010
0100
0010
0000
,
0100
0000
0001
0000
0010
0100
0010
0000
,
0100
0000
1000
0000
0001
0010
0001
0000
,
0100
0000
0010
0000
1000
0001
1000
0000
,
0010
0000
0100
0000
0001
1000
0001
0000
,
0100
0000
0010
0000
1000
0100
1000
0000
,
0010
0000
0100
0000
0001
0010
0001
0010
,
0001
0000
0100
0000
0010
1000
0100
0010
,
0001
0000
1000
0000
0010
0100
0001
0100
,
0010
0000
1000
0000
0100
0010
0001
0010
,
0100
0000
1000
0000
0001
1000
0010
0000
,
0100
0000
0001
0000
0010
0001
1000
0100
,
1000
0000
0010
0000
0100
0001
1000
0010
,
0100
0000
0001
0000
0100
1000
0001
0000
,
0100
0001
1000
0000
0100
1000
0001
0000
,
1000
0100
1000
0100
1000
0000
0100
0000
,
0010
0001
0010
0001
,
1000
0010
1000
0010
1000
0000
0010
0000
,
0100
0001
0100
0001
,
1000
0001
1000
0001
1000
0000
0001
0000
,
0100
0010
0100
0010
,
1000
0001
1000
0001
1000
0000
0001
0000
,
1000
0010
0100
1001
,
1010
0000
0100
0000
0001
0000
0010
0100
,
1000
0000
0010
0000
0100
0000
0001
0100
,
0001
0100
0010
1000
,
0100
1000
0100
0000
1000
0000
0100
0000
,
1000
0000
0010
0100
0001
0000
0010
0000
,
0100
1000
0010
0000
0100
0000
0001
0000
,
1000
0001
1000
0000
0001
1000
0001
0000
,
1000
0001
1000
0001
1000
0000
0001
0000
,
1000
0100
0010
0001
1001
0000
0110
0000
,
1010
0000
0101
0000
2002
0000
0010
3003
,
0000
1000
0010
0100
0002
0000
0200
0000
,
0020
0000
0000
1333
,
0100
0000
0001
0100
0001
0000
0100
0000
,
0010
0000
1000
0000
0100
1000
0100
0000
,
1000
0010
0100
0001
,
0100
1001
1010
0101
,
0001
0000
0100
0010
0000
0000
0010
0000
,
0100
0001
0010
0100
,
1000
0000
0010
0100
0001
1000
0001
0000
,
1010
0101
1010
0101
,
0001
0010
0100
0000
1000
0000
0010
0000
,
0100
0001
0100
0000
0010
0000
1000
0000
,
0100
0000
0010
0000
0100
1000
0001
0000
,
0100
0010
1000
0000
1001
0000
0101
0000
,
0001
0100
0001
0000
0100
0000
0010
0000
,
1000
0001
1000
0000
0010
0000
0100
0000
,
0001
0100
0010
1000
,
0001
0000
0100
0000
0001
0000
0100
0000
0010
0000
1000
0000
,
0010
0000
0000
0000
;

//---------------dance-single - Renard----------------
#NOTES:
     dance-single:
     Renard:
     Easy:
     1:
     0.109,0.159,0.000,0.059,0.000: // measure 1
0000
0000
0000
0000
,  // measure 2
0000
0000
0000
0000
,  // measure 3
1000
0000
0001
0000
,  // measure 4
0100
0000
0010
0000
,  // measure 5
2000
0000
0000
0000
,  // measure 6
3200
0000
0000
0000
,  // measure 7
0310
0000
0000
0010
,  // measure 8
0001
0000
0100
0000
,  // measure 9
0020
0000
0000
0000
,  // measure 10
1030
0000
0100
0000
,  // measure 11
1000
0000
0000
0001
,  // measure 12
0100
0000
0000
0001
,  // measure 13
1000
0000
0100
0000
,  // measure 14
0020
0000
0000
0000
,  // measure 15
0032
0000
0000
0000
,  // measure 16
0203
0000
0000
0000
,  // measure 17
0302
0000
0000
0000
,  // measure 18
1003
0000
1000
0000
,  // measure 19
0001
0000
0100
0000
,  // measure 20
0010
0000
0000
0000
,  // measure 21
1000
0000
0000
0000
,  // measure 22
0001
0000
0000
0000
,  // measure 23
1000
0000
0100
0000
,  // measure 24
0010
0000
0000
0000
,  // measure 25
0001
0000
0000
0000
,  // measure 26
0010
0000
0000
0000
,  // measure 27
0100
0000
0000
0000
,  // measure 28
1000
0000
0000
0010
,  // measure 29
0100
0000
0000
0000
,  // measure 30
0001
0000
0000
1000
,  // measure 31
0001
0000
0000
0000
,  // measure 32
1000
0000
0000
0000
,  // measure 33
0010
0000
0000
0100
,  // measure 34
0001
0000
1000
0000
,  // measure 35
0001
0001
0100
0000
,  // measure 36
0010
0010
1000
0000
,  // measure 37
0100
0100
0010
0000
,  // measure 38
0001
0000
0001
0000
,  // measure 39
0000
0010
1000
0010
,  // measure 40
0100
0000
0000
0000
,  // measure 41
0001
0000
0000
0000
,  // measure 42
0010
0000
0000
0000
,  // measure 43
0000
0100
1000
0100
,  // measure 44
1000
0000
0000
0000
,  // measure 45
0010
0000
0000
0000
,  // measure 46
0100
0000
0000
0000
,  // measure 47
0000
0001
1000
0001
,  // measure 48
0100
0000
0000
0000
,  // measure 49
0001
0000
0000
0000
,  // measure 50
1000
0000
0000
0000
,  // measure 51
0000
0100
1000
0001
,  // measure 52
1000
0000
0000
0000
,  // measure 53
0001
0000
0000
0000
,  // measure 54
0100
0000
0001
0000
,  // measure 55
1000
0000
0000
0000
;
