#TITLE:Maniac in a Saab;
#SUBTITLE:;
#ARTIST:Ricardo Autobahn;
#TITLETRANSLIT:;
#SUBTITLETRANSLIT:;
#ARTISTTRANSLIT:;
#CREDIT:;
#BANNER:saab.png;
#BACKGROUND:saab-bg.png;
#LYRICSPATH:;
#CDTITLE:;
#MUSIC:saab.ogg;
#OFFSET:0.000;
#SAMPLESTART:13.181;
#SAMPLELENGTH:12.000;
#SELECTABLE:YES;
#BPMS:0.000=145.000;
#STOPS:;
#BGCHANGES:;
#GENRE:Dance;

//---------------dance-single - Renard----------------
#NOTES:
     dance-single:
     Renard:
     Challenge:
     10:
     0.620,0.846,0.307,0.625,0.287:
0000
0000
0000
0000
,
0000
0000
0000
0000
,
0000
0000
0000
0000
,
0000
0000
0000
0000
,
1000
0000
1000
0100
0000
0100
1000
0000
0010
0000
0010
0100
0000
0100
0001
0000
,
0010
0000
0010
0001
0000
0001
0100
0000
0010
0000
0010
1000
0000
1000
0100
0000
,
1000
0000
1000
0001
0000
0001
0100
0000
0010
0000
0010
1000
0000
1000
0100
0000
,
0010
0000
0001
0010
0001
0000
0000
0000
1001
0000
0000
0000
1001
0000
0000
0000
,
0200
0000
0000
0000
0010
0000
1000
0000
0001
0000
1000
0001
1000
0000
0010
0000
,
1000
0001
1000
0002
0010
0000
1000
0010
,
1300
0000
0010
0000
0100
0000
0010
0000
1000
0000
0010
0100
0010
0000
1000
0000
,
0100
1000
0010
0100
0010
1000
0010
0000
,
2000
0000
0000
0000
0100
0000
0010
0000
0100
0000
0000
0000
0010
0000
0100
0010
,
0100
0010
3103
0000
0200
0000
1000
0000
,
0002
0000
0000
0000
0010
0000
1000
0000
0010
0000
0000
0000
1000
0010
1000
0000
,
0313
0000
0000
1001
0000
0110
0000
0000
,
2000
0000
0001
0010
0001
0000
0010
0001
,
0010
0000
0001
0010
0001
0010
0001
0000
,
0200
0000
0000
0000
0001
0000
0010
0000
0001
0000
0001
0010
0001
0000
0010
0000
,
0001
0010
0001
0010
0001
0000
0010
0300
,
0002
0000
0000
0000
0100
0000
0010
0000
0100
0000
0010
0100
0010
0000
0100
0000
,
0010
0100
3013
0000
0220
0000
0000
0000
,
0001
0000
1000
0001
1000
0001
1000
0000
,
1331
1010
1001
0101
,
2222
0000
0000
0000
0000
0000
0000
0003
,
0002
0003
0032
0020
0000
0000
0000
0000
,
0000
0000
3300
0200
2300
0230
0023
0002
,
0000
0030
0023
0002
0000
0000
0000
0000
,
0000
0000
3000
2300
0230
0023
0032
0020
,
0000
0300
0230
0020
0000
0000
0000
0000
,
0000
0000
0030
3020
2030
0320
0203
0002
,
0000
0000
0000
0000
0000
3000
2003
0002
,
0033
0022
0033
0020
0002
0033
0022
3333
,
0000
0000
1000
0100
0010
0000
0001
0010
,
0100
0000
1000
0010
0200
0000
1301
0000
,
0001
0000
0010
0100
1000
0000
0100
0010
,
0001
0200
1001
1301
,
0001
0000
0010
0100
1000
0000
0010
0100
,
0001
0020
1001
1031
,
0200
1301
0020
1031
,
1110
1011
0111
1101
,
1000
0000
0001
0100
0001
0000
1000
0100
1000
0000
0001
0100
0001
0000
1000
0100
,
1000
0000
0001
0100
0001
0000
1000
0100
1000
0000
0001
0100
0001
0000
1000
0000
,
0001
0000
1000
0010
1000
0000
0001
0010
0001
0000
1000
0010
1000
0000
0001
0010
,
0001
0000
1000
0010
1000
0000
0001
0010
0001
0000
1000
0010
1000
0000
0001
0000
,
0100
0010
1000
0010
0100
0000
0001
0000
0100
0010
1000
0010
0100
0000
0001
0000
,
0100
0010
1000
0010
0100
0001
0100
0000
0010
1000
0010
0100
0001
1000
0010
0000
,
0100
0010
1000
0010
0100
0001
0100
0000
0010
1000
0010
0100
0001
0100
0010
0000
,
1000
0010
0100
0001
0100
0010
1000
0100
0010
0001
0010
0100
1000
0010
0100
0000
,
0002
0000
0120
1000
,
0130
0000
0000
0000
1003
0000
0002
0200
,
0000
0000
2010
0000
3020
0000
2030
3000
,
1313
0000
0000
0000
1000
0000
0010
0200
,
0000
1001
1010
0011
,
1301
0000
0002
0000
,
0200
0000
0020
0000
,
2000
0000
0000
0000
,
3333
0000
0000
0000
;

//---------------dance-single - Renard----------------
#NOTES:
     dance-single:
     Renard:
     Hard:
     9:
     0.427,0.584,0.041,0.020,0.189:
0000
0000
0000
0000
,
0000
0000
0000
0000
,
0000
0000
0000
0000
,
0000
0000
0000
0000
,
0000
0000
0000
0000
,
0000
0000
0000
0000
,
0000
0000
0000
0000
,
0000
0000
0000
0000
,
1000
0000
0000
0000
0001
0000
0100
0000
0001
0000
1000
0001
1000
0000
0001
0000
,
0100
0010
1000
0000
1100
0000
0010
0001
,
0000
0000
0100
0000
0010
0000
1000
0000
0001
0000
0000
0001
0100
0000
0010
0000
,
1000
0000
0000
1000
0100
0000
0010
0000
0001
0000
0000
0000
1000
0000
0001
0100
,
0001
1000
0100
1000
0001
0000
0010
0000
,
0100
1000
0001
0000
0100
0010
1000
0000
,
0100
0000
0000
0100
0010
0000
0001
0000
0100
0000
0000
0100
0010
0000
1000
0000
,
0100
0000
0000
0100
1000
0000
0010
0000
0100
0000
0001
0000
1000
0000
0001
0000
,
0100
0000
0100
0000
0001
1000
0100
0010
,
0001
0000
1000
0010
0100
0000
0001
0100
,
0010
1000
0100
0000
0010
0001
0100
0000
,
0001
0000
1000
0000
0100
0000
0000
0100
1000
0000
0010
0000
0100
0000
0000
0100
,
0001
0100
0010
1000
0100
0010
0001
0000
,
1000
0000
0010
0000
0100
0000
0001
0000
1000
0000
0001
0000
0100
0000
0000
0100
,
0001
0000
1000
0000
0100
0000
0000
0100
1000
0000
0010
0000
0100
0000
0001
0000
,
1000
0000
0001
0000
0100
0000
0001
0000
1000
0001
1000
0000
0001
0000
0000
0000
,
1000
0000
0000
0000
,
0010
0000
0010
1000
0000
0000
0000
0000
,
0000
0000
0000
0001
0100
0001
1000
0100
,
0000
0000
0100
1000
0000
0000
0000
0000
,
0000
0000
0000
0010
0100
0001
0100
0010
,
0000
0000
1000
0001
0000
0000
0000
0000
,
0000
0000
0000
1000
0100
0010
0001
0010
,
0000
0000
0000
0000
0000
0000
0100
1000
,
0000
0110
0000
0001
1000
0000
0101
0000
,
1001
0000
1000
0100
0010
0000
0001
0010
,
0100
0000
0000
0000
1000
0000
0010
0000
0100
0000
0000
0100
0001
0000
1000
0000
,
0100
0000
0100
0010
0001
0000
0001
1000
,
0010
0000
0000
0010
0100
0000
0000
0100
0001
0000
0000
0001
1000
0000
0000
1000
,
0100
0000
0000
0000
0010
0000
0001
0000
1000
0000
0000
1000
0001
0000
0100
0000
,
0010
0000
0000
0000
0010
0000
1000
0000
0100
0000
0000
0100
1000
0000
0000
1000
,
0010
0000
0100
0001
1000
0000
1000
0100
,
0010
0000
0010
0001
0010
0100
1000
0010
,
0100
0000
0000
0000
0001
0000
1000
0000
0100
1000
0100
0000
1000
0000
0000
0000
,
0001
0000
0100
0000
0001
0000
1000
0000
0100
1000
0001
0000
0010
0000
0100
0000
,
1000
0000
0010
0000
0100
0000
0000
0000
0001
1000
0001
0000
0100
0000
0010
0000
,
1000
0000
0100
0000
0010
0000
0001
0000
1000
0001
1000
0000
0001
0000
0100
0000
,
0010
0000
1000
0000
0100
0000
0000
0100
0010
0000
0001
0000
0100
0000
0000
0100
,
0010
1000
0100
0010
0001
1000
0010
0100
,
0001
1000
0001
0000
1000
0100
1000
0000
0001
0010
0001
0000
1000
0000
0100
0000
,
0100
0010
0001
0010
0100
1000
0010
0100
0001
0010
0100
1000
0010
0100
0001
1000
,
0010
0000
0000
0000
,
0000
0000
0000
0000
1000
0000
0001
0100
,
0000
0000
0000
0000
,
0000
0000
0000
0000
0010
0000
1000
0100
,
0000
0000
0000
0000
,
0000
0000
0010
0000
,
0001
0000
0100
0010
,
2000
0000
0200
0000
,
3300
0000
0000
0000
;

//---------------dance-single - Renard----------------
#NOTES:
     dance-single:
     Renard:
     Medium:
     5:
     0.278,0.310,0.020,0.000,0.000:
0000
0000
0000
0000
,
0000
0000
0000
0000
,
0000
0000
0000
0000
,
0000
0000
0000
0000
,
1000
0000
0001
0000
0100
0000
0000
0010
,
1000
0000
0100
0000
0010
0000
0000
0001
,
0010
0000
0000
0100
1000
0000
0000
0010
,
0100
0000
0001
1000
0001
0000
1000
0000
,
0001
0000
0100
0010
,
1000
0000
0100
0000
0010
0000
0001
0010
,
0000
0000
0100
1000
0000
0000
0010
0100
,
0001
0000
1000
0000
0100
0000
0010
0001
,
0000
0000
1000
0010
0000
0000
0100
0000
,
0001
0000
0010
0000
0100
0000
1000
0100
,
1000
0000
0000
0000
0010
0000
0100
0001
,
0100
0000
0001
1000
,
0100
0000
0010
0000
0001
0000
0010
0100
,
1000
0000
0000
0000
0010
0000
0100
0001
,
0000
0000
0100
0000
0010
0000
1000
0100
,
0000
0000
0010
0000
0001
0000
1000
0010
,
0000
0000
0100
0000
0001
0000
1000
0100
,
0000
0000
0010
0000
0001
0000
0000
0001
,
0010
0000
0000
0010
0100
0000
0000
1000
,
0010
0100
0001
0100
,
0010
0000
0000
0000
,
1000
0000
1000
0100
0000
0000
0000
0000
,
0000
0000
0000
0010
0001
0010
0100
1000
,
0000
0000
0010
1000
0000
0000
0000
0000
,
0000
0000
0010
1000
0001
0000
0100
0010
,
0000
0000
1000
0010
0000
0000
0000
0000
,
0000
0000
0000
0100
0001
0100
0010
1000
,
0000
0000
0000
0000
0000
0000
0010
0100
,
0000
0001
0000
0100
0010
0000
1000
0000
,
0001
1000
0100
0010
,
0001
0010
0100
1000
,
0001
0100
0010
1000
,
0010
0000
0100
0001
0100
0000
0010
1000
,
0010
1000
0100
0010
,
0001
0010
0100
1000
,
0010
0000
0100
0000
0001
0000
1000
0001
,
0000
1010
0000
0100
0001
0000
0100
0000
,
0010
0010
1000
1000
,
0100
0000
0100
0000
0010
0001
0010
0001
,
0000
0000
0010
0001
0000
0000
1000
0000
,
0100
0000
0010
0000
1000
1000
0000
1100
,
0000
0000
0100
1000
0000
0000
0010
0000
,
0100
0000
0001
0000
1000
0100
1000
0100
,
0000
0000
0000
0000
0000
0000
0010
0001
,
0000
0100
0000
0001
0000
1000
0001
0100
,
0010
0000
0000
0000
,
0000
0000
0000
0000
1000
0000
0100
0010
,
0000
0000
0000
0000
,
0000
0000
0000
0000
0001
0000
0100
0010
,
0000
0000
0000
0000
,
0000
0000
1000
0000
,
0010
0000
0000
0000
;

//---------------dance-single - Renard----------------
#NOTES:
     dance-single:
     Renard:
     Easy:
     1:
     0.178,0.233,0.031,0.399,0.000: // measure 1
0000
0000
0000
0000
,  // measure 2
0000
0000
0000
0000
,  // measure 3
0000
0000
0000
0000
,  // measure 4
0000
0000
0000
0000
,  // measure 5
1000
1000
1000
0000
,  // measure 6
0001
0001
0001
0000
,  // measure 7
0100
0000
0010
0000
,  // measure 8
1000
0100
0010
0000
,  // measure 9
0002
0000
0000
0000
,  // measure 10
0000
0000
0203
0000
,  // measure 11
0320
0000
0000
0000
,  // measure 12
0000
0000
2030
0000
,  // measure 13
3200
0000
0000
0000
,  // measure 14
0000
0000
0320
0000
,  // measure 15
0031
0002
0000
0000
,  // measure 16
0000
0000
0000
0000
,  // measure 17
2003
0000
0000
0000
,  // measure 18
0000
0000
3200
0000
,  // measure 19
0310
0020
0000
0000
,  // measure 20
0000
0000
0031
0002
,  // measure 21
1003
2000
0000
0000
,  // measure 22
0000
0000
3020
0000
,  // measure 23
0230
0000
0000
0000
,  // measure 24
0302
0000
0000
0003
,  // measure 25
1001
0000
0000
0000
,  // measure 26
2000
0000
0000
0000
,  // measure 27
0000
0000
0000
0000
,  // measure 28
3200
0000
0000
0000
,  // measure 29
0310
0020
0000
0000
,  // measure 30
0032
0000
0000
0000
,  // measure 31
0000
0000
0000
0000
,  // measure 32
0200
0003
0000
0000
,  // measure 33
0320
0000
0000
0000
,  // measure 34
1030
1000
1000
0000
,  // measure 35
0001
0001
0001
0000
,  // measure 36
0100
0000
0100
0000
,  // measure 37
0110
0010
0010
0000
,  // measure 38
1000
1000
1000
0000
,  // measure 39
0100
0100
0100
0000
,  // measure 40
0010
0000
0010
0000
,  // measure 41
0011
0010
0001
0000
,  // measure 42
0200
0000
0000
0000
,  // measure 43
0320
0000
1030
2000
,  // measure 44
3200
0000
0000
0000
,  // measure 45
0320
0000
0031
0002
,  // measure 46
0203
0000
0000
0000
,  // measure 47
0302
0000
2003
0000
,  // measure 48
3200
0000
0000
0000
,  // measure 49
2300
0000
3020
0000
,  // measure 50
0230
0000
0000
0000
,  // measure 51
0000
0000
0000
0000
,  // measure 52
0302
0000
0000
0000
,  // measure 53
0000
0000
2003
0000
,  // measure 54
3200
0000
0000
0000
,  // measure 55
0000
0000
0320
0000
,  // measure 56
0032
0000
0000
0000
,  // measure 57
0000
0000
0000
0000
,  // measure 58
0003
0000
0000
0000
;
