#TITLE:Make You Freak;
#SUBTITLE:;
#ARTIST:Plus System;
#TITLETRANSLIT:;
#SUBTITLETRANSLIT:;
#ARTISTTRANSLIT:;
#CREDIT:;
#BANNER:freak.png;
#BACKGROUND:freak-bg.png;
#LYRICSPATH:;
#CDTITLE:;
#MUSIC:freak.ogg;
#OFFSET:0.000;
#SAMPLESTART:43.756;
#SAMPLELENGTH:12.000;
#SELECTABLE:YES;
#BPMS:0.000=175.440;
#STOPS:0.000=0.020
,61.500=0.322
;
#BGCHANGES:;
#GENRE:Dark Trancecore;

//---------------dance-single - Renard----------------
#NOTES:
     dance-single:
     Renard:
     Hard:
     8:
     0.520,0.547,0.510,0.058,0.000:
0000
0000
0000
0000
,
0000
0000
0000
0000
,
0000
0000
0000
0000
,
0000
0000
0000
0000
,
0000
0000
0000
0000
,
0000
0000
0000
0000
,
0000
0000
0000
0000
,
0000
0000
0000
0000
,
1010
0000
1100
0000
0011
0000
0001
0100
,
0000
0100
0010
0000
1000
0000
0100
0000
,
0011
0000
0101
0000
1001
0000
1000
0001
,
0000
0100
0010
0000
1010
0000
0110
0000
,
0110
0000
0101
0000
0011
0000
0010
0100
,
0000
0010
1000
0000
0010
0001
0100
0000
,
0101
0000
0000
0010
1000
0001
0000
0100
,
0010
0000
1000
0100
0000
0000
1000
0000
,
1000
0000
0001
0000
0100
1000
0000
1000
,
0100
0000
0001
0000
0010
1000
0010
0000
,
1010
0000
0010
0000
0001
0010
0000
0010
,
0001
0101
1100
0101
,
1100
0000
0101
0000
1000
0100
0000
0100
,
0001
0000
0011
0000
0010
1000
0010
0000
,
0011
0000
1010
0000
0010
0001
0000
0001
,
0100
1100
0101
1001
,
1100
0000
0101
0000
0100
1000
0000
1000
,
0010
0000
0011
0000
0010
1000
0100
0000
,
0010
0000
0011
0000
0010
1000
0000
1000
,
0010
0011
0101
1100
,
1000
0100
0001
0000
0001
0010
0000
0010
,
1000
0010
0001
0100
1000
0100
0001
0000
,
0001
1000
0100
0010
0001
1000
0010
0000
,
0000
0000
1001
1010
,
0101
0000
0011
0000
1000
0100
0000
0100
,
1000
0010
0100
0001
0010
0100
1000
0000
,
0010
1000
0001
0000
0001
1000
0000
1000
,
0100
0010
0001
1000
0010
0000
0010
1000
,
0001
0000
0001
0100
0001
1000
0000
1000
,
0100
0000
0001
0010
1000
0010
0001
0100
,
1000
0000
1000
0100
0001
1000
0000
1000
,
0100
0101
1100
1010
,
0011
0000
0010
1000
0010
0001
0000
0001
,
0010
0000
1000
0100
0001
0000
0101
0000
,
1100
0000
1000
0010
0100
0001
0000
0001
,
0010
1000
0010
0000
1010
0000
0011
0000
,
0001
0100
1000
0100
0001
0100
0000
0001
,
0100
0000
1100
0000
0101
0000
0001
0010
,
1000
0000
1000
0010
0001
1000
0010
0000
,
0100
0001
1010
0101
,
1000
0000
0100
0000
0010
0001
0000
0100
,
0010
0000
1000
0100
0010
0001
1000
0000
,
0110
0000
1001
0000
1000
0100
0000
0100
,
0010
0001
0100
0010
1000
0100
0010
0000
,
0110
0000
0011
0000
0001
1000
0000
1000
,
0010
0100
0001
1000
0100
0000
0010
0000
,
0001
0100
0010
1000
0000
0100
0010
0000
,
0010
0001
0000
0001
1000
0010
0100
0000
,
0100
0000
0001
0000
0001
2000
0000
0000
,
0000
0100
0100
3100
,
0010
0000
0001
0100
0010
2000
0000
0000
,
0100
0000
0010
0000
0001
3000
0001
0000
,
0200
0000
0310
0000
1000
0200
0000
0000
,
0000
0010
0010
0310
,
0001
0200
0000
0310
,
1000
0200
0000
1300
,
0010
0000
0100
0001
1000
0100
0000
0100
,
1000
0010
0100
0000
0000
0000
1001
0000
,
1100
0000
0010
0001
0100
0010
1000
0000
,
0001
0001
0000
1000
,
0100
0000
0010
0000
0001
0100
0000
0010
,
0000
1000
0100
0000
0010
0001
0100
0000
,
0000
0010
1000
0100
0000
0010
0001
0000
,
0100
0010
0000
0000
0000
0000
0000
0000
;

//---------------dance-single - Renard----------------
#NOTES:
     dance-single:
     Renard:
     Medium:
     6:
     0.348,0.379,0.029,0.058,0.000:
0000
0000
0000
0000
,
0000
0000
0000
0000
,
0000
0000
0000
0000
,
0000
0000
0000
0000
,
0000
0000
0000
0000
,
0000
0000
0000
0000
,
0000
0000
0000
0000
,
0000
0000
0000
0000
,
0001
0000
1000
0000
0100
0000
1000
0001
,
0000
1000
0001
0000
0001
0000
0001
0000
,
1000
0000
0010
0000
0100
0000
0001
1000
,
0000
0001
1000
0000
0001
0000
1000
0000
,
0100
0000
0010
0000
0001
0000
1000
0010
,
0000
1000
0001
0000
1000
0000
0001
0000
,
0200
0000
0320
0000
,
2030
0000
0000
3200
0000
0000
0100
0000
,
1000
0000
0010
0000
0100
0001
0000
0000
,
0001
0001
0000
1000
,
0100
0000
0010
0000
0001
1000
0000
0000
,
0001
1000
0001
1000
,
0010
0000
0100
0000
0001
1000
0000
0000
,
0001
1000
0001
1000
,
0100
0000
0010
0000
0001
1000
0000
0001
,
1000
0001
1000
1001
,
1000
0010
0010
0100
,
0100
0000
0001
0000
0001
0010
0001
0000
,
0001
0010
0010
0100
,
0100
0000
1000
0000
1000
0001
1000
0000
,
0000
1000
0010
0000
0000
0010
0100
0000
,
0000
0100
0001
0000
0000
0001
1000
0000
,
0000
0100
0010
0001
0000
0010
0100
0000
,
1000
0001
0000
0000
0000
0000
1000
0000
,
0001
0000
0100
0000
0001
1000
0000
0001
,
1000
0001
0000
1000
,
0100
0000
0010
0000
0001
1000
0000
0001
,
1000
1001
0000
1000
,
0001
0000
0010
0000
0100
1000
0000
0100
,
1000
1100
0000
0010
,
0000
0001
0100
0000
0000
0001
1000
0000
,
0000
0001
0010
0000
0001
0000
1000
0000
,
0000
0100
1000
0000
0001
0100
0000
0001
,
1000
0100
0000
1000
,
0000
0001
0010
0000
0001
1000
0000
0001
,
1000
0001
0000
1000
,
0000
0001
1000
0000
0010
1000
0000
0001
,
1000
0001
0000
1000
,
0000
0100
0010
0000
0000
0001
0010
0000
,
0100
1000
0000
0001
,
0001
0001
0001
0100
,
0100
0000
0100
0000
0100
0001
1000
0000
,
1000
1000
1000
0100
,
0100
0000
0100
0000
0100
1000
0001
0000
,
0001
0001
0001
0100
,
0100
0000
0100
0000
0100
0001
1000
0000
,
1000
0000
1000
0000
1000
0100
1000
0000
,
0000
0000
0000
0000
0001
0100
0001
0000
,
0001
0000
0001
0000
1000
0100
0000
0000
,
0000
0010
0000
0001
,
0100
0000
0010
0000
1000
0100
0000
0000
,
0000
0010
0000
0001
,
0100
0000
0001
0000
1000
0100
0000
0000
,
0000
0010
0000
0001
,
0100
0000
0001
0000
1000
0100
0000
0000
,
0000
0010
0000
0001
,
0100
0000
0001
0000
1000
0100
0000
0000
,
0010
0001
0000
0100
,
0001
0000
1000
0000
0100
1000
0000
0000
,
0001
0100
0010
1000
,
0000
0000
0100
0000
0000
0010
0000
0001
,
0000
0000
0010
0000
0100
1000
0001
0000
,
0000
0100
0000
0002
,
0000
2000
0000
0000
0000
3003
0000
0000
;

//---------------dance-single - Renard----------------
#NOTES:
     dance-single:
     Renard:
     Easy:
     2:
     0.245,0.342,0.096,0.019,0.000:
0000
0000
0000
0000
,
0000
0000
0000
0000
,
0000
0000
0000
0000
,
0000
0000
0000
0000
,
0000
0000
0000
0000
,
0000
0000
0000
0000
,
0000
0000
0000
0000
,
0000
0000
0000
0000
,
1100
0000
0011
0000
0000
0000
0000
0101
,
0000
0010
1000
0000
0000
0000
0000
0000
,
1100
0000
0011
0000
0000
0000
0000
1100
,
0000
0001
0010
0000
0000
0000
0000
0000
,
0101
0000
1010
0000
0000
0000
0000
1001
,
0000
1000
0001
0000
0000
0000
0000
0000
,
1100
0000
0020
0000
,
0032
0000
0000
0103
0000
0000
0010
0000
,
0000
0000
0010
0000
0000
1000
0000
0000
,
0001
0100
0000
0001
,
0000
0000
1000
0000
0000
0100
0000
0000
,
0010
0001
0000
0100
,
0000
0000
0001
0000
0000
1000
0000
0000
,
0100
0010
0000
0001
,
0000
0000
1000
0000
0000
0001
0000
0000
,
1000
0001
0000
0100
,
0100
0000
0100
0000
0000
0001
0000
0000
,
1000
0100
0000
0010
,
0010
0000
0010
0000
0000
0001
0000
0000
,
0100
0001
0000
1000
,
1000
0000
1000
0000
0000
0100
0000
0000
,
0010
0001
1000
0001
,
0000
0100
0000
0010
,
1000
0000
0001
0000
0000
1000
0001
0000
,
0000
0000
0100
0000
0000
0001
0000
0000
,
1000
0100
0000
0010
,
0000
0000
0001
0000
0000
0100
0000
0000
,
0001
1000
0100
1000
,
0000
0000
0001
0000
0000
0100
0000
0000
,
0010
1000
0000
0100
,
0000
0000
1000
0000
0000
0001
0000
0000
,
0100
0001
1000
0100
,
0000
0000
0010
0000
0000
0001
0000
0000
,
1000
0010
0000
0100
,
0000
0000
0001
0000
0000
1000
0000
0000
,
0100
0010
0000
0001
,
0000
0000
0010
0000
0000
0100
0000
0000
,
1000
0010
0100
0001
,
0000
1000
0000
0001
,
0000
1000
0000
0000
0000
0000
0010
0000
,
0000
0000
0000
0000
0000
0100
0000
0000
,
0001
0000
0000
1000
,
0000
0000
0000
0000
0000
0100
0000
0000
,
0010
0000
0000
0001
,
0000
0000
0000
0000
0000
0010
0000
0000
,
0100
0000
0000
1000
,
0000
0010
0000
0100
,
0001
1000
0000
0000
0000
0000
0001
0000
,
0001
0000
0001
0000
0000
1000
0000
0000
,
1000
1000
0000
0001
,
0001
0000
0001
0000
0000
1000
0000
0000
,
1000
1000
0000
0010
,
0010
0000
0010
0000
0000
0100
0000
0000
,
0100
0100
0000
0010
,
0010
0000
0010
0000
0000
0100
0000
0000
,
0100
0100
0000
0001
,
0001
0000
0001
0000
0000
1000
0000
0000
,
1000
1000
0000
0001
,
0001
0000
0001
0000
0000
1000
0000
0000
,
1000
1000
0000
0010
,
0000
0000
0010
0000
0000
0100
0000
0010
,
0000
0000
0100
0000
0010
1000
0000
0000
,
0000
0001
0000
0010
,
0000
1000
0000
0000
0000
0000
0000
0000
;

//---------------dance-single - BlueChaos----------------
#NOTES:
     dance-single:
     BlueChaos:
     Challenge:
     11:
     0.877,1.000,0.789,0.337,0.356: // measure 1
0000
0000
0000
0000
,  // measure 2
0000
0000
0000
0000
,  // measure 3
0001
0100
0010
0000
1010
0000
1000
0100
,  // measure 4
0000
0000
0010
0000
0001
0000
0100
0000
0010
0100
0010
0000
1000
0000
1000
0000
,  // measure 5
0010
0100
0001
0000
1001
0000
1000
0010
,  // measure 6
0000
0000
0100
0000
0001
0000
1000
0000
0001
1000
0001
0000
0010
0000
0010
0000
,  // measure 7
0100
1000
0010
0000
1010
0000
1000
0001
,  // measure 8
0000
0000
0010
0000
0100
0000
1000
0000
0001
0100
0001
0000
1000
0000
1000
0000
,  // measure 9
0100
1000
0010
1000
0100
1000
0001
1000
,  // measure 10
0010
0100
0010
1000
0010
0100
0010
0001
,  // measure 11
0010
0100
0010
1000
0001
0010
0001
1000
,  // measure 12
0001
0100
0001
1000
0001
0010
0001
0100
,  // measure 13
0001
0010
0100
0010
0100
0001
0100
0010
,  // measure 14
0100
1000
0100
0010
0001
0100
1000
0100
,  // measure 15
0002
0000
0000
0000
0203
0000
0000
0310
,  // measure 16
1000
0000
1000
0001
0000
0000
1001
0000
,  // measure 17
0110
0000
1001
0000
0001
0010
0000
0010
,  // measure 18
1000
0000
1010
0000
1000
0010
0001
0000
,  // measure 19
0011
0000
0101
0000
0001
0100
0000
0100
,  // measure 20
1000
0000
1100
0000
0110
0000
0010
0100
,  // measure 21
0001
0000
0101
0000
0001
0010
1000
0010
,  // measure 22
0001
0000
0011
0000
0001
0100
1000
0100
,  // measure 23
0001
0000
1001
0000
1000
0100
0001
0100
,  // measure 24
1000
0000
0000
0000
1100
0000
1000
0000
0001
0000
0000
0000
0100
0001
0100
0001
,  // measure 25
0100
0001
0100
0001
1000
0001
1000
0001
1000
0001
1000
0001
0010
0001
0010
0001
,  // measure 26
0010
0001
0010
0100
1000
0100
1000
0100
1000
0100
1000
0001
1000
0001
1000
0001
,  // measure 27
1000
0001
1000
0001
0100
0001
0100
0001
0100
0001
0100
0010
1000
0010
1000
0010
,  // measure 28
1000
0010
1000
0001
0010
0001
0010
0001
0010
0001
0010
0100
1000
0100
0010
0001
,  // measure 29
1000
0100
0010
0001
1000
0100
0010
0001
0010
0100
1000
0001
0100
0010
1000
0100
,  // measure 30
0010
0001
0100
0010
1000
0010
0100
0001
0010
0100
0010
0001
1000
0010
0100
0001
,  // measure 31
1000
0100
0010
0100
1000
0001
1000
0001
0100
0010
1000
0100
0010
0000
0000
0000
,  // measure 32
0100
1000
0001
1000
0010
0000
0100
0000
0001
0100
0001
0010
0001
0000
0000
0100
,  // measure 33
0010
0000
0000
0010
1000
0000
0000
1000
0100
0000
1000
0000
0001
0000
0100
0000
,  // measure 34
0110
0010
1000
0001
0011
1001
0101
0100
,  // measure 35
0110
0010
1010
1000
0100
0110
0010
0011
,  // measure 36
0001
1000
1001
0001
0101
0000
0101
0100
,  // measure 37
0110
0010
1010
1000
1100
1001
0000
0101
,  // measure 38
0110
0010
1010
0000
1100
1001
0101
0100
,  // measure 39
0001
0000
1001
0000
1100
1000
0010
0100
,  // measure 40
0101
0000
1001
0100
1001
0000
0101
0001
,  // measure 41
0100
0010
1010
1000
1100
0100
1001
0001
,  // measure 42
0101
0100
0110
0000
1010
0010
0110
0101
,  // measure 43
0001
1000
1100
0000
0110
0010
0011
0001
,  // measure 44
0100
0010
1010
0100
1010
0000
1100
0100
,  // measure 45
1001
0001
0100
0010
1010
0100
1001
0101
,  // measure 46
0110
0100
1001
0000
0011
0001
0101
0110
,  // measure 47
1010
1000
1100
0000
1010
0110
0000
0110
,  // measure 48
0101
0000
2002
0000
3003
0000
1000
0100
,  // measure 49
0010
0100
1000
0100
0010
0001
0100
0010
,  // measure 50
1000
0010
0100
0001
0100
0001
1000
0001
,  // measure 51
0010
0001
0100
0010
1000
0001
0010
0001
,  // measure 52
0100
0010
1000
0100
0010
0100
1000
0100
,  // measure 53
0001
0100
1000
0100
0010
0001
0100
0010
,  // measure 54
0100
0001
0100
1000
0100
0001
0100
0010
,  // measure 55
1000
0001
0010
1000
0010
0001
0100
1000
,  // measure 56
0100
0000
0001
0000
1000
0000
0001
0000
0010
0100
1000
0100
0020
0000
0000
0000
,  // measure 57
0032
0000
0203
0000
2300
0100
0000
3100
,  // measure 58
0020
0000
0230
0000
0301
0010
2000
0000
,  // measure 59
3020
0000
0032
0000
2003
0100
0000
3100
,  // measure 60
0002
2003
3020
0032
,  // measure 61
0203
0000
2300
0000
3002
0010
0000
0013
,  // measure 62
0200
0000
0302
0000
0013
1000
0002
0000
,  // measure 63
0203
0000
0320
0000
0032
0100
0000
0103
,  // measure 64
0020
0000
0000
0000
2030
0000
0000
0000
3200
0000
0000
0000
1300
0100
1000
0000
,  // measure 65
0001
0100
0001
0000
1000
0100
1000
0000
1100
0000
0110
0000
0011
0000
0000
0000
,  // measure 66
0000
0000
0000
0000
0000
0000
0000
0000
0000
0000
0000
0000
0001
0100
0001
0000
,  // measure 67
1000
0010
1000
0000
0001
0010
0001
0000
0011
0000
0110
0000
1200
0000
0000
0000
,  // measure 68
2300
0000
3002
0100
0000
0003
0201
0000
,  // measure 69
1000
0000
0010
0000
0301
0010
0000
0011
,  // measure 70
0000
0001
1001
0000
1000
1010
2000
0000
,  // measure 71
0000
3001
0100
0000
0000
0100
1000
0000
,  // measure 72
1000
0010
0000
0000
0000
0000
0000
0000
;
