#TITLE:Madskillz - Mic Chekka;
#SUBTITLE:;
#ARTIST:BT;
#GENRE:Slow Breaks;
#TITLETRANSLIT:;
#SUBTITLETRANSLIT:;
#ARTISTTRANSLIT:;
#CREDIT:;
#BANNER:madskillz.png;
#BACKGROUND:madskillz-bg.png;
#LYRICSPATH:;
#CDTITLE:;
#MUSIC:madskillz.ogg;
#OFFSET:0.000;
#SAMPLESTART:74.831;
#SAMPLELENGTH:11.111;
#SELECTABLE:YES;
#BPMS:0.000=127.000,94.000=130.000;
#STOPS:;
#BGCHANGES:;

//---------------dance-single - Renard----------------
#NOTES:
     dance-single:
     Renard:
     Challenge:
     11:
     0.782,0.866,0.216,0.155,1.000:
0000
0000
0000
0000
,
0000
0000
0000
0000
,
1001
0010
0001
1001
0000
0000
0000
0000
,
1001
0000
0010
0000
1000
0000
1001
0000
0000
0000
0000
1000
0001
0100
0001
0000
,
1000
0000
0000
1000
0100
0000
0000
0100
1000
0010
0100
0000
0001
0000
0000
0001
,
0010
0000
0000
0010
0100
0000
0000
0100
1000
0010
0100
0000
0001
0000
0100
0001
,
0100
0000
0000
0100
0010
0000
0000
0010
1000
0001
1000
0000
0001
0000
0000
0001
,
0100
0000
0000
0100
0010
0000
0000
0010
1000
0000
0001
0100
0010
0000
0100
0010
,
0200
0000
0000
2002
0000
0000
3303
0000
,
1000
0000
0100
0000
0010
0001
0000
0001
0010
0100
1000
0010
0100
0001
0100
0000
,
0020
0000
0000
2002
0000
0000
3033
0000
,
1000
0100
0000
0100
1000
0000
1000
0010
0100
0001
0100
0010
1000
0000
0010
0000
,
1000
0100
1000
0100
0000
0010
0001
0010
0001
0010
0001
0010
0000
0001
1000
0010
,
0100
0001
1000
0100
0010
0001
0010
0100
1000
0010
0100
0001
0000
1001
0000
0000
,
1000
0000
0010
0100
0000
0001
0000
1000
0000
0100
0010
0000
0100
0000
0000
1000
,
0010
0100
0001
0000
0010
0000
0100
0010
0001
0000
0100
0010
0000
0100
0010
0100
,
0010
0000
1000
0100
1000
0000
0010
0000
0100
0000
0001
0000
0010
0000
0001
0000
,
1000
0000
0100
0010
0100
0000
1000
0000
0010
0000
0100
0000
0001
0000
0100
0000
,
1000
0100
0001
0010
1000
0010
0100
1000
,
0010
0000
1000
0000
0010
0000
0001
0000
0010
0000
0000
0000
0100
1000
0000
0000
,
0100
0001
0020
0000
0000
0001
0000
0000
,
0031
0100
0020
0000
0000
1000
0000
0000
,
0130
0001
0020
0000
0000
0001
0000
0031
,
1000
0000
0000
0001
0000
0000
0100
0000
0000
0010
0000
0000
0100
0000
0000
0000
0000
0001
0000
0000
0000
1000
0000
0000
,
0000
0000
0000
0000
0000
0000
0000
0000
0001
0000
0000
0000
0000
0000
0000
0000
0000
0000
0000
0000
0000
0000
0000
0000
0000
0000
0000
0000
0000
0000
0000
0000
0000
0000
0000
0000
0000
0000
0000
0000
1000
0000
0000
0000
0000
0000
0000
0000
0000
0000
0000
0000
0000
0000
0000
0000
0000
0000
0000
0000
0000
0000
0000
0000
0000
0000
0000
0000
0000
0000
0000
0000
0001
0000
0000
0000
0000
0000
0000
0000
0000
0000
0000
0000
0000
0000
0000
0000
0000
0000
0000
0000
0000
0000
0000
0000
0000
0000
0000
0000
0000
0000
0000
0000
1000
0000
0000
0000
0000
0000
0000
0000
0000
0000
0000
0000
0000
0000
0000
0000
0000
0000
0000
0000
0000
0000
0000
0000
0000
0000
0000
0000
0000
0000
0000
0000
0000
0000
0001
0000
0000
0000
0000
0000
0000
0000
0000
0000
0000
0000
0000
0000
0000
0000
0000
0000
0000
0000
0000
0000
0000
0000
0000
0000
0000
0000
0000
0000
1000
0000
0000
0000
0000
0000
0000
0000
0000
0000
0000
0000
0000
0000
0000
0000
0000
0000
0000
0000
0000
0000
0000
0000
,
0000
0000
0000
0000
0000
0000
0001
0000
0000
0000
0000
0000
0000
0000
0000
0000
0000
0000
0000
0000
0000
0000
0000
0000
0000
0000
0000
0000
0000
0000
0000
0000
0000
0000
0000
0000
1000
0000
0000
0000
0000
0000
0000
0000
0000
0000
0000
0000
0000
0000
0000
0000
0000
0000
0000
0000
0000
0000
0000
0000
0000
0000
0000
0000
0001
0000
0000
0000
0000
0000
0000
0000
0000
0000
0000
0000
0000
0000
0000
0000
0000
0000
0000
0000
0000
0000
0000
0000
0000
0000
1000
0000
0000
0000
0000
0000
0000
0000
0000
0000
0000
0000
0000
0000
0000
0000
0000
0000
0000
0000
0000
0000
0000
0000
0001
0000
0000
0000
0000
0000
0000
0000
0000
0000
0000
0000
0000
0000
0000
0000
0000
0000
0000
0000
0000
0000
0000
0000
1000
0000
0000
0000
0000
0000
0000
0000
0000
0000
0000
0000
0000
0000
0000
0000
0000
0000
0001
0000
0000
0000
0000
0000
0000
0000
0000
0000
0000
0000
0000
0000
0000
0000
0000
0000
1000
0000
0000
0000
0000
0000
0000
0000
0000
0000
0000
0000
0000
0000
0000
0000
0000
0000
,
0001
0000
0000
0000
0000
0000
0000
0000
0000
0000
0000
0000
0000
0000
0000
0000
0000
0000
1000
0000
0000
0000
0000
0000
0000
0000
0000
0000
0000
0000
0000
0000
0000
0000
0000
0000
0001
0000
0000
0000
0000
0000
0000
0000
0000
0000
0000
0000
1000
0000
0000
0000
0000
0000
0000
0000
0000
0000
0000
0000
0001
0000
0000
0000
0000
0000
0000
0000
0000
0000
0000
0000
1000
0000
0000
0000
0000
0000
0000
0000
0000
0000
0000
0000
0001
0000
0000
0000
0000
0000
0000
0000
0000
0000
0000
0000
1000
0000
0000
0000
0000
0000
0000
0000
0000
0000
0000
0000
0001
0000
0000
0000
0000
0000
0000
0000
0000
0000
0000
0000
1000
0000
0000
0000
0000
0000
0000
0000
0000
0000
0000
0000
0001
0000
0000
0000
0000
0000
0000
0000
0000
0000
0000
0000
1000
0000
0000
0000
0000
0000
0000
0000
0001
0000
0000
0000
0000
0000
0000
0000
1000
0000
0000
0000
0000
0000
0000
0000
0001
0000
0000
0000
0000
0000
0000
0000
1000
0000
0000
0000
0000
0000
0000
0000
0001
0000
0000
0000
0000
0000
0000
0000
,
1000
0001
1000
0001
1000
0001
1000
0001
1000
0001
1000
0001
1000
0000
0000
0000
0000
0000
1111
0000
0000
0000
0000
0000
,
1000
0000
0100
0000
1010
0000
0100
0001
0010
0001
0100
0000
0101
0000
0001
0100
,
0010
0000
1000
0000
1100
0000
1000
0010
0100
0000
0011
0000
0001
0100
0001
0000
,
0001
0000
0010
0000
0101
0000
0010
1000
0100
1000
0010
0000
1010
0000
1000
0010
,
0100
0000
0001
0000
0011
0000
0001
0100
0010
0000
1100
0000
1000
0000
0010
0000
,
0100
0000
0001
0000
0100
0000
0000
0000
0001
0000
0100
0000
0001
0000
0000
0000
1000
0000
0000
0000
0001
0000
0100
0000
0000
0000
0010
0100
0010
0000
0000
0000
,
1000
0000
0000
0100
0000
0000
1000
0000
0100
0000
1000
0000
0100
0000
0000
1000
0000
0000
0010
0000
0100
0000
0010
0000
0100
0000
0000
0010
0000
0000
0100
0000
0001
0000
0100
0000
0001
0000
0000
0000
0000
0000
0000
0000
0000
0000
0000
0000
,
1001
0000
0000
0000
0100
0000
0000
0000
0101
0000
0000
0000
0001
0000
0100
0000
0010
0000
1000
0000
0100
0000
1000
0000
0100
0000
1000
0001
0100
0000
0000
0000
,
0010
0000
0000
1000
0000
0000
0100
0000
0000
1000
0000
0000
0020
0000
0000
0000
0000
0000
0200
0000
0000
0030
0000
0000
0310
0000
0000
0100
0000
0000
0010
0000
0100
0000
0010
0000
0200
0000
0000
0000
0000
0000
0000
0000
0000
0000
0000
0000
,
0310
0000
0000
0000
1000
0000
0001
0000
0000
0000
0100
0000
0000
0000
0010
0000
0000
0000
1000
0000
0001
0100
0001
0000
1000
0000
0000
0000
0001
0000
0000
0000
,
0100
0000
0000
0000
0010
0100
0010
0000
1000
0000
0001
0000
0000
0000
0100
0000
0000
0000
0010
0000
0000
0000
2000
0000
0002
0000
0000
0000
3003
0000
0000
0000
,
0100
0000
0000
0001
0000
0000
1000
0000
0001
0000
0100
0000
0010
0000
0000
1000
0000
0000
0001
0000
0000
0100
0000
0000
0010
0000
0000
1000
0000
0000
0100
0000
0000
0000
0000
0000
1100
0000
0000
0000
0000
0000
0000
0000
0000
0000
0000
0000
,
1000
0000
0100
0000
0010
0000
0001
0000
1000
0000
0100
0000
0010
0001
1000
0000
0100
0000
0010
0000
0001
0000
0000
0000
1001
0000
0000
0000
0000
0000
0000
0000
,
1000
0100
1000
0100
0010
0001
0010
0001
1000
0010
1000
0010
0100
0001
0100
0001
,
1000
0001
1000
0001
0100
0010
0100
0010
1000
0010
1000
0010
0100
0001
0100
0001
,
1000
0100
0010
0001
0010
0100
1000
0010
0100
0001
0100
0010
1000
0100
0010
0100
,
1000
0001
0010
0100
0010
0001
1000
0100
1000
0001
0010
0100
1000
0010
0100
0001
,
1000
0100
0010
0001
1000
0001
0010
0100
1000
0001
0100
0010
1000
0100
0010
0100
,
1000
0001
0100
0010
0100
0001
0100
0010
1000
0100
0010
0100
1000
0010
0100
0010
,
1000
0001
0100
0010
1000
0001
0100
0010
1000
0010
0100
0001
0100
0010
0100
0001
,
0100
0010
1000
0100
1000
0010
0100
0001
1000
1000
0001
0001
0200
0000
0300
0000
,
1111
0000
0000
0000
;

//---------------dance-single - Renard----------------
#NOTES:
     dance-single:
     Renard:
     Hard:
     9:
     0.504,0.544,0.155,0.041,0.376:
0000
0000
0000
0000
,
0000
0000
0000
0000
,
0000
0000
0000
0000
,
0000
0000
0000
1001
,
1000
0000
0001
0000
0100
0000
0000
0100
0010
0000
1000
0000
0100
0000
0010
0000
,
0001
0000
0010
0000
0100
0000
0000
0100
1000
0000
0010
0000
0100
0000
0001
0000
,
1000
0000
0001
0000
0100
0000
0000
0100
0001
0000
1000
0000
0100
0000
0010
0000
,
0001
0000
1000
0001
1000
0000
0001
0000
1000
0000
0001
1000
0001
0000
0000
0000
,
1000
0000
0000
1000
0010
0000
0100
0000
0000
0000
0000
0000
0001
0000
0000
0000
,
1000
0000
0000
1000
0100
0000
0000
0100
0010
0000
0000
0010
0001
0000
0000
0001
,
1000
0000
0000
1000
0001
0000
0100
0000
0010
0000
1000
0000
0001
0000
1000
0000
,
0001
0000
1000
0100
1000
0000
0001
0100
0001
0000
1000
0000
0100
0000
1000
0000
,
0001
1000
0001
1000
0000
0000
0010
0000
0100
0000
0001
0000
0010
0000
0100
0000
,
1000
0001
1000
0001
0000
0000
0100
0000
0010
0000
1000
0000
0100
0000
0010
0000
,
0001
1000
0001
1000
0000
0000
0001
0000
0010
0000
0100
0000
1000
0000
0010
0000
,
0100
0001
1000
0000
0001
0000
1000
0000
0010
0000
0100
0000
0001
0000
1000
0000
,
0100
0000
0000
0100
0010
0000
0000
0010
0001
0000
0100
0010
0000
1000
0010
0000
,
0100
0000
0001
0000
1000
0000
0100
0000
0010
0000
0001
1000
0000
0001
1000
0000
,
0010
0000
0100
0001
0000
0100
0001
0000
0100
0010
0000
0100
0010
0000
1000
0000
,
0010
0000
1000
0000
0100
0000
0010
0000
0001
0000
0000
0000
2000
0200
0000
0000
,
0011
3300
0000
0000
0000
0000
1000
0000
0000
0000
1000
0000
0010
0000
0000
0000
,
0101
0000
0000
0010
0000
0010
1000
0000
,
0100
0000
0000
0010
0000
0010
0001
0000
,
1000
0000
0000
0000
0001
0000
0000
0000
1001
0000
0000
2002
0000
0000
0000
0000
,
0000
0000
0000
0000
,
0000
0000
0000
0000
,
0000
0000
0000
0000
,
0000
0000
0000
3003
,
1000
0000
0001
0000
0100
0000
0000
0100
0010
0000
1000
0000
0100
0000
0010
0000
,
0001
0000
0010
0000
0100
0000
1000
0000
0010
0000
0100
0001
0100
0000
0001
0000
,
0100
0000
0010
0000
1000
0000
0000
1000
0100
0000
1000
0000
0001
0000
0010
0000
,
0100
0000
1000
0001
1000
0000
0001
1000
0001
0000
1000
0000
0010
1000
0000
0000
,
1001
0000
0000
0000
1010
0000
0000
0000
0101
0000
0000
1001
0000
0000
1100
0000
,
0010
0001
0010
0100
1000
0001
1001
0000
,
1010
0000
0000
0000
0101
0000
0000
0000
1000
0000
1000
0100
0000
0100
1000
0000
,
0010
1000
0001
0100
0001
1000
0001
0000
,
1000
0000
0010
1000
0000
0001
0000
0100
0000
0001
1000
0000
0100
0000
1000
0000
,
0001
0000
0100
0001
1000
0100
0000
1000
0000
0001
0000
1000
0001
0000
0000
0000
,
1000
0010
0100
0001
1000
0100
1000
0000
,
0001
0010
0001
0010
0001
0010
0001
0010
0001
0010
0001
0000
0001
0000
0000
0000
,
1000
0000
0010
0000
0100
0001
0000
0001
1000
0000
0010
0000
0100
0001
0000
0001
,
1000
0000
0010
0000
0100
0001
0000
0001
1000
0000
0010
0000
0101
0000
0000
0000
,
0001
0000
1000
0000
0100
0010
0000
0010
0001
0000
1000
0000
0100
0010
0000
0010
,
0001
0000
1000
0000
0100
0010
0000
0010
0001
1000
0001
1000
0001
0000
1000
0000
,
0010
0000
0100
0000
0001
0000
1000
0001
0000
1000
0001
0000
1000
0000
0001
0000
,
1000
0000
0010
0000
0100
0000
0001
1000
0000
0001
1000
0000
0010
0000
0100
0000
,
0001
1000
0100
0010
0001
1000
0010
0100
,
0001
0100
0010
1000
0100
0001
0100
0000
,
1001
0000
0000
0000
;

//---------------dance-single - Renard----------------
#NOTES:
     dance-single:
     Renard:
     Medium:
     6:
     0.321,0.371,0.082,0.021,0.031:
0000
0000
0000
0000
,
0000
0000
0000
0000
,
0000
0000
0000
0000
,
0000
0000
0000
0000
,
0010
0000
1000
0000
0001
0100
0001
1000
,
0100
0000
1000
0000
0001
0010
0100
0000
,
1000
0000
0010
0000
0100
0001
1000
0001
,
1000
0000
0000
0000
0100
0000
0000
0000
1000
0000
0001
1000
0001
0000
0000
0000
,
1000
0010
0100
0001
,
1000
0000
0000
0000
0100
0000
0000
0100
1000
0000
0010
0000
0100
0000
0001
0000
,
1000
0000
0001
0100
0000
0001
1000
0000
,
0100
1000
0001
1000
0001
0000
1000
0000
,
0001
0100
0000
0010
1000
0100
0000
0010
,
0001
1000
0001
0100
0001
0000
1000
0100
,
1000
0000
0010
0100
0001
0000
0001
1000
,
0100
1000
0010
1000
0001
0100
0001
1000
,
0001
0000
0000
0000
1000
0000
0000
0000
0010
0000
0010
1000
0000
0000
0010
0000
,
0100
0001
0010
0100
1000
0010
0100
0001
,
1000
0001
1000
0001
,
0000
0000
1000
0000
1000
0000
0001
0000
0001
0000
0000
0000
1000
0001
0000
0000
,
1001
0000
0000
0000
,
1001
0000
0000
0000
,
1001
0000
0000
0000
,
1001
0000
0000
0000
0000
0000
0000
0000
1001
0000
0000
2002
0000
0000
0000
0000
,
0000
0000
0000
0000
,
0000
0000
0000
0000
,
0000
0000
0000
0000
,
0000
0000
0000
3003
,
1000
0000
0001
0000
0100
0010
1000
0100
,
0010
0001
0010
0100
1000
0010
0100
0001
,
1000
0000
0001
0000
0100
0010
1000
0010
,
0100
0001
1000
0001
1000
0000
0001
0000
,
1000
0000
0000
0000
1000
0000
0000
0000
0001
0000
0000
0001
0000
0000
0001
0000
,
0100
0010
1000
1100
,
0010
0001
0100
0010
,
1000
0000
0100
0010
0100
1000
0010
0000
,
0100
0100
0001
1000
,
0001
0000
0100
0000
0001
1000
0100
0000
,
1000
0010
0100
0001
1000
0001
0100
0000
,
0001
0001
1000
1000
0001
1000
0001
0000
,
1000
0000
0001
0000
0100
0010
1000
0000
,
0100
0001
1000
0100
,
1000
0000
0010
0000
0100
0001
1000
0000
,
0001
0010
1000
0100
,
0010
0000
1000
0000
0001
1000
0001
0000
,
1000
0100
0010
0001
,
1000
0001
0100
0010
,
1000
0001
1000
0100
1000
0000
0001
0000
,
1001
0000
0000
0000
;

//---------------dance-single - Renard----------------
#NOTES:
     dance-single:
     Renard:
     Easy:
     2:
     0.262,0.322,0.175,0.000,0.000: // measure 1
0000
0000
0000
0000
,  // measure 2
0000
0000
0000
0000
,  // measure 3
0000
0000
0000
0000
,  // measure 4
0000
0000
0000
0000
,  // measure 5
1000
1000
0001
0010
,  // measure 6
0100
0000
1000
0000
0001
0000
0100
0001
,  // measure 7
0100
0100
0010
1000
,  // measure 8
0100
0011
0000
1001
,  // measure 9
0100
0000
0100
0010
0000
0000
1000
0000
,  // measure 10
0001
0001
1000
1000
,  // measure 11
0001
0000
0001
0010
0000
0000
1100
0000
,  // measure 12
1010
0000
0000
1000
0010
0000
1000
0000
,  // measure 13
0010
0000
0000
0100
0001
0000
0000
1000
,  // measure 14
0100
0000
0000
1000
0001
0000
0000
1000
,  // measure 15
0010
0000
0100
0000
0001
0000
0000
0010
,  // measure 16
0001
0010
0100
1000
,  // measure 17
0001
0000
1000
0000
0001
1000
0001
0000
,  // measure 18
1000
0010
0100
0001
,  // measure 19
1000
1000
0001
0001
,  // measure 20
0000
1000
0001
1000
0001
0000
1000
0000
,  // measure 21
1001
0000
0000
0000
0000
0000
0000
0001
,  // measure 22
1000
0000
0000
0000
0000
0000
0000
1000
,  // measure 23
0001
0000
0000
0000
0000
0000
0000
0001
,  // measure 24
1000
0001
1001
1001
,  // measure 25
0000
0000
0000
0000
,  // measure 26
0000
0000
0000
0000
,  // measure 27
0000
0000
0000
0000
,  // measure 28
0000
0000
0000
0000
,  // measure 29
1000
0001
0100
0001
,  // measure 30
1000
0100
0010
0001
,  // measure 31
1000
0010
0100
0001
,  // measure 32
1000
0100
1000
0001
,  // measure 33
1001
1000
0010
0100
,  // measure 34
0001
0000
1000
0000
0100
1000
0100
0000
,  // measure 35
1000
0010
0100
0001
,  // measure 36
1000
0011
0000
1001
,  // measure 37
1010
0100
0001
0010
,  // measure 38
0001
1010
0000
0101
,  // measure 39
1001
0000
0000
1010
0000
0000
0101
0000
,  // measure 40
1000
0000
0001
0000
0100
0000
0001
1000
,  // measure 41
0001
1000
0100
0010
,  // measure 42
0001
0010
0100
1000
,  // measure 43
0001
0100
0010
1000
,  // measure 44
0010
0100
0001
1000
,  // measure 45
0001
0100
0001
1000
,  // measure 46
0100
1000
0100
1000
0100
1000
0100
1000
,  // measure 47
0100
1000
0010
0100
,  // measure 48
0000
0001
1000
0001
1000
0000
0001
0000
,  // measure 49
1001
0000
0000
0000
;
