#TITLE:Macro;
#SUBTITLE:;
#ARTIST:Kitsune²;
#TITLETRANSLIT:;
#SUBTITLETRANSLIT:;
#ARTISTTRANSLIT:;
#CREDIT:;
#BANNER:Macro-bn.png;
#BACKGROUND:macro-bg.jpg;
#LYRICSPATH:;
#CDTITLE:;
#MUSIC:macro.ogg;
#OFFSET:0.000;
#SAMPLESTART:21.316;
#SAMPLELENGTH:11.000;
#SELECTABLE:YES;
#BPMS:0.000=90.074,16.000=180.147,176.000=90.074,208.000=180.147;
#STOPS:;
#BGCHANGES:;
#GENRE:Chiprock;

//---------------dance-single - Renard----------------
#NOTES:
     dance-single:
     Renard:
     Hard:
     8:
     0.692,0.888,0.357,0.238,0.087:
0000
0000
0000
0000
,
0000
0000
0000
0000
,
2000
0000
0000
3001
0200
0000
0320
0000
0230
0000
0302
0000
2003
0000
3200
0000
,
0301
0000
0001
0100
0000
0100
2000
0000
3010
0000
0100
0000
1010
0000
0101
0000
,
2010
0000
0000
3100
0010
0001
0010
0100
,
0120
0000
0130
1000
0010
0100
0001
0000
,
2010
0000
3001
0100
0010
1000
0100
0000
,
2100
0000
0000
3001
0100
0010
1001
0000
,
0102
0000
0000
0013
0100
1000
0100
0010
,
0210
0000
0310
0001
0100
0010
1000
0000
,
0102
0000
1003
0010
0100
0001
0010
0000
,
0012
0000
0000
1003
0010
0100
1001
0000
,
1000
0000
1000
0100
0000
0100
0001
0000
,
0001
0100
0000
0100
0010
0000
0001
0000
,
0010
0000
0010
0100
0000
0100
1000
0000
,
1000
0100
0000
0100
0001
0000
0100
0000
,
1000
0000
1000
0010
0000
0010
0001
0000
,
0001
0010
0000
0010
0100
0000
1000
0000
,
0100
0000
0100
0001
0000
0001
0100
0000
,
0100
0010
0000
0010
1000
0100
0010
0000
,
0001
0010
0001
0010
0000
0010
1000
0000
,
1000
0010
0000
0010
0001
0010
0001
0000
,
0001
0100
0001
0100
0000
0100
1000
0000
,
1000
0100
0000
0100
0001
0100
0001
0000
,
0001
0010
0100
1000
0000
1000
0100
0000
,
0100
1000
0000
1000
0010
0000
0100
0000
,
0001
0100
0010
1000
0000
1000
0100
0010
,
0001
0010
0100
1000
0001
0100
0010
1000
,
0010
0100
0110
0000
1000
0001
0200
0020
,
0300
0000
2030
0000
3010
0100
0001
0100
,
0010
1000
0100
1000
0010
0100
0001
0100
,
0010
1000
0100
0001
0100
1000
0010
0000
,
0100
0010
0110
0000
0001
1000
0020
0200
,
0030
0000
0302
0000
0103
0010
1000
0010
,
0100
0001
0010
0001
0100
0010
1000
0010
,
0100
0001
0010
1000
0010
0001
0100
0000
,
0001
0100
0001
0100
1000
0100
1000
0100
,
0001
0010
0001
0010
1000
0010
1000
0010
,
0001
0100
0010
1000
0100
1000
0001
0100
,
0010
1000
0100
1000
0010
0100
0001
0000
,
1000
0010
1000
0010
0001
0010
0001
0010
,
1000
0100
1000
0100
0001
0100
0001
0100
,
1000
0010
0100
0001
0010
0001
1000
0010
,
0100
0001
0010
0001
0100
0010
1000
0000
,
2002
0000
0003
3001
0100
0000
1010
0000
0101
0000
1010
0000
1100
0000
0011
0000
,
1000
0000
1000
0100
0000
0100
0010
0000
0001
0000
0010
0100
1000
0000
0010
0000
,
0101
0000
0010
1000
0100
0000
0010
0000
0110
0000
1100
0000
0011
0000
1001
0000
,
1000
0000
1000
0010
0000
0010
0100
0000
0001
0000
0100
0010
1000
0000
1001
0000
,
2002
0000
3000
1003
0010
0000
0101
0000
1010
0000
0101
0000
0011
0000
1100
0000
,
0001
0000
0001
0010
0000
0010
0100
0000
1000
0000
0100
0010
0001
0000
0100
0000
,
1010
0000
0100
0001
0010
0000
0100
0000
0110
0000
0011
0000
1100
0000
1001
0000
,
0001
0000
0001
0100
0000
0100
0010
0000
1000
0000
0010
0100
0001
0000
1001
0000
,
1000
0100
1000
0010
1000
0001
1000
0100
,
0001
0100
0010
0001
0100
0001
1000
0001
,
0100
0010
0100
1000
0100
0001
0100
0010
,
1000
0100
0010
0001
0010
1000
0010
0100
,
0010
0001
0100
0001
1000
0001
0010
0001
,
0100
0010
1000
0100
1000
0010
1000
0001
,
0010
1000
0010
0001
0010
0100
0010
1000
,
0010
0001
0100
0010
0100
1000
0100
0001
,
0100
0010
1000
0100
0001
0100
1000
0010
,
0100
0001
0010
1000
0010
0001
0100
0010
,
1000
0100
0010
0100
1000
0001
0010
0001
,
1000
0010
0100
0001
0100
0010
0100
0010
,
1000
0100
0010
0001
1000
0001
0100
0001
,
0100
0010
1000
0100
0010
0001
0010
0001
,
0100
0010
0100
0001
0100
0010
1000
0101
;

//---------------dance-single - BlueChaos----------------
#NOTES:
     dance-single:
     BlueChaos:
     Challenge:
     10:
     0.806,0.985,0.211,0.586,0.389:
0000
0000
0000
0000
,
0000
0000
0000
0000
,
1000
0000
0001
0100
0010
0000
1001
0000
0001
0000
0100
0000
0010
0000
0010
0000
,
1000
0000
0100
0010
0001
0000
0001
0010
0100
0000
1000
0000
0010
0000
0100
0000
,
0001
0100
0001
0000
0100
0000
0001
0000
1000
0000
0100
0000
0010
0000
0001
0000
,
0010
0001
0010
0000
0100
0000
1000
0000
0001
0000
0100
0000
0010
0000
1000
0000
,
0010
1000
0010
0000
1000
0000
0010
0000
0100
0000
0001
0000
0010
0000
0100
0000
,
0010
0100
0010
0000
0100
1000
0100
0000
1000
0001
1000
0000
0001
0100
0001
0000
,
1000
0001
0010
0001
0100
0010
0100
0001
,
1000
0100
0010
0000
0100
0000
0010
0000
0001
0000
1000
0000
0010
0000
0100
0000
,
0001
1000
0100
1000
0001
0100
0001
1000
,
0010
0000
0000
0100
0010
0000
0000
0010
1000
0000
0000
1000
0100
0000
1000
0000
,
0002
0000
0103
0010
0000
1000
0100
0000
,
0010
0001
0000
1000
0010
0000
0200
0000
,
0302
0000
1003
0100
0000
0010
0001
0000
,
1000
0010
0000
0100
0001
0010
0200
0000
,
2300
0000
3001
0100
0000
1000
0100
0000
,
0001
1000
0000
1000
0100
0010
0002
0000
,
0023
0000
0130
0010
0000
0100
1000
0000
,
0001
0100
0000
0010
0100
0001
2000
0000
,
3100
0010
0001
0100
0010
1000
0100
0001
,
0100
0010
0001
0010
0100
1000
0010
0100
,
0010
0001
0010
1000
0100
1000
0010
0001
,
0010
0100
0001
1000
0100
1000
0010
0000
,
1000
0100
0010
0001
0010
1000
0010
0001
,
0100
1000
0100
0010
0001
0010
1000
0100
,
1000
0100
0001
0100
1000
0100
0010
0001
,
1000
0100
1000
0100
0010
0100
0010
0001
0010
0001
1000
0001
0100
0010
1000
0100
,
0020
0000
0000
0000
0002
0030
0000
0000
0103
0010
0100
0000
0001
0000
2200
0000
,
0000
0000
3300
0000
2000
0000
0000
0000
3001
0100
0001
0000
0100
0000
2020
0000
,
0000
3030
0020
0000
0130
0101
0000
1001
,
0000
0000
1100
0000
1000
0010
1000
0010
1000
0000
0001
0000
0010
0000
0100
0000
,
2000
0000
0000
0000
3002
0000
0000
0000
1003
0100
1000
0001
1000
0000
0020
0000
,
0000
0000
0030
0000
1010
0000
1000
0000
0001
0010
0001
0000
0100
0000
0020
0000
,
0000
0000
0030
0000
0101
0000
0001
0000
1000
0100
1000
0000
0010
0000
0200
0000
,
0000
0302
0023
0230
2000
0000
0300
0000
,
3002
0000
0000
0000
2003
0000
0000
0000
3100
0010
0001
0000
1000
0000
0002
0000
,
0000
0000
0000
0000
2003
0000
0000
0000
3010
0100
0010
0100
0001
0000
1000
0000
,
0200
0000
0000
0000
0000
0000
0000
0000
0000
0000
0000
0000
2300
0000
0000
0000
0000
0000
0000
0000
0000
0000
0000
0000
0020
0000
3000
0000
0000
0000
0002
0000
0000
0000
0000
0000
0030
0000
0000
0000
0000
0000
0020
0000
0000
0003
0000
0000
,
0000
0000
0000
2030
0000
0000
0002
3000
0000
0020
0000
0000
0000
0000
0000
0000
0000
0000
0003
0000
0000
0000
0000
0000
,
0230
0000
0000
0000
1300
0010
1000
0000
0001
0100
0001
0000
1000
0000
0001
0000
,
1000
0000
0100
0000
0010
0001
0010
0000
0100
1000
0100
0000
1000
0000
0010
0000
,
0200
0000
0000
0000
0002
0300
0000
0000
2003
0000
0200
0000
3000
0000
0000
0300
,
1000
0100
1000
0001
1000
0010
1000
0001
0100
0010
1000
0001
0010
0001
0100
0010
,
1000
0000
0000
0000
0001
0000
0010
0000
0100
0000
0000
0000
0110
0000
0000
0000
0200
0000
0000
0000
1000
0000
0300
0000
1000
0100
1000
0100
1000
0000
0000
0000
,
1001
0000
1000
0100
0010
0000
0100
0000
2200
0000
0000
0000
0011
0000
3300
0000
,
0100
0000
0000
0000
1000
0000
0100
0000
0001
0000
0000
0000
0100
0000
0000
0000
0010
0000
0000
0000
0001
0000
0000
0000
0010
0001
0010
0001
0010
0000
0000
0000
,
1001
0000
0000
0000
0001
0000
0100
0000
1000
0000
0000
0000
1000
0000
0100
0000
0002
0000
0000
0000
0020
0003
0000
0000
0200
0030
0000
0000
2000
0300
0000
0000
,
3001
0000
0100
0001
1000
0000
0100
0000
1100
0000
0110
0000
0011
0000
1001
0000
,
0002
0000
1003
0010
0100
0000
0001
0000
0202
0000
0000
0000
1010
0000
0303
0000
,
0100
0000
0000
0000
0001
0000
0100
0000
1000
0000
0000
0000
0100
0000
0000
0000
0002
0000
0000
0000
2000
0003
0000
0000
0200
3000
0000
0000
0020
0300
0000
0000
,
0031
0000
0000
0000
1000
0000
0100
0000
0001
0000
0000
0000
0001
0000
0100
0000
1000
0000
0001
0000
1000
0000
0001
0000
1000
0100
0010
0001
0010
0100
1000
0010
,
0100
0001
1000
0100
0010
0100
2000
0000
,
3001
0100
0010
0000
0100
0010
1000
0000
0010
1000
0010
1000
0020
0000
0000
0000
,
0130
0001
0010
1000
0010
0001
0100
1000
,
0100
0001
0101
0000
1000
0100
1100
0000
,
0001
0010
0100
1000
0001
0100
0010
1000
,
0100
1000
0001
0000
1000
0001
0100
0000
0001
0100
0001
0100
0002
0000
0000
0000
,
1003
0010
0100
0010
0001
0010
1000
0010
,
0200
0001
0301
1000
0200
1000
1300
0010
,
0100
0001
0010
0100
0010
0001
1000
0010
,
0100
0001
1000
0000
0001
0010
0100
0000
1000
0001
1000
0001
2000
0000
0000
0000
,
3001
0100
0001
0100
1000
0100
1000
0100
,
0001
0010
0011
0000
0010
0100
0110
0000
,
0010
0001
1000
0001
0010
1000
0010
0001
,
0010
0001
1000
0000
0001
0100
0010
0000
0100
0010
0100
0010
0200
0000
0000
0000
,
0301
0100
0010
1000
0100
1000
0100
0020
,
0000
0030
0000
0000
;

//---------------dance-single - Renard----------------
#NOTES:
     dance-single:
     Renard:
     Medium:
     6:
     0.354,0.520,0.046,0.027,0.000:
0000
0000
0000
0000
,
0000
0000
0000
0000
,
0010
0000
0010
0010
0001
0100
0010
1000
,
0100
0000
0100
0000
1000
0010
0100
0001
,
0100
0000
0000
0100
0001
1000
0000
0100
,
0000
0010
0001
0010
,
0100
0000
0100
1000
0000
0000
0010
0000
,
0200
0000
0000
0000
,
0310
0000
0000
0010
1000
0000
0010
0000
,
0100
0001
0010
0100
,
1000
0000
1000
0001
0000
0000
0100
0000
,
0010
0000
1000
0010
1000
0000
0010
0000
,
0100
0000
0100
0001
0000
0001
1000
0000
,
0100
0010
0001
0000
,
0010
0000
0010
0100
0000
0100
1000
0000
,
0010
0100
0001
0000
,
1000
0000
1000
0001
0000
0001
0100
0000
,
0001
1000
0100
0000
,
0010
0000
0010
0001
0000
0001
1000
0000
,
0010
0100
0001
0000
,
1000
0000
0001
1000
0000
0001
1000
0000
,
0001
0001
1000
0000
,
0001
0000
1000
0001
0000
1000
0001
0000
,
1000
1000
0001
0000
,
0100
0000
0100
0010
0000
0010
0100
0000
,
0010
0100
0010
0000
,
1000
0000
1000
0010
0000
0010
1000
0000
,
0010
1000
0010
0000
,
0000
0100
0001
1000
,
0000
0100
0010
0001
,
0000
0000
1000
0000
0010
0000
0000
0100
,
0000
0001
1000
0100
,
0010
0001
0010
0100
,
0000
1000
0010
0100
,
0000
0000
0001
0000
0100
0000
0000
0010
,
0000
1000
0100
0000
,
0010
0001
0010
0100
,
1000
0100
0010
0001
,
1000
0010
0100
0001
,
1000
0001
1000
0000
0001
1000
0001
0000
,
1000
1000
0010
0010
,
0100
0100
0001
0001
,
1000
0100
0010
0001
,
1000
0000
0001
0000
,
1000
0000
0001
0100
0010
1000
0100
0010
,
0002
0000
0203
0000
,
0310
0000
0010
1000
0100
0010
0100
1000
,
0010
0010
0100
0100
,
1001
0000
0010
0100
0010
0100
0010
0100
,
1001
0000
0100
0010
0100
0000
0000
0000
,
0110
0000
1000
0001
1000
0001
1000
0001
,
0110
0000
1000
0001
1000
1000
0001
0001
,
1000
0000
0000
0100
0010
0000
0001
0000
,
0010
0100
1000
0010
,
0100
0000
0100
0001
0000
0000
0001
0000
,
1000
0000
0000
0000
,
0100
0000
0000
0100
0010
0000
0001
0000
,
0010
0100
1000
0010
,
0100
0000
0100
0001
0000
0000
1000
0000
,
0100
0010
0001
1000
,
0010
0000
0000
0010
0100
0000
0001
0000
,
1000
0100
1000
0001
,
0010
0000
0000
0011
0000
0000
0100
0000
,
0010
0000
1000
0000
,
0010
0000
0000
0010
0100
0000
0001
0000
,
0100
0010
1000
0100
,
0010
0000
0001
0010
0000
0000
0100
1000
;

//---------------dance-single - Renard----------------
#NOTES:
     dance-single:
     Renard:
     Easy:
     3:
     0.354,0.521,0.375,0.027,0.000: // measure 1
0000
0000
0000
0000
,  // measure 2
0000
0000
0000
0000
,  // measure 3
0100
0100
1100
0110
,  // measure 4
0011
0010
0001
0110
,  // measure 5
1010
0000
1010
0001
,  // measure 6
0010
0100
1000
0100
,  // measure 7
0010
0010
0001
0100
,  // measure 8
0020
0000
0000
0000
,  // measure 9
0130
0000
0101
0100
,  // measure 10
0010
1000
0100
0010
,  // measure 11
0001
0001
1000
0010
,  // measure 12
0100
0001
0101
0100
,  // measure 13
0010
0010
1000
1001
,  // measure 14
0010
0100
1000
0000
,  // measure 15
0100
0100
0010
0011
,  // measure 16
0100
0010
1000
0000
,  // measure 17
0001
0001
1000
1010
,  // measure 18
1000
0001
0010
0000
,  // measure 19
0100
0100
1000
1001
,  // measure 20
0100
0010
1000
0000
,  // measure 21
0001
1000
0001
1001
,  // measure 22
1000
1000
0001
0000
,  // measure 23
1000
0001
1000
1001
,  // measure 24
0001
0001
1000
0000
,  // measure 25
0010
0010
0100
0110
,  // measure 26
0100
0010
0100
0000
,  // measure 27
0001
0001
0100
0101
,  // measure 28
0100
0001
0100
0000
,  // measure 29
0000
0010
1000
0001
,  // measure 30
0000
0010
0100
1000
,  // measure 31
0000
0001
0100
0000
,  // measure 32
0010
1000
0001
0010
,  // measure 33
0100
1000
0100
0010
,  // measure 34
0000
0001
0100
0010
,  // measure 35
0000
1000
0010
0000
,  // measure 36
0100
0001
0010
0000
,  // measure 37
0100
1000
0100
0010
,  // measure 38
0001
0010
0100
1000
,  // measure 39
0001
0100
0010
1000
,  // measure 40
0001
1001
1000
1001
,  // measure 41
0001
0001
0100
0100
,  // measure 42
0010
0010
1000
1000
,  // measure 43
0001
0010
0100
1000
,  // measure 44
0001
0000
1000
0000
,  // measure 45
0001
1000
0110
0011
,  // measure 46
2100
0000
3020
0000
,  // measure 47
0130
0100
0011
0110
,  // measure 48
0101
0100
0010
0010
,  // measure 49
1001
0100
0110
0110
,  // measure 50
1011
0010
0110
0000
,  // measure 51
0110
0001
1001
1001
,  // measure 52
1110
0001
1001
1001
,  // measure 53
1001
0000
0110
1000
,  // measure 54
0100
0010
0001
0100
,  // measure 55
0010
0010
1000
1000
,  // measure 56
0001
0000
0000
0000
,  // measure 57
0010
0000
0110
1000
,  // measure 58
0100
0010
0001
0100
,  // measure 59
0010
0010
1000
0001
,  // measure 60
0010
0100
1000
0001
,  // measure 61
0100
0000
0110
1000
,  // measure 62
0001
0010
0001
1000
,  // measure 63
0100
0000
1100
0010
,  // measure 64
0100
0000
0001
0000
,  // measure 65
0100
0000
0110
1000
,  // measure 66
0010
0100
0001
0010
,  // measure 67
0100
1000
0100
0010
,  // measure 68
0001
0000
0000
0000
;
