#TITLE:MR-707;
#SUBTITLE:;
#ARTIST:E-Lect;
#TITLETRANSLIT:;
#SUBTITLETRANSLIT:;
#ARTISTTRANSLIT:;
#CREDIT:;
#BANNER:mr-707.png;
#BACKGROUND:MR-707-bg.png;
#LYRICSPATH:;
#CDTITLE:;
#MUSIC:mr-707.ogg;
#OFFSET:0.000;
#SAMPLESTART:54.837;
#SAMPLELENGTH:12.000;
#SELECTABLE:YES;
#BPMS:0.000=70.000,40.000=140.000,152.000=70.000;
#STOPS:;
#BGCHANGES:;
#GENRE:Trancepop;

//---------------dance-single - BlueChaos----------------
#NOTES:
     dance-single:
     BlueChaos:
     Hard:
     9:
     0.593,0.637,0.131,0.332,0.583:
0000
0000
0000
0000
,
1000
0100
0010
0002
0000
0203
0000
0020
0300
0000
0030
0000
0000
0000
0000
0000
,
1000
0010
0100
0002
0000
2003
0000
0200
3000
0000
0300
0000
0000
0000
0000
0000
,
1000
0001
0010
0200
0000
2300
0000
0002
3000
0000
2003
0000
3010
0000
0100
0001
,
0010
0100
1000
0100
1000
0000
0100
1000
0000
0100
1000
0000
0100
1000
0010
0000
,
1000
0010
1000
0020
0000
0230
0000
0002
0300
0000
1003
0000
0100
0000
0010
0000
,
0001
0100
0010
0100
0001
0000
0100
0001
0000
0100
0001
0000
0100
0001
1000
0000
,
0001
0010
0001
0200
0000
0320
0000
2000
0030
0000
3001
0000
0100
0000
0010
0000
,
2002
0000
0000
0000
,
0000
0000
0000
3003
,
1000
0000
0001
0100
0001
0000
1000
0100
1000
0000
0001
0010
0001
0000
1000
0010
,
1000
0000
0001
0100
0010
0000
0100
0001
1000
0000
0001
0010
0100
0000
0010
0000
,
0100
0000
1000
0100
0010
0000
0100
1000
0001
0000
1000
0001
0100
0000
0001
0100
,
0010
0000
0100
0001
1000
0000
0001
0010
0100
0000
1000
0000
0001
0100
0001
0100
,
0001
1000
0100
0010
0001
0010
0001
0100
,
0001
0100
0010
1000
0010
1000
0001
1000
,
0001
0100
1000
0100
0001
0000
0001
0101
,
0000
0000
1001
0000
0000
0011
0000
0000
0101
0000
0000
0110
0000
0000
1010
0000
,
1000
0000
0010
0000
0100
0000
0001
0000
1000
0000
0100
0000
0010
0000
0001
0100
,
0000
0000
0001
0000
1000
0000
0100
0000
0010
0000
0001
0000
0100
0000
0010
1000
,
0000
0000
0010
0000
1000
0000
0001
0000
0100
0000
0010
0000
1000
0000
0001
0010
,
0000
0100
1000
0100
0010
0100
1000
0001
,
1000
0000
0001
0100
0010
0000
0100
0001
0010
0000
0001
0010
0100
0000
0010
0100
,
1000
0000
0100
1000
0010
0000
1000
0001
0100
0000
0001
0010
0100
0000
0010
0001
,
0000
0000
0010
0001
0100
0000
0001
1000
0000
0010
0000
0100
0001
0000
1000
0100
,
0000
0000
1000
0000
0010
1000
0000
1000
0100
0000
0010
0000
0001
0000
1000
0000
,
0010
1000
0010
1000
0001
0000
1000
0000
0100
0000
0010
0000
0100
0000
1000
0000
,
0001
0100
0001
0100
0010
0000
0100
0000
0001
0000
0010
0000
0100
0000
1000
0010
,
0000
0000
1000
0100
0010
0000
0100
0010
0000
0100
1000
0000
0100
0000
1000
0010
,
0000
0000
0100
0001
1000
0000
0001
0000
0010
0000
0001
0000
0100
0000
0001
1000
,
0001
1000
0100
0010
0001
0010
0001
0100
,
0010
0000
0100
0000
0001
0000
1000
0000
0100
0000
0000
1000
0100
0000
1000
0000
,
1001
0000
0000
0001
0100
0000
0010
0000
0110
0000
0000
0100
0001
0000
1000
0000
,
1100
0000
1000
0000
0001
0000
0100
0000
0010
1000
0000
1000
0100
0000
1000
0000
,
0010
1000
0010
0000
1000
0000
0100
0000
0010
0001
0010
0000
0001
0000
0100
0000
,
0001
0100
0001
0000
0100
0000
0010
0000
1000
0001
1000
0000
0001
0100
0000
0100
,
0010
0000
1000
0000
0100
0000
0010
0001
0000
1000
0000
0010
1000
0000
0100
0010
,
0000
0001
0100
0000
0001
0000
1000
0000
0100
0000
1000
0000
0010
0000
0100
0000
,
0010
1000
0100
0020
0000
0032
0000
2003
0000
0000
3010
0100
0101
0000
0000
0000
,
0001
0100
0010
2000
0000
3020
0000
0230
0000
0000
0301
1000
0100
1000
0010
0000
,
1000
0100
0010
0002
0000
0203
0000
0320
0000
0000
1030
0100
1100
0000
0000
0000
,
1000
0001
0100
0020
0000
2030
0000
3200
0000
0000
0310
0001
0100
0020
0000
0130
,
2002
3003
0000
0000
;

//---------------dance-single - Renard----------------
#NOTES:
     dance-single:
     Renard:
     Medium:
     6:
     0.341,0.359,0.272,0.111,0.000:
0000
0000
0000
0000
,
0000
0000
0000
0000
,
2000
0000
3200
0000
,
1300
1000
0010
0000
,
0100
0001
0100
0000
0010
1000
0010
0000
,
0100
0001
0100
0010
1000
0100
0010
0001
,
0010
0000
0100
1000
0010
0000
0100
0000
,
1001
0000
0100
0010
0110
0000
1010
0000
,
0001
0000
0100
0000
0010
0010
1000
0000
,
0100
0100
0010
0000
,
1000
0000
0010
0000
0100
0001
0100
0000
,
0010
0000
1000
0000
0000
0100
0010
0000
,
0001
0010
0100
1000
,
0010
0000
0100
0000
0001
1000
0001
0000
,
1000
0000
0010
0000
0100
0000
0001
0100
,
0010
0000
1000
0010
0100
0000
0001
1000
,
0100
0000
0100
1000
0001
0000
0010
0000
,
0001
0000
1000
0000
0001
1000
0001
0000
,
1000
0000
1000
0010
1000
0010
1000
0010
,
1000
0000
0000
0000
0000
0000
1000
0010
,
0100
0000
0100
0001
0100
0001
0100
0000
,
0001
0000
0100
0001
0100
0000
0001
0000
,
1000
0000
1100
0000
0100
0010
0001
0100
,
0000
0101
0000
1010
0000
1001
0000
1100
,
0000
0010
0001
0100
0001
1000
0100
0010
,
0001
1000
0010
0010
0100
0100
0001
0000
,
1000
0000
1001
0000
1000
0010
0000
1001
,
0000
1100
0000
1010
0000
1001
0000
1100
,
0000
1000
0100
0000
0010
0001
0100
0000
,
0010
1000
0001
1000
0001
0000
1000
0000
,
0001
0110
0001
0110
,
1000
0110
1000
0110
,
0100
1001
0010
1001
,
0100
1001
0010
1001
,
1000
0100
0010
0000
0001
0010
0100
0000
,
1000
0010
0100
0000
0001
0010
0100
0000
,
0001
0011
1000
1100
,
0010
1001
0100
1001
,
2000
0000
3020
0000
0130
0100
0002
0000
,
0023
0000
0230
0000
1300
1000
0010
0010
,
0200
0000
0301
0000
0010
0010
0200
0000
,
1300
0000
0010
0000
0100
0200
0302
0003
,
1001
0000
0000
0000
;

//---------------dance-single - Renard----------------
#NOTES:
     dance-single:
     Renard:
     Easy:
     2:
     0.198,0.232,0.030,0.040,0.000: // measure 1
0000
0000
0000
0000
,  // measure 2
0000
0000
0000
0000
,  // measure 3
1000
0000
0010
0000
0100
0100
0010
0000
,  // measure 4
1000
0000
0001
0000
0010
0010
0100
0000
,  // measure 5
1000
2000
0010
0010
,  // measure 6
0001
0001
0200
3300
,  // measure 7
0001
0002
0010
0010
,  // measure 8
1000
1000
0200
0303
,  // measure 9
1000
0000
0001
0000
,  // measure 10
0100
0000
0010
0000
,  // measure 11
1001
0000
1000
0010
,  // measure 12
0100
0000
0001
0000
,  // measure 13
0010
0000
0100
1000
,  // measure 14
0010
0000
0100
0001
,  // measure 15
1000
0000
1000
0001
,  // measure 16
0100
0000
0100
0001
,  // measure 17
1000
0000
0001
0000
,  // measure 18
0010
0001
1000
0010
,  // measure 19
1000
0000
1000
0000
,  // measure 20
0001
0000
0001
0000
,  // measure 21
1000
1000
0001
0001
,  // measure 22
0010
0001
1000
0010
,  // measure 23
1001
0000
1000
0000
,  // measure 24
0010
0100
0001
0000
,  // measure 25
1000
0000
0100
0000
,  // measure 26
0010
0000
0001
0100
,  // measure 27
0010
0000
0000
0000
1000
0100
0000
0010
,  // measure 28
0000
0001
0000
0010
0000
0100
0000
1000
,  // measure 29
0000
0001
0000
0100
,  // measure 30
0000
0010
1000
0100
,  // measure 31
0010
0000
0001
1000
,  // measure 32
0010
0000
0100
0000
,  // measure 33
0001
1000
0100
0000
,  // measure 34
0010
0001
1000
0001
,  // measure 35
0100
0000
0000
0000
0010
1000
0000
0010
,  // measure 36
0000
0100
0000
0001
0000
1000
0000
0100
,  // measure 37
0000
0010
0000
0001
,  // measure 38
1000
0001
0100
0010
,  // measure 39
1000
1000
0010
0010
,  // measure 40
0100
0000
0100
0000
0001
0001
0001
0000
,  // measure 41
1000
1000
0100
0100
,  // measure 42
0010
0000
0010
0000
0001
1000
0001
0000
,  // measure 43
1001
0000
0000
0000
;
