#TITLE:M.A.G.I.C Speed Ball;
#SUBTITLE:;
#ARTIST:Teranoid + MC Natsack feat Good-Cool;
#GENRE:Speedcore;
#TITLETRANSLIT:;
#SUBTITLETRANSLIT:;
#ARTISTTRANSLIT:;
#CREDIT:;
#BANNER:ball.png;
#BACKGROUND:ball-bg.png;
#LYRICSPATH:;
#CDTITLE:;
#MUSIC:ball.ogg;
#OFFSET:-0.000;
#SAMPLESTART:19.800;
#SAMPLELENGTH:12.000;
#SELECTABLE:YES;
#BPMS:0.000=150.000,48.000=300.000,228.000=299.200,232.000=299.820,232.500=311.440,234.000=302.240,236.000=304.700,237.000=312.100,238.000=316.280,239.000=321.520,240.000=331.340,241.000=349.740,242.000=348.520,243.000=348.699,244.000=346.880,246.000=348.700,248.000=349.520,249.000=350.320,250.000=351.520,251.000=354.100,252.000=355.920,253.000=352.920,256.000=358.140,260.000=365.180,261.000=373.980,262.000=377.600,263.000=390.400,264.000=407.199,265.000=411.999,266.000=412.619,279.000=415.860,280.000=423.059,281.000=423.859,282.000=429.880,283.000=437.079,284.000=445.879,285.000=453.879,291.000=462.299,292.000=474.299,293.000=487.099,300.000=494.719,301.000=511.139,302.000=529.538,304.000=539.558,305.000=549.158,307.000=571.178,314.000=579.638,318.000=599.258,321.000=616.478,322.000=622.878,324.000=633.698,325.000=643.298,326.000=657.698,327.000=672.097,328.000=696.097,329.000=703.297,331.000=732.517,332.000=761.316,333.000=790.116,334.000=811.715,335.000=818.115,336.000=824.935,337.000=844.935,338.000=861.735,339.000=881.734,340.000=895.334,341.000=925.354,342.000=950.154,343.000=957.354,345.000=967.374,349.000=975.373,353.000=984.973,357.000=996.173,361.000=1004.973,365.000=1016.973,369.000=1028.173,373.000=1038.574,377.000=1048.174,381.000=1059.375,385.000=1074.576,389.000=1088.177,393.000=1098.577,397.000=1108.978,401.000=1110.998,404.000=1132.819,408.000=1163.641,412.000=1112.018,413.000=1119.719,440.000=300.004,534.000=599.997,598.000=300.004;
#STOPS:48.000=0.800
,496.000=0.185
,497.000=0.185
;
#BGCHANGES:;

//---------------dance-single - Renard----------------
#NOTES:
     dance-single:
     Renard:
     Challenge:
     14:
     1.000,1.000,0.784,0.019,0.350:
0000
0000
0000
0000
,
0000
0000
0000
0000
,
0000
0000
0000
0000
,
1100
0011
0101
1010
,
0001
0100
0010
1000
0010
0100
0001
1000
0100
0010
0001
0010
0000
0000
1001
0000
,
1000
0100
0010
0001
0010
0100
1000
0010
0100
0001
1000
0001
0000
0000
0110
0000
,
1000
0010
0100
0001
0100
0010
1000
0100
0010
0001
0010
0100
0000
0000
1001
0000
,
0010
1000
0100
1000
0001
0010
0001
1000
0100
0010
0001
1000
0000
0000
1001
0000
,
1100
0000
0100
1000
0010
0100
0001
0010
0001
0100
0010
1000
0000
1000
0010
0000
,
1010
0000
0100
0001
0010
0100
1000
0001
1000
0100
0010
0001
0000
0001
0100
0000
,
1010
0000
0010
0100
0001
0010
0100
0000
0110
0000
0100
1000
0010
0100
0001
0000
,
1001
0000
0100
0000
1010
0000
0100
0000
0001
0010
0001
0100
0010
1000
0100
0010
,
0001
0000
0000
0000
0000
0000
1000
0001
1000
0001
1000
0001
,
1000
0100
1000
0010
0100
0001
0010
0001
,
0100
0010
1000
0100
0000
0100
1000
0010
,
0100
0001
0010
0100
1000
0100
0010
0001
,
1000
0001
0100
0010
0000
0010
1000
0010
,
0100
0001
0010
0100
1000
0100
1000
0001
,
0010
0001
0100
0010
0000
0010
1000
0000
,
0100
0010
0001
0010
0100
1000
0100
1000
,
1100
1100
0000
1010
0000
1001
0000
0101
,
1001
0000
0001
0100
0010
1000
0100
1000
,
0010
0100
0001
0010
0000
0010
0001
0100
,
0010
1000
0100
1000
0001
0010
0001
1000
,
0100
1000
0010
0100
0000
0100
0001
0100
,
0010
1000
0100
0010
0001
0010
0100
1000
,
0001
0100
0001
1000
0000
1000
0100
1000
,
1100
0000
0000
1000
0100
0000
0100
1000
,
1100
0000
0010
0001
0000
0001
0100
0001
,
0100
0010
1000
0100
1000
0001
0010
0001
,
0100
0010
1000
0001
0000
0001
1000
0000
,
0001
0000
1000
0000
0001
0000
0001
0000
1000
0000
0000
1000
0000
0000
1000
0000
,
0010
0000
0000
1000
0000
0000
0010
0000
1000
0000
0010
0000
0100
0000
0000
0001
0000
0000
1000
0000
0000
0100
0000
0000
,
1100
0000
0010
0001
0100
0010
1000
0100
,
1000
0001
1000
0001
0000
0001
0100
0000
,
0010
1000
0000
0101
0000
1010
0000
1000
,
0011
0000
0010
1100
0000
1001
0000
1000
,
1001
0000
0001
0100
0001
1000
0100
0010
,
0001
1000
0100
1000
0000
1000
0001
0000
,
1000
0100
0010
0000
0001
0010
0100
0000
,
1000
0000
0000
0001
0000
0000
1000
0000
0000
0000
0000
0000
0001
0000
0010
0000
0100
0000
1000
0000
0100
0000
0010
0000
,
0001
0000
0010
0100
1000
0010
0100
0001
,
1000
0001
0100
0001
0000
0001
1000
0000
,
0011
0000
0000
0001
0101
0000
1000
0010
,
1010
0000
0100
0001
2002
0000
0000
3000
,
1003
0100
0010
0001
0010
0100
1000
0010
,
0100
0001
1000
0100
1000
0001
0010
0001
,
1000
0100
1000
0001
0010
0100
1000
0010
,
0100
0001
0010
0100
1000
0100
1000
0000
,
0001
0010
0100
1000
0010
0100
0001
0100
,
0010
1000
0100
1000
0001
0010
0001
0100
,
0010
0000
0000
1000
0010
0000
0100
0001
,
0100
0000
0010
1000
0000
0001
0100
0001
,
1001
0000
0000
0000
,
0000
0000
0000
0000
,
1100
0000
0011
0000
,
0101
0000
1010
0000
,
1000
0001
1000
0001
,
1000
0001
1000
0001
,
1000
0001
1000
0001
,
1000
0001
1000
0001
,
1000
0001
1000
0001
,
1000
0001
1000
0001
,
1000
0000
0001
0000
1001
0000
1000
0001
,
1001
0000
0110
0000
,
1001
0001
1000
0001
,
1000
0001
1000
0001
,
1000
0001
1000
0001
,
1000
0001
1000
0001
,
1000
0001
1000
0001
,
1000
0001
1000
0001
,
1001
0000
1001
0000
,
0001
0001
1000
1000
,
0001
1000
0001
1000
,
0001
1000
0001
1000
,
0001
1000
0001
1000
,
0001
1000
0001
1000
,
0001
1000
0001
1000
,
0001
1000
0001
1000
,
0001
1000
0001
1000
,
0001
1000
0001
1000
,
0001
1000
0001
1000
,
0001
1000
0001
1000
,
0001
1000
0001
1000
,
0001
1000
0001
1000
,
0001
1000
0001
1000
,
0001
1000
0001
1000
,
0001
1000
0001
1000
,
0001
1000
0001
1000
,
0001
1000
0001
1000
,
0001
1000
0001
1000
,
0001
1000
0001
1000
,
0001
1000
0001
1000
,
0001
1000
0001
1000
,
0001
1000
0001
1000
,
0001
1000
0001
1000
,
0001
1000
0001
1000
,
0001
1000
0001
1000
,
0001
1000
0001
1000
,
0001
1000
0001
1000
,
0001
1000
0001
1000
,
0001
1000
0001
1000
,
0001
1000
0001
1000
,
0001
1000
0001
1000
,
0001
1000
0001
1000
,
0001
1000
0001
1000
,
0001
1000
0001
1000
,
0001
1000
0001
1000
,
0001
1000
0001
1000
,
0001
1000
0001
1000
,
0001
0000
0010
0100
1000
0100
0010
0001
,
1000
0001
1000
0001
1000
0000
1001
0000
,
1000
0000
0100
0010
0001
0010
0100
1000
,
0010
0100
0001
1000
0001
0000
1001
0000
,
1000
0000
0100
1000
0001
0010
0001
0100
,
0010
1000
0100
1000
0001
0000
1001
0000
,
0001
0100
0001
0000
1000
0100
1000
0000
,
0001
0000
0110
0000
1000
1000
0110
0000
,
1010
0000
0100
0001
0000
0001
0100
0000
,
0100
0010
0000
0010
1000
0100
0010
0001
,
1001
0000
0001
0100
0000
0100
0010
0000
,
0010
0000
0000
1000
0000
0000
0000
0000
0000
1000
0000
0000
0001
0000
0010
0000
0100
0000
1000
0000
0100
0000
0010
0000
,
0001
0000
0000
0000
,
0000
0000
0000
0000
,
1100
0000
0011
0000
1000
0100
0010
0001
,
0010
0100
1000
0001
1100
0000
1010
0000
,
1100
1001
1001
1100
,
1010
1100
1001
1001
,
1100
1010
0101
0110
,
1100
0110
0101
0101
,
0011
0110
1100
0110
,
1100
0000
1100
0000
0011
0000
0000
1000
,
0100
0000
1000
0001
0100
0000
0001
1000
,
0000
0100
0010
0001
1000
0000
0100
0000
,
0010
0001
1000
0100
,
1000
0001
0010
0001
,
0100
0010
1000
0001
,
1000
0100
1000
0000
0001
0000
0100
0000
,
0010
1000
0100
1000
,
0001
0010
0001
0100
,
0001
0000
1000
0100
1000
0000
0001
0010
,
0001
1000
0001
0010
,
0100
1000
0100
0010
,
0001
1000
0100
0010
,
0001
0010
0100
1000
,
0001
0000
0000
0010
0000
0000
0100
0000
1000
0000
0100
0000
,
0010
0000
0001
0000
1000
0000
0100
0000
0010
0000
0001
0000
,
0010
0000
0100
0000
1000
0000
0001
0000
0010
0000
0100
0000
,
1000
0000
0100
0000
0010
0000
0001
0000
0010
0000
0100
0000
,
1000
0000
0001
0000
1000
0000
1001
0000
0000
0000
0000
0000
,
0000
0000
0000
0000
,
0000
0000
1100
0000
,
1010
0000
0101
0000
,
0011
0000
1111
0000
;
