#TITLE:Look @ the Heaven;
#SUBTITLE:;
#ARTIST:Yoji Biomehanika;
#GENRE:Hardtrance;
#TITLETRANSLIT:;
#SUBTITLETRANSLIT:;
#ARTISTTRANSLIT:;
#CREDIT:;
#BANNER:LOOK AT THE HEAVEN.png;
#BACKGROUND:LOOK AT THE HEAVEN-bg.png;
#LYRICSPATH:;
#CDTITLE:;
#MUSIC:LOOK AT THE HEAVEN.ogg;
#OFFSET:0.000;
#SAMPLESTART:76.056;
#SAMPLELENGTH:12.000;
#SELECTABLE:YES;
#BPMS:0.000=142.000;
#STOPS:72.000=4.225
,140.000=2.113
,143.000=2.113
,146.000=2.113
,149.000=0.423
;
#BGCHANGES:;

//---------------dance-single - Renard----------------
#NOTES:
     dance-single:
     Renard:
     Hard:
     9:
     0.564,0.586,0.102,0.222,0.619:
0000
0000
0000
0000
,
0000
0000
0000
0000
,
0000
0000
0000
0000
,
0000
0000
0000
0000
,
1000
0010
1000
0010
1000
0010
0010
0100
,
0001
0010
0001
0010
0100
1000
0100
1000
,
0001
0100
0001
0010
0100
1000
0001
0010
,
0001
0010
0001
0010
0100
1000
0010
0100
,
1010
0100
0001
0010
0001
0100
0010
1000
,
0100
0010
0001
0100
0010
0100
0010
0000
,
1001
0100
0010
1000
0100
1000
0001
0010
,
0001
0100
0010
1000
0100
0010
0100
0000
,
0011
0100
1000
0010
0100
0001
0100
0000
,
1010
0100
0001
0010
0001
0000
0100
0000
,
1010
0000
0100
0001
0011
0000
0100
1000
,
1010
0000
0000
0000
0100
0000
0001
0000
0010
0001
0010
0001
0010
0000
0001
0000
,
1000
0100
0010
0001
1000
0100
0010
0001
1000
0100
0010
0001
,
1000
0002
0000
0100
0000
0203
0002
0303
,
2002
0000
0000
3003
0000
0000
0000
0000
0000
0000
0000
0000
0000
0000
0000
0000
0000
0000
0000
0000
0000
0000
0000
0000
1000
0000
0000
0000
0100
0000
0000
0000
1000
0000
0000
0000
0010
0000
0000
0000
0000
0000
0000
0000
0010
0000
0000
0000
,
0100
0001
0010
0001
0000
0001
0100
0010
1000
0100
0000
0100
,
1000
0001
1000
0001
1000
0001
1000
0100
1000
0010
0000
0010
,
1000
0100
1000
0001
0000
0001
0100
0001
0010
0001
0000
0001
,
0100
0010
1000
0001
1000
0001
1000
0100
0010
0001
0000
0001
,
0010
0100
1000
0001
0000
0001
1000
0010
0100
0001
0000
0001
,
0100
0010
1000
0001
0000
0001
1000
0100
1000
0010
1000
0010
,
0100
0001
0100
0001
0000
0001
0010
0001
0010
0001
0100
0001
,
0100
0010
0100
0010
0000
0000
2010
0000
0000
0000
0000
0000
,
0010
0000
0100
0000
,
3100
0000
0012
0000
,
0010
0000
0100
0000
,
0103
0000
0001
0002
,
0100
0203
0010
0320
,
1000
2030
0100
3200
,
0010
0320
0001
0032
,
1003
0000
0000
0000
1001
0000
0000
0000
1000
0000
0001
0000
0100
0002
0000
0200
,
0000
0303
0000
0000
0001
0000
0000
0000
1000
0000
0000
0000
0100
0000
0000
0000
1000
0000
0002
0000
0000
0000
0200
0000
0000
0303
0000
0000
0000
0000
0000
0000
,
0010
0000
0000
0000
1000
0000
0000
0000
0001
0000
2000
0000
0000
0000
0002
0000
0000
3003
0000
0000
1000
0000
0000
0000
0100
0000
0000
0000
0010
0000
0000
0000
,
0001
0000
0020
0000
0000
0000
0200
0000
0000
0030
0000
0000
0300
0000
0000
0000
1000
0000
0000
0000
1000
0000
0000
0000
0100
0000
0000
0000
0100
0000
0000
0000
,
0010
0001
0010
0001
0010
0001
0010
0000
0001
0000
1000
0000
0100
1000
0000
0001
,
0000
0010
0000
0001
0100
0000
0010
0000
1000
0000
0100
0000
1000
0001
0000
0010
,
0000
0001
0000
0100
0010
0000
1000
0000
0100
0000
1000
0000
0001
0010
0000
0001
,
0000
0100
0000
0010
1000
0000
0010
0000
0100
0000
0001
0000
1000
0100
0000
0010
,
0000
0001
0000
0010
0100
0000
1000
0000
0001
0000
1000
0000
0100
1000
0000
0001
,
0000
0010
0000
0001
0100
0000
0010
0000
1000
0000
0100
0000
1000
0001
0000
0010
,
0000
0001
0000
0100
0010
0000
1000
0000
0100
0000
1000
0000
0001
0010
0000
0001
,
0000
0100
0000
0010
1000
0000
0010
0000
0100
0000
0001
0000
1000
0100
0000
0010
,
0001
0000
1000
0000
0001
0000
0001
0000
1000
0000
0001
0000
0010
0001
0000
1000
,
0000
0100
0000
1000
0010
0000
0100
0000
0001
0000
0010
0000
0001
1000
0000
0100
,
0000
1000
0000
0010
0100
0000
0001
0000
0010
0000
0001
0000
1000
0100
0000
1000
,
0000
0010
0000
0100
0001
0000
0100
0000
0010
0000
1000
0000
0001
0010
0000
0100
,
0000
1000
0000
0100
0010
0000
0001
0000
1000
0000
0001
0000
0010
0001
0000
1000
,
0000
0100
0000
1000
0010
0000
0100
0000
0001
0000
0010
0000
0001
1000
0000
0100
,
0000
1000
0000
0010
0100
0000
0001
0000
0010
0000
0001
0000
1000
0100
0000
1000
,
0000
0010
0000
0100
0001
0000
0100
0000
0010
0000
1000
0000
0001
0010
0000
0100
,
0000
1000
0000
0001
0200
0000
0002
0000
0000
0000
0000
0000
0000
0000
0000
0000
,
0000
0303
0000
0000
0000
0000
0000
0000
;

//---------------dance-single - Renard----------------
#NOTES:
     dance-single:
     Renard:
     Challenge:
     11:
     0.729,0.905,0.462,0.111,0.971:
0000
0000
0000
0000
,
0000
0000
0000
0000
,
0000
0000
0000
0000
,
0000
0000
0000
0000
,
1000
0011
0000
0101
0000
1010
0000
1000
,
0100
0011
0000
1100
0000
1010
0000
0001
,
0100
0010
0000
1010
0000
0101
0000
0001
,
0010
0100
0000
1001
0000
1010
0000
0101
,
0010
1000
0001
1000
0010
1000
0001
1000
0010
0000
0100
0000
0001
0000
0100
0000
,
0010
1000
0100
0001
0100
1000
0010
0100
,
0001
1000
0001
0100
0001
1000
0100
1000
0010
0000
0100
0000
0001
0000
0100
0000
,
0010
1000
0100
0001
0101
0000
1100
0000
,
1000
0010
0100
0010
1000
0010
0100
0010
1000
0000
0010
0000
0100
0000
0001
0000
,
0010
0001
0010
0001
0100
0001
1000
0001
0100
0000
0001
0000
1000
0000
0001
0000
,
0100
0001
0100
0001
0100
0010
0100
0010
1000
0000
0010
0000
0100
0000
0001
0000
,
1000
0000
0000
0100
0000
0000
1000
0000
0000
0100
0000
0000
1000
0000
0000
0001
0000
0000
1000
0000
0000
0000
0000
0000
0001
0000
0100
0000
0001
0000
0100
0000
0000
0001
0000
0000
0100
0000
0000
0001
0000
0000
1000
0000
0000
0000
0000
0000
,
1100
1100
1100
1010
1010
1010
1001
1001
1001
0101
0101
0101
,
0011
0101
0000
1010
0000
1001
0000
0000
,
1111
0000
0000
0000
0000
0000
1000
0100
1000
1100
0000
0100
,
1000
0010
1000
1010
0000
0010
0100
0001
0100
0101
0000
0001
,
0100
0001
0010
0011
0000
0001
0100
0010
1000
1010
0000
0010
,
0100
0001
0100
0101
0000
0001
0010
0100
1000
1100
0000
1000
,
0100
0010
0001
0011
0000
0001
0010
0001
0010
0011
0001
0010
,
0100
1000
0100
1100
0100
1000
0010
1000
0010
1010
0010
0100
,
0001
0100
0001
0101
0001
0100
0010
1000
0010
1010
0010
0100
,
0001
0100
0001
0101
0001
1000
0001
1000
0001
1001
0001
1000
,
0100
0000
0000
0000
0010
0000
0000
0000
0001
0000
0000
0000
0011
0000
0000
0000
0000
0000
0000
0000
0000
0000
0000
0000
1000
0000
0000
0100
0000
0000
0010
0000
0000
0000
0000
0000
0001
0000
0000
0000
0000
0000
0100
0000
0000
0000
0000
0000
,
0020
2030
3200
0000
,
0320
0000
0000
0000
0000
0000
0000
0000
0031
1000
0001
0000
0100
0000
0010
0000
,
0200
0302
2003
0000
,
3200
0000
0000
0000
0000
0000
0000
0000
0310
0001
0010
0100
1000
0100
0010
0001
,
0010
0100
1000
0001
0200
0000
0000
0000
,
0320
0000
0000
0000
0000
0000
0000
0000
1030
0010
0100
0001
0100
0010
1000
0010
,
0100
0001
0010
0100
2000
0000
0000
0000
,
3200
0000
0000
0000
1000
0000
0000
0000
1300
0000
0100
0100
1000
0100
0000
1100
,
0000
0000
0010
0000
0001
0000
0010
0010
0001
0010
0000
0011
0000
0000
0000
0000
,
1000
0000
0001
0001
1000
0001
0000
1001
0000
0000
0100
0000
0010
0000
1000
1000
,
0001
0100
0000
1001
0000
0000
0000
0000
1000
0000
1000
0000
0001
0000
0001
0000
,
1000
0001
1000
0001
1000
0001
1000
0000
0001
0000
0100
0001
1000
0100
0000
1000
,
0000
0010
0100
0001
1000
0100
0010
0000
0001
0000
0010
0100
1000
0001
0000
0100
,
0000
0010
1000
0010
0100
0001
0010
0000
0100
0000
1000
0100
1000
0100
0000
0010
,
0000
0001
0010
0100
1000
0001
0100
0000
0001
0000
1000
0100
1000
0001
0000
0100
,
0000
0001
0100
0010
1000
0100
1000
0000
0001
0000
0100
1000
0100
0010
0000
1000
,
0000
0010
0001
0010
1000
0010
0100
0000
0001
0000
0100
1000
0100
0010
0000
1000
,
0000
0010
0001
0010
0100
1000
0100
0000
0001
0000
1000
0100
0001
0100
0000
0010
,
0000
0001
0010
1000
0010
0100
0001
0000
0100
0000
1000
0100
0010
0001
0000
0010
,
0000
1000
0010
0100
1000
0001
1000
0000
0001
0000
0100
0001
1000
0100
0000
1000
,
0000
0010
0100
0001
1000
0100
0010
0000
0001
0000
0010
0100
1000
0001
0000
0100
,
0000
0010
1000
0010
0100
0001
0010
0000
0100
0000
1000
0100
1000
0100
0000
0010
,
0000
0001
0010
0100
1000
0001
0100
0000
0001
0000
1000
0100
1000
0001
0000
0100
,
0000
0001
0100
0010
1000
0100
1000
0000
0001
0000
0100
1000
0100
0010
0000
1000
,
0000
0010
0001
0010
1000
0010
0100
0000
0001
0000
0100
1000
0100
0010
0000
1000
,
0000
0010
0001
0010
0100
1000
0100
0000
0001
0000
1000
0100
0001
0100
0000
0010
,
0000
0001
0010
1000
0010
0100
0001
0000
0100
0000
1000
0100
0010
0001
0000
0010
,
0000
1000
0010
0100
1000
0001
1000
0000
0000
0000
0000
0000
0000
0000
0000
0000
;

//---------------dance-single - Renard----------------
#NOTES:
     dance-single:
     Renard:
     Medium:
     6:
     0.346,0.402,0.305,0.111,0.000:
0000
0000
0000
0000
,
0000
0000
0000
0000
,
0000
0000
0000
0000
,
0000
0000
0000
0000
,
1000
0000
1000
0001
0000
0000
0000
0000
,
0100
0000
0100
0010
0000
1000
0010
0000
,
0100
0000
0100
0001
0000
0000
0000
0000
,
1000
0000
1000
0100
0000
0100
1000
0000
,
0000
1010
0000
1001
0000
0101
0000
0001
,
1000
0100
0000
1100
0000
0110
0000
0011
,
0000
0001
0100
0010
0000
1010
0000
1001
,
0000
1000
0001
0100
0001
0000
1001
0000
,
1000
0000
0100
0010
0001
0000
0000
0000
,
0001
0010
0100
1000
,
0010
0000
0100
0001
1000
0000
0001
0000
,
0100
0100
0010
0010
,
1001
0000
0000
0000
,
0110
0000
0000
0000
0000
1000
0010
0000
,
1001
0000
1000
1000
,
0001
0001
0100
0100
,
0010
0110
1000
1000
,
0001
0001
0010
0010
,
0100
0110
1000
1001
,
0001
1001
1000
1001
,
0001
1001
0010
0110
,
0100
0110
0010
0110
,
1010
0101
2000
0000
,
0000
0001
3002
0000
,
0203
0000
0320
0000
,
0000
1000
2030
0000
,
3200
0000
0320
0000
,
0000
0001
0032
0000
,
0200
0003
0000
0000
0320
0000
0000
0000
,
2030
0000
3200
0000
,
1300
0000
1001
0000
1010
0000
0001
0100
,
0001
0000
1000
0000
0100
1000
0001
0000
,
0100
0000
0001
1000
1001
0000
1010
0000
,
0001
0100
1001
0000
1000
1000
0001
0001
,
1000
0001
1000
0001
1000
0100
0010
0001
,
1000
0000
1000
0000
0001
0010
0100
0000
,
0100
0010
0001
0000
1000
0100
0010
0001
,
1000
0000
0001
0000
0001
0010
0100
0000
,
0100
1000
0010
0000
1000
0000
1000
0000
,
0001
0100
0001
0000
1000
0001
1000
0000
,
0001
1000
0001
0000
1000
0000
0010
0000
,
0100
0001
0100
0000
0110
0000
0101
0000
,
1001
0011
1100
1000
,
0001
0100
0001
0000
1000
0100
1000
0000
,
0001
0010
0001
0000
1000
0000
0010
0000
,
0100
0001
1000
0000
0001
1000
0010
0000
,
1000
0001
1000
1000
,
0001
1000
0001
0000
0100
0000
0100
0000
,
0001
0000
1000
0010
1000
0000
0001
0010
,
0001
0000
1000
0000
0100
0010
0000
0001
,
1000
0010
0100
0001
0000
0000
0000
0000
;

//---------------dance-single - Renard----------------
#NOTES:
     dance-single:
     Renard:
     Easy:
     2:
     0.239,0.276,0.111,0.074,0.000: // measure 1
0000
0000
0000
0000
,  // measure 2
0000
0000
0000
0000
,  // measure 3
0000
0000
0000
0000
,  // measure 4
0000
0000
0000
0000
,  // measure 5
1000
0001
0100
0010
,  // measure 6
1000
0100
0010
0001
,  // measure 7
0100
0001
1000
0100
,  // measure 8
1000
0010
0100
1001
,  // measure 9
1010
0100
0001
0010
,  // measure 10
0100
1000
0010
0000
,  // measure 11
0001
0100
0010
1000
,  // measure 12
0100
0010
0001
1000
,  // measure 13
0010
1000
0001
0100
,  // measure 14
0001
1000
1001
0000
,  // measure 15
0001
1000
0010
0100
,  // measure 16
0001
1000
1100
0000
,  // measure 17
0011
0000
0000
0000
,  // measure 18
1001
0000
1100
0000
,  // measure 19
0011
0000
1000
1000
,  // measure 20
1000
1000
0001
0001
,  // measure 21
0001
0001
0100
0100
,  // measure 22
0100
0100
0010
0010
,  // measure 23
0010
0010
1000
0001
,  // measure 24
1000
0001
1000
0001
,  // measure 25
1000
0001
0100
0010
,  // measure 26
0100
0010
0100
0010
,  // measure 27
0100
0010
2000
0000
,  // measure 28
0000
0000
3002
0000
,  // measure 29
0000
0000
0203
0000
,  // measure 30
0000
0000
0320
0000
,  // measure 31
0000
0000
2030
0000
,  // measure 32
0000
0000
3200
0000
,  // measure 33
0000
0000
0320
0000
,  // measure 34
0000
0000
0032
0000
,  // measure 35
0000
0000
1003
0000
,  // measure 36
0000
0001
0000
0000
,  // measure 37
1000
0000
0000
0001
,  // measure 38
0000
0000
1001
1001
,  // measure 39
1001
1001
1000
0001
,  // measure 40
1000
0001
1000
0001
,  // measure 41
1000
0001
1000
0100
,  // measure 42
1000
0100
1000
0100
,  // measure 43
1000
0100
0010
0001
,  // measure 44
0010
0001
0010
0001
,  // measure 45
0010
0001
0100
0001
,  // measure 46
0100
0001
0100
0001
,  // measure 47
0100
0001
1000
0010
,  // measure 48
1000
0010
1000
0010
,  // measure 49
1000
0010
1000
0100
,  // measure 50
1000
0100
1000
0100
,  // measure 51
1000
0100
0010
0001
,  // measure 52
0010
0001
0010
0001
,  // measure 53
0010
0001
0001
0010
,  // measure 54
0100
1000
0010
0100
,  // measure 55
0001
1000
0000
0000
;
