#TITLE:Lollipop Song;
#SUBTITLE:;
#ARTIST:Blümchen;
#GENRE:Dance;
#TITLETRANSLIT:;
#SUBTITLETRANSLIT:;
#ARTISTTRANSLIT:;
#CREDIT:;
#BANNER:lollipop song.png;
#BACKGROUND:lollipop song-bg.png;
#LYRICSPATH:;
#CDTITLE:;
#MUSIC:lollipop song.ogg;
#OFFSET:-0.020;
#SAMPLESTART:46.709;
#SAMPLELENGTH:12.000;
#SELECTABLE:YES;
#BPMS:0.000=165.000;
#STOPS:224.000=1.091
;
#BGCHANGES:;

//---------------dance-single - Renard----------------
#NOTES:
     dance-single:
     Renard:
     Hard:
     9:
     0.648,0.714,0.642,0.018,0.181:
0000
0000
0000
0000
,
0000
0000
0000
0000
,
0000
0000
0000
0000
,
0000
0000
0000
0000
,
0000
0000
0000
0000
,
1000
0000
0001
0100
0010
1000
0100
0010
,
0001
1000
0001
0000
,
0100
0010
0100
0000
0001
1000
0001
0000
,
1000
0010
0100
0101
,
1000
0000
0010
0000
0100
0001
0101
0000
,
0010
1000
1010
0000
1001
0000
0010
0000
,
1000
0000
0100
0000
0010
0001
0011
0000
,
0001
1000
1001
0000
1010
0000
0101
0000
,
1000
0000
0100
0000
0010
0100
0110
0000
,
0001
0100
0101
0000
1010
0000
0100
0000
,
0010
0001
1000
0000
1000
0001
0100
0000
,
1010
0101
0110
0000
,
1000
0000
0100
0000
0010
0001
0010
0000
0001
1000
0001
0000
0100
0000
0010
0000
,
1000
0000
0100
0000
0010
0001
0010
0000
0100
0010
0100
0000
1000
0000
0001
0000
,
0100
0000
0010
0000
1000
0010
1000
0000
0001
0100
0001
0000
1000
0000
0010
0000
,
1000
0000
0100
0000
0010
0001
0010
0000
0100
1000
0100
0000
0010
0000
0001
0000
,
1000
0010
0100
0001
1000
0100
0010
0001
,
1000
0010
0100
0001
1000
0001
1000
0000
,
1010
0000
0101
0000
1000
0001
1001
0000
,
0100
0000
0101
0000
0001
1000
1001
0000
,
0001
0000
0010
0000
0100
1000
0100
0000
1000
0001
1000
0000
0010
0000
0100
0000
,
0001
0000
0010
0000
0100
1000
0100
0000
0010
0100
0010
0000
0001
0000
1000
0000
,
0010
0000
0100
0000
0001
0100
0001
0000
1000
0010
1000
0000
0001
0000
0100
0000
,
0001
0000
0010
0000
0100
1000
0100
0000
0010
0001
0010
0000
0100
0000
1000
0000
,
0001
0100
0010
1000
0001
0010
0100
1000
,
0001
0100
0010
1000
0001
1000
0001
0000
,
0101
0000
1010
0000
0001
1000
1001
0000
,
0010
0000
1010
0000
1000
0001
1001
0000
,
0001
0000
0100
0000
0010
1000
1010
0000
,
0100
0001
0101
0000
1001
0000
0100
0000
,
0001
0000
0010
0000
0100
1000
1100
0000
,
1000
0001
1001
0000
0101
0000
1010
0000
,
0001
0000
0010
0000
0100
0010
0110
0000
,
1000
0010
1010
0000
0101
0000
0010
0000
,
0100
1000
0001
0000
0001
1000
0010
0000
,
0101
1010
0220
0330
,
1000
0000
0100
0000
0010
0000
0001
0000
1000
0001
1000
0000
0100
0000
0010
0000
,
0001
0000
1000
0000
0010
0000
0100
0000
0010
0100
0010
0000
1000
0000
0001
0000
,
0100
0000
0010
0000
1000
0000
0001
0000
0100
0001
0100
0000
0001
0000
1000
0000
,
0100
0000
0010
0000
0001
0000
1000
0000
0010
0100
0010
0000
0100
0000
0001
0000
,
1000
0000
0000
1000
0001
0000
0000
0001
0100
0000
0000
0100
0010
0000
0000
0010
,
1000
0000
0100
0010
0001
1000
0010
0000
,
1000
0000
0000
1000
0100
0000
0000
0100
0010
0000
0000
0010
0001
0000
0000
0001
,
1000
0000
0010
0100
0001
1000
1010
0000
,
0011
0000
0010
0000
0100
0000
1000
0000
0001
1000
0001
0000
0010
0000
0100
0000
,
1100
0000
0001
0000
0100
0000
0010
0000
0100
0010
0100
0000
0001
0000
1000
0000
,
0011
0000
0100
0000
0001
0000
1000
0000
0010
1000
0010
0000
1000
0000
0001
0000
,
0011
0000
0100
0000
1000
0000
0001
0000
0100
0010
0100
0000
0010
0000
1000
0000
,
0011
0000
0000
0001
1000
0000
0000
1000
0010
0000
0000
0010
0100
0000
0000
0100
,
0001
0000
0010
0100
1100
0001
0100
0000
,
0101
0000
0000
0001
0010
0000
0000
0010
0100
0000
0000
0100
1000
0000
0000
1000
,
0001
0000
0001
0000
0100
0000
1000
0010
,
1010
0000
0100
0001
0101
0000
0011
0000
,
0100
0000
0001
0000
1000
0000
0100
0010
,
0110
0000
0010
0001
0011
0000
0101
0000
,
1010
0000
0001
0000
1000
0000
0100
1000
,
1100
0000
0010
1000
1010
0000
0101
0000
,
1000
0000
0100
0010
0001
0000
0001
0010
,
1000
0101
1010
1100
,
0000
0000
0100
0000
1000
0000
0001
0010
,
0011
0000
1000
0100
1100
0000
0110
0000
,
1000
0000
0100
0000
0001
0000
1000
0010
,
1010
0000
0010
0100
0110
0000
1100
0000
,
0011
0000
0100
0000
0001
0000
1000
0001
,
1001
0000
0010
0001
0011
0000
1100
0000
,
0001
0000
1000
0010
0100
0000
0100
0010
,
0001
1100
0011
1001
;

//---------------dance-single - Renard----------------
#NOTES:
     dance-single:
     Renard:
     Medium:
     8:
     0.504,0.551,0.000,0.009,0.000:
0000
0000
0000
0000
,
0000
0000
0000
0000
,
0000
0000
0000
0000
,
0000
0000
0000
0000
,
0000
0000
0000
0000
,
0010
0000
0001
0100
1000
0010
0100
1000
,
0001
0010
0001
0000
,
0100
1000
0100
0000
0001
0010
0001
0000
,
0010
1000
0100
0001
,
0010
0000
1000
0000
0100
0001
0001
0000
,
1000
0010
1000
0000
0001
0000
1000
0000
,
0010
0000
0100
0000
1000
0001
0001
0000
,
0001
0010
0001
0000
1000
0000
0001
0000
,
0010
0000
0100
0000
1000
0100
1000
0000
,
0001
0100
0001
0000
1000
0000
0100
0000
,
1000
0001
0010
0000
0010
0001
0100
0000
,
1000
0001
1000
0000
,
0010
0100
1000
0001
0001
0001
0100
1000
,
0010
0100
1000
0001
0100
1000
0010
0001
,
0100
1000
0010
1000
0001
0001
0010
1000
,
0010
0100
1000
0001
0100
0100
1000
0001
,
0010
1000
0100
0001
0010
0100
1000
0001
,
0010
1000
0100
0001
0010
0001
0010
0000
,
1000
0000
0001
0000
0010
0001
0001
0000
,
0100
0000
0001
0000
0001
0010
0001
0000
,
0001
1000
0100
0100
0010
0001
1000
0100
,
0001
1000
0100
0100
1000
1000
0001
0010
,
1000
0100
0001
0001
0010
1000
0001
0100
,
0001
1000
0100
0100
1000
0001
0100
0010
,
0001
0100
1000
0010
0001
1000
0100
0010
,
0001
0100
1000
0010
0001
0010
0001
0000
,
0001
0000
1000
0000
0001
0010
0001
0000
,
1000
0000
1000
0000
0010
0001
0001
0000
,
0001
0000
0100
0000
1000
0010
1000
0000
,
0100
0001
0001
0000
0001
0000
0100
0000
,
0001
0000
1000
0000
0100
0010
0100
0000
,
0010
0001
0001
0000
0001
0000
1000
0000
,
0001
0000
1000
0000
0100
1000
1000
0000
,
0010
1000
1000
0000
0001
0000
1000
0000
,
0100
0010
0001
0000
0001
0010
1000
0000
,
0001
1000
2000
3000
,
0010
0100
1000
0001
0010
0001
0100
1000
,
0001
0010
1000
0100
1000
1000
0010
0001
,
0100
1000
0010
0001
0100
0001
0001
0010
,
0100
1000
0001
0010
1000
1000
0100
0001
,
0010
0001
0001
1000
,
1000
0000
0100
1000
0001
0010
1000
0000
,
0010
0100
1000
0001
,
0001
0000
1000
0100
0001
0010
1000
0000
,
0001
1000
0100
0010
0001
0001
1000
0100
,
0100
0001
0100
1000
0100
1000
0001
0010
,
0001
0100
0001
0010
1000
1000
0010
0001
,
0001
0100
0010
0001
0100
1000
1000
0010
,
0001
0001
1000
1000
,
0001
0000
1000
0100
0100
0001
0100
0000
,
0001
0001
1000
0100
,
0001
0000
0001
0000
0100
0000
0010
1000
,
1000
0000
0100
0001
0001
0000
0001
0000
,
0100
0000
0001
0000
0010
0000
0100
1000
,
1000
0000
1000
0001
0001
0000
0001
0000
,
1000
0000
0001
0000
0010
0000
0100
0010
,
0100
0000
1000
0010
1000
0000
0001
0000
,
0010
0000
0100
1000
0001
0000
0001
1000
,
0010
0001
1000
0100
,
0000
0000
0100
0000
0010
0000
0001
1000
,
0001
0000
0010
0100
0100
0000
1000
0000
,
0010
0000
0100
0000
0001
0000
0010
1000
,
1000
0000
1000
0100
1000
0000
0100
0000
,
0001
0000
0100
0000
0001
0000
0010
0001
,
0001
0000
1000
0001
0001
0000
0100
0000
,
0001
0000
0010
1000
0100
0000
0100
1000
,
0001
0100
0001
0001
;

//---------------dance-single - Renard----------------
#NOTES:
     dance-single:
     Renard:
     Easy:
     4:
     0.342,0.292,0.000,0.009,0.000:
0000
0000
0000
0000
,
0000
0000
0000
0000
,
0000
0000
0000
0000
,
0000
0000
0000
0000
,
0000
0000
0000
0000
,
0010
0001
0100
0010
,
0001
0010
0001
0000
,
0100
0100
0001
0001
,
0010
1000
0100
0001
,
0010
1000
0100
0001
,
1000
0010
0001
1000
,
0010
0100
1000
0001
,
0001
0001
1000
0001
,
0010
0100
1000
0100
,
0001
0001
1000
0100
,
1000
0001
0010
0001
,
1000
0001
1000
0000
,
0010
0100
0001
0001
,
0010
0100
0001
0010
,
0001
0010
0001
0001
,
0010
0100
0001
0100
,
0001
0100
0001
0100
,
0001
0100
0001
0001
,
1000
0001
0010
0001
,
0100
0001
0001
0001
,
0001
0100
0010
0001
,
0001
0100
0100
0001
,
0010
0001
0001
0001
,
0001
0100
0100
0001
,
0001
0100
0001
0100
,
0001
0100
0001
0001
,
0001
1000
0001
0001
,
1000
1000
0010
0001
,
0001
0100
1000
0010
,
0100
0001
0001
0100
,
0001
1000
0100
0010
,
0010
0001
0001
1000
,
0001
1000
0100
1000
,
0010
1000
0001
1000
,
0100
0001
0001
0010
,
0001
1000
2000
3000
,
0010
0100
0001
0001
,
0001
0010
0100
0010
,
0001
0010
0001
0001
,
0010
0001
0010
0100
,
0001
0001
0001
1000
,
1000
0100
0001
0010
,
0010
0100
1000
0001
,
0001
1000
0001
0010
,
0001
0100
0001
0001
,
0100
0001
0100
0001
,
0001
0001
0010
0010
,
0001
0010
0001
1000
,
0001
0001
1000
1000
,
0001
1000
0100
0001
,
0001
0001
1000
0100
,
0001
0001
0100
0010
,
1000
0100
0001
0001
,
0100
0001
0010
0100
,
1000
1000
0001
0001
,
1000
0001
0010
0100
,
0010
1000
0010
0001
,
0010
0100
0001
0001
,
0010
0001
1000
0100
,
0000
0100
0010
0001
,
0001
0010
0100
1000
,
0010
0100
0001
0010
,
1000
1000
0100
0100
,
0001
0100
0001
0010
,
0001
1000
0001
0100
,
0001
0010
0100
0100
,
0001
0100
0001
0001
;

//---------------dance-single - Renard----------------
#NOTES:
     dance-single:
     Renard:
     Challenge:
     11:
     0.823,1.000,0.660,0.470,0.520: // measure 1
0000
0000
0000
0000
,  // measure 2
0000
0000
0000
0000
,  // measure 3
0000
0000
0000
0000
,  // measure 4
0000
0000
0000
0000
,  // measure 5
0000
0000
0000
0000
,  // measure 6
1001
0000
1000
0010
0100
0001
0010
1000
,  // measure 7
0010
0011
1100
1010
,  // measure 8
0001
0100
0010
0000
1000
0010
0100
0001
,  // measure 9
1000
2002
0020
3033
,  // measure 10
1100
0000
2200
0000
0010
0010
0001
0000
,  // measure 11
0001
0001
0010
0300
0200
0000
3311
0000
,  // measure 12
0101
0000
0202
0000
0010
0010
1000
0000
,  // measure 13
1000
1000
0010
0300
0200
0000
1313
0000
,  // measure 14
1002
0000
2003
0000
0001
0001
0002
0000
,  // measure 15
0010
0010
0100
0000
0010
0000
3103
0000
,  // measure 16
1000
0010
0100
0000
0001
0010
0100
1000
,  // measure 17
0001
1000
0001
0000
1001
0000
0000
0000
,  // measure 18
1000
0000
0001
0000
1000
0000
0001
0000
1000
0000
0001
0000
1000
0001
1000
0000
,  // measure 19
0001
0000
1000
0000
0001
0000
1000
0000
0001
0000
1000
0000
0001
1000
0001
0000
,  // measure 20
0100
0000
0010
0000
0100
0000
0010
0000
0100
0000
0010
0000
0100
0010
0100
0000
,  // measure 21
0010
0000
0100
0000
0010
0000
0100
0000
0010
0000
0100
0000
0010
0100
0010
0000
,  // measure 22
0110
1010
0101
1001
,  // measure 23
1000
0100
0010
0001
0000
0011
0011
0000
,  // measure 24
0001
0100
0001
0100
0010
0100
0010
0100
,  // measure 25
1000
0100
0001
0100
0010
0000
1010
0000
,  // measure 26
2200
3311
0202
1313
,  // measure 27
0220
0000
1000
0001
0000
0001
1330
0000
,  // measure 28
0202
1313
2200
3311
,  // measure 29
2002
0000
0100
0010
0000
0010
3103
0000
,  // measure 30
0010
1000
0001
0100
0010
1000
0100
0010
,  // measure 31
0001
0010
0200
2000
0000
0011
3311
0000
,  // measure 32
1000
0100
0010
0000
0001
0010
0100
0000
,  // measure 33
1000
0010
0100
0001
1000
0000
1001
0000
,  // measure 34
1100
0000
2200
0000
0010
0010
0001
0000
,  // measure 35
0001
0001
0310
0000
0200
0000
3311
0000
,  // measure 36
0101
0000
0202
0000
1000
1000
0010
0000
,  // measure 37
0010
0010
1000
0300
0200
0000
1313
0000
,  // measure 38
1000
0001
0100
0000
0100
0001
1000
0000
,  // measure 39
0100
0010
0001
0000
2200
0000
0011
0000
,  // measure 40
0001
0020
0002
3300
1000
0200
2033
0000
,  // measure 41
0011
0011
3311
0000
,  // measure 42
1000
0000
0001
1000
0001
0000
1000
0001
1000
0000
0001
1000
0001
0000
1000
0001
,  // measure 43
1000
0000
0001
1000
0001
0000
1000
0001
1000
0000
0001
1000
0001
1000
0001
0000
,  // measure 44
0100
0000
0010
0100
0010
0000
0100
0010
0100
0000
0010
0100
0010
0000
0100
0010
,  // measure 45
0100
0000
0010
0100
0010
0000
0100
0010
0100
0000
0010
0100
0010
0100
0010
0000
,  // measure 46
1000
0000
0010
1000
0010
0000
1000
0010
1000
0000
0010
1000
0010
0000
1000
0010
,  // measure 47
1000
0000
0010
1000
0010
0000
1000
0010
1000
0000
0010
1000
0010
1000
0010
0000
,  // measure 48
0100
0000
0001
0100
0001
0000
0100
0001
0100
0000
0001
0100
0001
0000
0100
0001
,  // measure 49
0100
0000
0001
0100
0001
0000
0100
0001
0100
0000
0001
0100
0001
0100
0001
0000
,  // measure 50
1000
0000
0000
1000
0001
0000
0000
0001
0100
0000
0000
0100
1000
0000
0000
1000
,  // measure 51
0010
0000
0000
0010
0001
0000
0000
0001
0100
0000
0000
0000
1001
0000
0000
0000
,  // measure 52
1000
0000
0000
1000
0100
0000
0000
0100
0010
0000
0000
0010
0001
0000
0000
0001
,  // measure 53
0100
0000
0000
0100
1000
0000
0000
1000
0010
0000
0000
0010
0001
0000
0000
0000
,  // measure 54
0101
0000
0000
0000
1010
0000
0000
0000
1100
0000
0000
0100
1000
0000
0000
1000
,  // measure 55
0010
0000
0000
0010
0100
0000
0000
0100
0001
0000
0000
0000
1001
0000
0000
0000
,  // measure 56
2002
3013
2002
3013
,  // measure 57
2002
3003
0000
0000
0000
0000
0000
0000
0000
0000
0000
0000
0000
0000
0000
0000
2200
0000
0000
0000
0000
0000
0000
0000
0000
0000
0000
0000
0000
0000
0000
0000
0011
0000
0000
0000
0000
0000
0000
0000
0300
0000
0000
0000
0000
0000
0000
0000
0100
0000
0000
0000
0000
0000
0000
0000
0200
0000
0000
0000
0000
0000
0000
0000
,  // measure 58
3011
0000
1000
2000
0011
0000
3311
0000
,  // measure 59
0000
0000
0202
0000
1010
0300
0100
0200
,  // measure 60
1013
0000
0001
0002
1010
0000
1313
0000
,  // measure 61
0000
0000
1001
0000
1010
0000
1100
1100
,  // measure 62
1010
0000
0101
0101
0011
0000
1001
0000
,  // measure 63
1100
0000
1000
0100
0010
0001
0010
0100
,  // measure 64
1000
0000
0010
0000
0100
0000
0001
0100
0001
0000
0100
0001
0100
0000
0000
0000
,  // measure 65
0000
0000
0000
0000
0001
0100
0001
0100
0010
1000
0010
1000
0100
1000
0100
1000
,  // measure 66
0001
0010
0001
0010
0100
1000
0100
1000
0010
1000
0010
1000
0001
0100
0001
0100
,  // measure 67
0001
0010
0001
0010
0001
0100
0001
0100
0010
1000
0010
1000
0001
1000
0001
1000
,  // measure 68
0001
0100
0001
0100
0010
0100
0010
0100
0010
1000
0010
1000
0010
0100
0010
0100
,  // measure 69
0001
0100
0001
0100
0001
1000
0001
1000
0100
1000
0100
1000
0010
0100
0010
0100
,  // measure 70
0001
0100
0001
0100
0001
0010
0001
0010
0100
1000
0100
1000
0010
1000
0010
1000
,  // measure 71
0001
0100
0001
0100
0010
1000
0010
1000
0001
1000
0001
1000
0100
1000
0100
1000
,  // measure 72
0001
0010
0001
0010
0100
1000
0001
0010
0100
1000
0001
0010
1001
0000
0000
0000
;
