#TITLE:Last Unicorn;
#SUBTITLE:;
#ARTIST:Groove Coverage;
#GENRE:Trance;
#TITLETRANSLIT:;
#SUBTITLETRANSLIT:;
#ARTISTTRANSLIT:;
#CREDIT:;
#BANNER:unicorn.png;
#BACKGROUND:unicorn-bg.png;
#LYRICSPATH:;
#CDTITLE:;
#MUSIC:unicorn.ogg;
#OFFSET:0.000;
#SAMPLESTART:32.551;
#SAMPLELENGTH:12.000;
#SELECTABLE:YES;
#BPMS:0.000=70.000,20.000=140.000;
#STOPS:;
#BGCHANGES:;

//---------------dance-single - Renard----------------
#NOTES:
     dance-single:
     Renard:
     Hard:
     9:
     0.570,0.598,0.077,0.115,0.057:
0000
0000
0000
0000
,
2000
0000
0200
3000
,
0020
0300
0002
0030
,
0200
0003
0020
0300
,
2000
0000
0030
0000
0002
0000
0000
3003
,
1000
0100
0001
0100
0010
1000
0001
0100
,
1000
0010
0100
0001
0100
1000
0001
0010
,
0100
0001
1000
0010
0001
1000
0100
0010
,
1000
0100
0001
1000
0010
0100
0001
0100
,
1000
0001
0010
0100
1000
0100
0001
0100
,
1000
0010
0001
0010
1000
0001
0100
0010
,
1000
0100
0001
1000
0010
0001
0010
0100
,
1000
0100
0001
0100
1000
0001
0200
2000
,
0000
0000
0000
0000
0000
3000
1300
0100
,
0010
0001
0010
0100
0001
1000
0100
0010
,
0100
1000
0001
0010
1000
0010
0001
1000
,
0100
0001
1000
0010
0100
1000
0001
0010
,
0100
0001
0100
1000
0010
0100
0001
0010
,
0100
0001
0100
1000
0010
0100
0001
0010
,
0100
0001
0100
0010
0001
1000
0100
0010
,
1000
0010
0100
1000
0010
0100
0001
0100
,
1000
0100
0010
1000
0010
0001
1000
0100
,
0001
1000
0001
0100
1000
0001
0010
1000
,
0001
1000
0010
0001
0010
0100
0001
1000
,
0100
0010
1000
0010
0001
0100
0010
1000
,
0100
0001
0100
0010
0001
0010
0100
1000
,
0010
0100
0001
0100
1000
0100
0010
1000
,
0010
0001
0010
1000
0100
0001
0100
0010
,
0100
1000
0010
0001
0010
0100
0010
1000
,
0001
0100
0001
1000
0100
0001
0100
0010
,
1000
0001
1000
0001
0100
0000
1000
0000
0010
0000
0100
0000
0001
0000
0100
0000
,
0010
1000
0001
1000
0010
0000
0100
0000
0001
0000
0010
0000
0100
0000
1000
0000
,
0100
1000
0100
1000
0100
0000
0001
0000
0100
0000
1000
0000
0010
0000
0100
0000
,
1001
0100
1010
0100
1001
0110
0000
1001
,
1000
0010
0100
0010
1000
0000
0100
0000
0010
0000
0001
0000
0100
0000
0010
0000
,
1000
0010
1000
0010
0001
0000
0010
0000
1000
0000
0010
0000
0100
0000
0001
0000
,
0010
0100
0010
0100
0010
0000
0100
0000
1000
0000
0100
0000
0001
0000
0100
0000
,
0110
0000
0011
0000
1100
0000
1000
0100
,
0001
0100
1000
0010
0100
0001
1000
0010
,
0100
0001
0100
1000
0100
0010
1000
0001
,
0100
0010
1000
0100
0010
0001
0010
1000
,
0001
0100
1000
0100
0001
1000
0010
0001
,
0010
0100
1000
0010
0100
0001
0100
0010
,
1000
0100
0010
0100
0001
0100
0010
1000
,
0001
0100
1000
0010
0100
0001
0100
1000
,
0100
0001
0010
0100
1000
0100
0001
0100
,
0010
1000
0001
0100
1000
0010
0100
0001
,
0100
0010
0001
0010
1000
0010
0100
0001
,
0010
0100
1000
0100
0001
0100
1000
0001
,
0010
1000
0010
0001
1000
0001
0100
1000
,
0100
0001
1000
0001
0010
1000
0010
0001
,
0100
0010
1000
0100
0010
0001
1000
0010
,
0100
0000
0100
0001
0000
0001
0010
0000
,
1000
0000
0100
0000
0001
0010
0200
2000
,
0000
0000
0000
3300
0000
0000
0000
0000
;

//---------------dance-single - Renard----------------
#NOTES:
     dance-single:
     Renard:
     Medium:
     6:
     0.391,0.439,0.363,0.182,0.000:
0000
0000
0000
0000
,
2000
0000
0000
0000
,
3002
0000
0203
0000
,
0320
0000
0000
0000
,
2030
0000
0002
3003
,
1000
0000
0001
0100
0001
1000
0100
0000
,
1000
1000
1100
0000
,
0010
0000
0001
0100
0001
0100
0001
0000
,
1000
0100
0011
0000
,
0001
0010
0100
0000
0100
1000
0010
0000
,
0010
0100
0001
0000
0001
1000
0001
1000
,
0100
0000
0100
1000
0000
1000
0010
0000
,
0100
0000
0001
0000
1000
0001
1000
0000
,
1001
0000
0000
0000
,
1001
1010
1100
1100
,
0100
1000
0100
1000
0100
0000
1100
0000
,
0011
0000
0101
0000
1001
0000
0001
1000
,
0001
0100
0001
0010
0001
0000
1001
0000
,
1000
0100
1000
0000
0001
0010
0001
0000
,
1000
0010
1000
0000
0001
0100
0001
0000
,
1001
1100
1010
1001
,
1100
0000
1001
0000
0000
1001
1001
0000
,
1000
0100
1000
0000
1000
0100
1000
0000
,
0001
0010
0001
0000
0001
0010
0001
0000
,
1000
0010
1000
0000
0010
1000
0010
0000
,
0100
0001
0100
0000
0001
0100
0001
0000
,
1000
0011
0100
1001
,
0010
0101
0010
1001
,
0100
1001
0010
1001
,
1100
0011
0101
1010
,
0001
0100
0010
0000
0100
0000
0100
0000
,
0010
1000
0100
0000
1000
0000
1000
0000
,
0010
0100
0001
0000
0100
0000
0100
0000
,
0110
0000
0101
0000
1100
1100
0000
0000
,
0100
0000
0010
0000
1000
0010
0000
1000
,
0100
0000
0010
0000
0001
0010
0000
0010
,
0100
0000
1000
0000
0010
0100
0000
0001
,
1000
1001
1100
1000
,
0001
0000
0100
0010
0100
0000
0010
0000
,
1000
0000
0100
1000
0100
0000
0010
0000
,
0001
0000
1000
0001
0000
0001
1000
0000
,
0010
0100
0001
1000
,
0100
0000
1000
0001
0000
0001
1000
0000
,
0100
0000
1000
0010
0000
0010
0100
0001
,
1000
0001
1100
0010
,
0001
0100
1010
0100
,
0002
0000
0000
0013
,
0020
0000
0000
0130
,
0200
0000
0000
1300
,
2000
0000
0000
3010
,
0020
0130
0200
0301
,
0002
1003
0200
1300
,
0020
0130
0002
0013
,
0200
1300
0020
0200
,
0330
0000
0000
0000
;

//---------------dance-single - Renard----------------
#NOTES:
     dance-single:
     Renard:
     Easy:
     3:
     0.327,0.336,0.316,0.316,0.000: // measure 1
0000
0000
0000
0000
,  // measure 2
2000
0000
0000
0000
,  // measure 3
3002
0000
0203
0000
,  // measure 4
0320
0000
0000
0000
,  // measure 5
2030
0000
0002
3003
,  // measure 6
1000
0001
0100
1001
,  // measure 7
0001
1000
0100
1001
,  // measure 8
1000
0001
0010
1001
,  // measure 9
0001
1000
0010
1001
,  // measure 10
1000
0001
0100
0010
,  // measure 11
1000
0100
0010
0001
,  // measure 12
1000
0001
0100
0010
,  // measure 13
1000
1000
0001
0001
,  // measure 14
0200
0000
0000
0000
,  // measure 15
0310
1010
0010
1010
,  // measure 16
0010
1010
0010
1010
,  // measure 17
0100
0101
0100
0101
,  // measure 18
0100
0101
0100
0101
,  // measure 19
1000
0001
1000
0001
,  // measure 20
1000
0010
1000
0010
,  // measure 21
0100
0001
0100
0001
,  // measure 22
0000
0011
1100
1001
,  // measure 23
1000
0001
0100
0001
,  // measure 24
1000
0100
1000
0100
,  // measure 25
1000
0010
0100
0001
,  // measure 26
0010
0001
1000
0010
,  // measure 27
1000
0101
0010
1001
,  // measure 28
0100
1001
0010
1100
,  // measure 29
1000
1001
0100
0110
,  // measure 30
1000
1001
0100
0101
,  // measure 31
0001
0001
0100
0000
,  // measure 32
0010
0010
1000
0000
,  // measure 33
0100
0100
1000
0000
,  // measure 34
1001
1010
1100
1001
,  // measure 35
0100
0100
0010
0000
,  // measure 36
1000
1000
0100
0000
,  // measure 37
0010
0000
0001
0000
,  // measure 38
1000
0000
0001
0000
,  // measure 39
1000
0001
0110
0000
,  // measure 40
0001
1000
0110
0000
,  // measure 41
0001
1000
1100
0000
,  // measure 42
0001
0010
0011
0000
,  // measure 43
0001
0100
0110
0000
,  // measure 44
1000
0010
0110
0000
,  // measure 45
1000
0010
0100
0001
,  // measure 46
2000
0000
3002
0000
,  // measure 47
2003
0000
3020
0230
,  // measure 48
0302
0000
0023
0230
,  // measure 49
2300
0000
3020
0230
,  // measure 50
0302
0000
2003
3200
,  // measure 51
2300
0000
3002
0023
,  // measure 52
0230
0000
2300
3002
,  // measure 53
0203
0000
0302
2003
,  // measure 54
3200
0000
2300
3020
,  // measure 55
0030
0000
0000
0000
;
