#TITLE:Kujeellinen Enkeli;
#SUBTITLE:;
#ARTIST:Sonitus Vir;
#GENRE:Electronic Orchestra;
#TITLETRANSLIT:;
#SUBTITLETRANSLIT:;
#ARTISTTRANSLIT:;
#GENRE:;
#CREDIT:;
#BANNER:enkeli.png;
#BACKGROUND:enkeli-bg.png;
#LYRICSPATH:;
#CDTITLE:;
#MUSIC:enkeli.ogg;
#OFFSET:0.000;
#SAMPLESTART:15.738;
#SAMPLELENGTH:12.000;
#SELECTABLE:YES;
#BPMS:0.000=183.000,276.000=173.000,278.000=163.000,280.000=153.000,282.000=143.000;
#STOPS:;
#BGCHANGES:;
#KEYSOUNDS:;

//---------------dance-single - Pyroko----------------
#NOTES:
     dance-single:
     Pyroko:
     Easy:
     3:
     0.218,0.000,0.130,0.221,0.000:
0000
0000
0000
0000
,
0000
0000
0000
0000
,
0000
0000
0000
0000
,
0000
0000
0000
0000
,
1000
0000
0000
0000
,
0000
0000
0000
0000
,
0001
0000
0000
0000
,
0000
0000
0000
0000
,
1000
0000
0100
0100
,
0010
0000
0010
0000
,
0000
0000
0001
0001
,
0001
0000
0000
0000
,
1001
0000
0000
0000
,
0000
0000
0100
0010
,
0001
0000
0000
0000
,
0000
0000
0001
0010
,
0100
0000
0000
0000
,
0000
0000
1000
0010
,
0100
0000
0000
0000
,
0000
0000
0010
1000
,
0100
0000
0100
0000
,
0100
0000
1100
0000
,
0000
0000
0010
0000
,
0010
0000
0011
0000
,
1000
0001
1000
0001
,
0000
0000
0000
0000
,
0010
0100
0010
0100
,
0000
0000
0000
0000
,
0001
1000
0001
1000
,
0000
0000
0000
0000
,
0100
0010
0100
0010
,
0000
0000
0000
0000
,
0000
1000
0100
1000
,
0000
0100
1000
0100
,
0000
0010
0001
0010
,
0000
0001
0010
0001
,
0000
0010
0100
0010
,
0000
0100
0010
0100
,
0000
1000
0000
0000
,
0000
0001
1000
0001
,
0000
0001
1000
0001
,
0000
1000
0001
1000
,
0000
1000
0100
0010
,
0000
0100
1000
0010
,
0000
0010
0100
0010
,
0000
0100
0010
0100
,
0001
0000
1000
0000
,
0001
0000
1000
0000
,
1100
0000
0000
0000
,
2200
0000
0000
0000
0000
0000
0000
3300
,
2002
0000
0000
0000
0000
0000
0000
3003
,
0022
0000
0000
0000
0000
0000
0000
0033
,
0220
0000
0000
0000
0000
0000
0000
0330
,
2200
0000
0000
0000
0000
0000
0000
3300
,
0020
0000
0032
0000
,
2003
0000
3002
0000
,
1003
0001
1000
0001
,
1001
0000
0000
0000
,
0000
0000
0000
0000
,
2000
0000
0000
0000
,
0000
0000
3002
0000
,
0023
0000
0000
0000
,
0030
0000
0002
0000
,
2003
0000
0000
0000
,
0000
0000
3200
0000
,
0310
0000
0000
0000
,
0000
0000
0001
1000
,
0001
0000
0000
0000
,
0000
0000
1001
0000
,
0000
0000
0000
0000
,
0110
0000
0000
0000
,
2002
0000
0000
0000
,
3003
0000
0000
0000
;

//---------------dance-single - Pyroko----------------
#NOTES:
     dance-single:
     Pyroko:
     Hard:
     9:
     0.569,0.000,0.271,0.472,0.156:
0000
0000
0000
0000
,
0000
0000
0000
0000
,
0000
0000
0000
0000
,
0000
0000
0000
0000
1000
0000
1000
0100
,
0020
0000
0000
0000
,
0000
0000
0001
0000
,
1030
0000
0000
0000
,
0000
0000
1100
0000
,
0110
0000
0000
0000
0000
0000
0010
0000
0001
0000
0100
0000
,
0010
0000
0220
0000
,
0330
0000
0000
1000
0000
0000
0010
0000
0001
0000
0010
0000
,
1000
0000
1001
0000
,
1000
0100
0010
0001
1000
0010
0100
0010
,
1000
0100
0010
0001
1000
0010
0100
0000
,
0010
1000
0100
0010
1000
0010
1000
0010
,
0001
1000
0010
0100
0010
1000
0100
0000
,
0010
0001
1000
0010
0100
0010
1000
0100
,
0010
0001
1000
0010
0100
0010
1000
0000
,
1000
0100
0010
0001
1000
0100
0010
0001
,
1000
0010
0100
0010
0001
0010
1000
0000
,
1100
0000
0000
0000
0000
0000
0001
0000
0100
0000
0020
0000
,
2000
0000
0101
0000
,
3030
0000
0000
1000
0000
0000
0100
0000
0001
0000
0200
0000
,
0020
0000
0000
0000
0000
0000
1001
0000
0000
0000
0330
0000
,
1000
0100
0010
0001
1000
0100
0020
0000
,
0000
0000
0000
0000
0000
0000
0000
0030
,
0001
0010
0100
1000
0001
0010
0200
0000
,
0000
0000
0000
0000
0000
0000
0000
0300
,
1000
0010
0100
0001
1000
0010
0200
0000
,
0000
0000
0000
0000
0000
0000
0000
0300
,
0001
0100
0010
1000
0001
0100
0020
0000
,
0000
0000
0000
0000
0000
0000
0000
0030
,
0000
1010
0101
1010
,
0000
2000
0200
0020
,
3330
0110
1001
0110
,
0000
0002
0200
0020
,
0333
0011
1100
0011
,
0000
0020
0200
2000
,
3330
0000
0010
0000
0000
0010
0001
0010
,
0000
0000
0000
0000
1000
0100
1000
0100
,
1000
0100
0010
0001
1000
0010
0100
0010
,
1000
0000
0100
0000
0010
0000
0001
0010
0001
0000
1000
0000
0100
0000
0010
0000
,
0001
1000
0010
0100
0010
0001
0010
1000
,
0100
0000
0010
0000
0001
0000
1000
0000
0100
0000
0010
0001
0010
0000
0001
0000
,
1000
0010
0100
0010
1000
0100
0010
0001
,
0010
0000
0100
0000
0010
0000
0100
1000
0100
0000
0010
0000
0001
0000
1000
0000
,
0010
0100
0001
1000
0100
0010
0001
1000
,
0010
0100
0010
1000
0100
0010
0001
1000
,
2002
0000
0000
0000
0000
0000
0000
3003
,
1000
0100
1000
0010
1000
0001
1000
0010
,
0100
0010
0100
1000
0100
0010
0100
0001
,
0010
0001
0010
0100
0010
1000
0010
0100
,
1000
0100
1000
0010
1000
0001
1000
0010
,
1000
0100
1000
0100
1000
0000
0100
0000
0010
0100
0010
0100
0010
0000
0100
0000
,
0010
0001
0010
0001
0010
0000
0001
0000
1000
0001
1000
0001
1000
0000
0001
0000
,
1000
0100
1000
0000
0010
0100
0010
0000
0100
0001
0100
0000
0001
0010
0001
0000
,
1000
0100
0010
0001
1000
0000
1000
0000
0001
0010
0100
1000
0001
0000
0001
0000
,
2002
0000
0000
0000
0000
0000
0000
3003
,
0220
0000
1000
1000
0001
0001
0001
0330
,
0202
0000
0000
0000
,
0000
0000
0000
0303
2020
0000
0000
3030
,
2200
0000
0000
0000
,
3300
0000
0000
0000
1000
0000
0010
0100
,
0020
0000
0000
0000
,
0000
0000
0000
0030
2020
0000
0000
3030
,
0202
0000
0000
0000
,
0303
0000
2000
0000
,
0200
0000
0000
3300
0000
0000
0010
0000
0100
0000
1000
0000
,
2002
0000
0000
3003
0022
0000
0033
0000
,
0000
0000
0000
0010
0000
0000
0010
0000
0001
0000
2000
0000
,
0200
0000
0000
0000
0001
3300
0000
0000
,
0022
0000
0000
0000
,
0033
0000
0000
0000
;

//---------------dance-single - Renard----------------
#NOTES:
     dance-single:
     Renard:
     Challenge:
     11:
     0.732,0.000,0.371,0.211,0.472:
0000
0000
0000
0000
,
0000
0000
0000
0000
,
0000
0000
0000
0000
,
0000
0000
0000
0000
0000
0000
1000
0001
,
0200
0000
0010
0000
,
0002
0300
0020
0003
,
0200
0030
1000
0000
,
0002
0000
0000
0300
0020
0000
0000
0033
,
1100
0000
0000
0000
0000
0000
1000
0000
0001
0000
0100
0000
,
0210
0000
0301
0000
,
0001
0000
0000
0010
0000
0000
0100
0000
1000
0000
0100
0000
,
2000
0000
0000
0000
3020
0000
0000
0030
,
0100
0001
0100
0010
1000
0100
0001
0100
,
0010
0000
0000
0001
0000
0000
0010
0000
0000
0000
0000
0000
0001
0010
0000
0000
0000
0000
0100
0000
0000
0000
0000
0000
,
1000
0010
0000
0000
0000
0000
0100
0000
0000
0001
0000
0000
0010
0000
0000
0100
0000
0000
1000
0000
0000
0010
0000
0000
,
0100
0000
0000
0000
0000
0000
0001
0000
0000
0100
0000
0000
0010
1000
0000
0000
0000
0000
0001
0000
0000
0100
0000
0000
,
0010
0000
1000
0100
0010
0000
0001
0010
,
0100
0000
0000
1000
0000
0000
0010
0000
0000
0000
0000
0000
0001
0100
0000
0000
0000
0000
0010
0000
0000
0000
0000
0000
,
1000
0100
0000
0000
0000
0000
0010
0000
0000
0001
0000
0000
0010
0000
0000
0100
0000
0000
1000
0000
0000
0010
0000
0000
,
0000
0100
0001
0100
0000
0010
1000
0100
,
1100
0000
0000
0011
0000
0000
0201
0000
0001
0000
0010
0000
,
0320
2030
3200
0302
,
0013
0000
0000
0000
0000
0000
0010
1000
0000
0000
0000
0000
0001
0000
0000
0000
0100
0000
0000
0000
0001
0000
0000
0000
,
2000
0000
3100
0100
0001
0001
0010
0000
,
1010
0100
0001
0011
0001
1000
1010
0000
,
0000
0100
0100
0100
,
0101
0010
1000
1100
1000
0001
0101
0000
,
0000
0010
0010
0010
,
1100
0001
0010
1010
0010
0100
1100
0000
,
0000
0001
0001
0001
,
0011
1000
0100
0101
0100
0010
0011
0000
,
0000
0000
0000
0000
1000
0000
0001
0000
1001
0000
1000
0001
1000
0000
0001
0000
,
1000
0100
0010
0001
0010
0100
1000
0100
,
1000
0100
0010
0001
0010
0100
1000
0100
,
1000
0010
0100
0001
0100
0010
1000
0010
,
1000
0010
0100
0001
0100
0010
0100
0001
,
0010
0100
1000
0100
0010
0001
0010
0100
,
1000
0100
0010
0001
0010
0100
1000
0100
,
0010
0001
0100
1000
0100
0001
0010
0001
,
0100
0000
1000
0000
0010
0000
1000
0000
0100
0000
0001
0100
0001
0000
1000
0000
,
0001
0100
0101
0000
1000
0100
1100
0000
,
1000
0010
1010
0000
0001
0010
0011
0000
,
0001
0100
0101
0000
1000
0100
1100
0000
,
0001
0100
0101
0000
0100
0000
1001
0000
,
1000
0010
1010
0000
0001
0010
0011
0000
,
0001
0100
0101
0000
1000
0100
1100
0000
,
1000
0010
1010
0000
0001
0010
0011
0000
,
1000
0010
1010
0000
0010
0000
1001
0000
,
0220
0000
0000
0330
,
0100
1000
0010
1000
0001
0100
0001
0010
0001
0010
0100
1000
0001
0010
0100
1000
,
0100
1000
0010
1000
0100
1000
0010
1000
0001
0010
0100
0010
0100
1000
0001
0100
,
0001
0100
0001
0100
0010
0100
0010
1000
0010
0100
0001
1000
0100
0010
0001
1000
,
0010
0100
0001
0100
0010
0100
0001
0010
0100
1000
0001
0010
0100
0010
0001
1000
,
0010
0100
0001
0100
0010
0100
1000
0100
0010
0100
0001
0010
0100
1000
0100
0010
,
0100
1000
0100
0010
0100
0001
0100
0010
0100
1000
0100
0010
0001
0010
0100
1000
,
0001
0100
0001
0100
0001
1000
0100
0010
0001
0010
0001
0100
0010
1000
0100
1000
,
0010
0100
0001
1000
0100
0010
0001
1000
0001
0010
0001
1000
0001
1000
0100
0010
,
0001
0000
0000
0000
,
1000
0000
0000
0000
1000
0000
0001
0000
1000
0000
1000
1000
0001
0000
1000
0000
,
0001
0100
0000
0000
0000
0000
0000
0000
0000
0000
0000
0000
0010
0000
0000
0000
0000
0000
1000
0000
0000
0100
0000
0000
,
1000
0000
0000
0000
0000
0000
0010
0000
0000
0000
0000
0000
0001
0100
0000
0000
0000
0000
0010
0000
0000
0000
0000
0000
,
1000
0100
0000
0000
0000
0000
0010
0000
0000
0000
0000
0000
0001
0000
0000
0100
0000
0000
0001
0000
0000
0100
0000
0000
,
0010
0100
0001
0100
1000
0100
0010
0000
,
1000
0010
0000
0000
0000
0000
0100
0000
0000
0000
0000
0000
0001
0000
0000
0010
0000
0000
0001
0000
0000
0000
0000
0000
,
1000
0000
0000
0000
0000
0000
0100
0000
0000
0000
0000
0000
1000
0001
0000
0000
0000
0000
0000
0000
0000
0000
0000
0000
,
0100
0010
0000
0000
0000
0000
1000
0000
0000
0010
0000
0000
0100
0000
0000
0000
0000
0000
0001
0000
0000
0000
0000
0000
,
0010
0000
0001
0100
0010
0000
1000
0000
,
1000
0100
0000
0000
0000
0000
0000
0000
0000
0000
0000
0000
1000
0000
0000
0000
0001
0000
0000
0000
0100
0000
0000
0000
,
0010
0000
1001
0000
,
0000
0000
0000
0000
0000
0000
0001
0100
0000
0000
0000
0000
0010
0000
0000
0000
1000
0000
0000
0000
0001
0000
0000
0000
,
1000
0000
0000
0000
0000
0000
0000
0000
0000
0000
0000
0000
0002
0200
0000
0000
0000
0000
0000
0000
0000
0000
0000
0000
,
2020
0000
0000
0000
,
3333
0000
0000
0000
;

//---------------dance-single - Jinxie----------------
#NOTES:
     dance-single:
     Jinxie:
     Medium:
     6:
     0.381,0.000,0.040,0.100,0.000: // measure 1
0000
0000
0000
0000
,  // measure 2
0000
0000
0000
0000
,  // measure 3
0000
0000
0000
0000
,  // measure 4
0000
0000
0000
0000
,  // measure 5
1000
0000
0100
0000
,  // measure 6
0010
0000
0001
0000
,  // measure 7
0010
0000
0100
0000
,  // measure 8
1000
0000
0010
0000
,  // measure 9
0100
0000
0100
0000
,  // measure 10
0001
0000
0002
0000
,  // measure 11
0000
0003
1000
0000
,  // measure 12
0100
0000
0000
0000
0020
0000
0000
0030
,  // measure 13
0001
1000
1000
0010
,  // measure 14
1000
0000
1000
0001
1000
0000
0001
0000
,  // measure 15
0010
0001
0100
0010
,  // measure 16
0100
0000
0010
1000
0010
0000
1000
0000
,  // measure 17
0100
1000
0100
0010
,  // measure 18
0001
0000
0010
0001
0010
0000
0001
0000
,  // measure 19
0100
0001
0010
0001
,  // measure 20
1000
0000
0010
1000
0010
0000
1000
0000
,  // measure 21
0100
0000
1000
0000
0010
0100
0010
0000
,  // measure 22
1000
0000
1001
0001
,  // measure 23
0010
0000
0001
0000
0100
0010
0100
0000
,  // measure 24
0010
0000
1010
0000
,  // measure 25
1000
0100
1000
0000
1000
0100
1000
0000
,  // measure 26
0010
1000
0001
0001
,  // measure 27
1000
0010
1000
0000
1000
0010
1000
0000
,  // measure 28
1000
0001
0010
0100
,  // measure 29
1000
0100
1000
0000
1000
0100
1000
0000
,  // measure 30
1000
0010
1000
0001
,  // measure 31
0001
0010
0001
0000
0001
0010
0001
0000
,  // measure 32
0001
0100
0010
1000
,  // measure 33
1000
1000
0010
0010
,  // measure 34
1000
0000
1000
0001
1000
0001
1000
0000
,  // measure 35
1000
0010
1000
0100
,  // measure 36
0100
0000
1000
0010
1000
0010
1000
0000
,  // measure 37
1000
0001
0010
0001
,  // measure 38
0100
0000
0001
0100
0001
0100
0001
0000
,  // measure 39
0100
0010
1000
0100
,  // measure 40
1000
0010
1000
0000
1000
0001
1000
0000
,  // measure 41
1000
0100
0010
0001
,  // measure 42
0100
0000
0010
1000
0010
1000
0010
0000
,  // measure 43
1000
0001
0010
0100
,  // measure 44
0100
0000
0010
0100
0010
0100
0010
0000
,  // measure 45
0001
0100
0001
0010
,  // measure 46
0001
0000
0100
0001
0100
0001
0100
0000
,  // measure 47
0010
1000
1000
0100
,  // measure 48
0010
0010
0001
0100
,  // measure 49
0010
1000
0010
0000
1000
0100
1000
0000
,  // measure 50
0001
0010
0001
0000
0100
0000
0100
0000
,  // measure 51
0100
0010
0100
0000
0010
0000
0010
0000
,  // measure 52
1000
0010
1000
0000
0001
0000
0001
0000
,  // measure 53
1000
0100
1000
0000
1000
0000
1000
0000
,  // measure 54
0001
0100
0001
0000
1000
0100
1000
0000
,  // measure 55
0010
0001
0010
0000
0010
1000
0010
0000
,  // measure 56
1000
0001
1000
0000
0001
1000
0001
0000
,  // measure 57
0100
0001
0100
0000
0001
0100
0001
0000
,  // measure 58
2002
0000
0000
0000
,  // measure 59
3003
0000
0000
0000
,  // measure 60
2000
0000
0000
0000
,  // measure 61
3000
0000
0010
0000
,  // measure 62
0200
0000
0000
0000
,  // measure 63
0300
0000
0001
0000
,  // measure 64
0020
0000
0000
0000
,  // measure 65
0030
0000
0001
0000
,  // measure 66
0200
0000
0000
0000
,  // measure 67
0300
0000
0010
0000
,  // measure 68
1000
0000
0001
0000
,  // measure 69
0010
0000
0100
0000
,  // measure 70
0000
1000
1000
0000
,  // measure 71
0100
0000
0010
0000
,  // measure 72
0220
0000
0000
0000
,  // measure 73
0000
0000
0000
0000
0000
0000
0000
0330
;
