#TITLE:Kit.F;
#SUBTITLE:;
#ARTIST:Renard;
#GENRE:Electronic Orchestra;
#TITLETRANSLIT:;
#SUBTITLETRANSLIT:;
#ARTISTTRANSLIT:;
#CREDIT:;
#BANNER:f.png;
#BACKGROUND:f-bg.png;
#LYRICSPATH:;
#CDTITLE:;
#MUSIC:f.ogg;
#OFFSET:0.743;
#SAMPLESTART:13.440;
#SAMPLELENGTH:12.000;
#SELECTABLE:YES;
#BPMS:0.000=320.000,204.000=80.000,220.000=160.110,252.000=319.999;
#STOPS:;
#BGCHANGES:3.125=f.avi=1.000=0=0=1
,516.000=f-bg.png=1.000=0=0=1
;

//---------------dance-single - Renard----------------
#NOTES:
     dance-single:
     Renard:
     Challenge:
     12:
     0.947,1.000,0.351,0.289,0.140:
0000
0000
0000
0000
,
0000
0000
0000
0000
,
0000
0000
0000
0000
,
1001
0000
1000
0000
0010
0100
0000
0100
,
0001
0000
0001
0100
0000
0100
0010
0000
,
1000
0000
0100
0000
0010
0001
0000
0001
,
0010
0000
0010
0001
0000
0001
0010
0000
,
0011
0000
0010
0000
0100
1000
0000
1000
,
0001
0000
0001
0100
0000
0100
0010
0000
,
1000
0000
0001
0000
0100
0010
0000
0010
,
1000
0000
1000
0001
0000
0001
1000
0000
,
1001
0000
1000
0000
0010
0100
0000
0100
,
0001
0000
0001
0010
0000
0010
0100
0000
,
1000
0000
0010
0000
0100
0001
0000
0001
,
1000
0000
1000
0100
0000
0100
0010
0000
,
0110
0000
0100
0000
1000
0010
0000
0010
,
0100
0000
0100
0001
0000
0001
1000
0000
,
0100
0000
0010
0000
0001
0010
0000
0010
,
0100
1000
0001
0100
0010
1000
0100
0010
,
0001
0000
0011
0000
0101
0000
0010
2000
,
0000
0000
3100
0000
1000
0001
1000
0000
,
1000
0000
1100
0000
1010
0000
0100
0002
,
0000
0000
0013
0000
0001
1000
0001
0000
,
0010
0000
1010
0000
0011
0000
1000
0200
,
0000
0000
0301
0000
0100
0010
0100
0000
,
0100
0000
0101
0000
1100
0000
0001
0020
,
0000
0000
1030
0000
0010
0100
0010
0000
,
0100
0000
0101
0000
1100
0000
0001
0020
,
0000
0000
1030
0000
0010
0100
0010
0000
,
0010
0000
1010
0000
0011
0000
1000
0200
,
0000
0000
0301
0000
0100
0010
0100
0000
,
0010
0001
0010
0000
0100
0000
1000
0002
,
0000
0103
0010
1000
,
0100
0010
0100
0000
1000
0000
0001
0100
,
0010
1000
0100
0010
0001
1000
0001
0100
,
0010
0000
1000
0000
0100
0010
0000
0010
,
0100
0000
1000
0000
0010
0100
0000
0100
,
0010
0000
1000
0000
0001
0100
0000
0100
,
0010
0000
1000
0001
1000
0000
0001
0000
,
0100
0000
0001
0000
0010
0100
0000
0100
,
0010
0000
0001
0000
0100
0010
0000
0010
,
0100
0000
0001
0000
1000
0010
0000
0010
,
0100
0000
0001
1000
0001
0000
1000
0000
,
0001
0000
0010
0000
1000
0001
0000
0001
,
1000
0000
0010
0000
0001
1000
0000
1000
,
0001
0000
0010
0000
0100
1000
0000
1000
,
0001
0000
0010
0100
0010
0000
0100
0000
,
1000
0000
0100
0000
0001
1000
0000
1000
,
0001
0000
0100
0000
1000
0001
0000
0001
,
1000
0000
0100
0000
0010
0001
0000
0001
,
1000
0000
0100
0010
0100
0010
0100
0000
,
2000
0000
0000
0000
3200
0000
0000
0000
2300
0000
0000
0020
3000
0000
0200
0030
0002
0000
0000
0300
1003
0000
0100
0000
0020
0000
0000
0000
0031
0000
0010
0002
,
0020
0000
0000
0000
0000
0000
0003
0000
0000
0100
0000
0000
0230
0000
0000
0000
0000
0000
0000
0000
0000
1000
0000
0000
2300
0000
0000
0000
0000
0000
3000
0000
0000
0100
1000
0002
0200
0000
0000
0000
0000
0000
0000
0000
0000
0303
0000
0000
,
0001
0000
0100
0000
0002
0000
0000
0000
0203
0000
0000
2300
0000
0000
3200
0000
0310
0000
1000
0000
0001
0000
0000
0000
2020
0000
0000
0000
0000
0000
3030
0000
,
0100
0000
0000
0000
0001
0000
0010
0000
0100
0000
0000
0000
1000
0000
0010
0000
0100
0001
1000
0100
1000
0001
0010
0100
1000
0001
0100
0001
1000
0100
0010
0001
,
0020
0000
0000
0031
0202
0000
0003
0310
,
0110
0000
0000
0000
1010
0100
1001
0000
,
0011
0000
0100
0000
1010
0000
0000
0000
1001
0000
0000
0100
0000
0000
0010
0000
,
2002
0000
0003
0000
0010
0010
3010
0000
,
0100
0010
1000
0100
0001
0000
0100
0000
,
0100
1000
0010
0001
0010
0000
0100
0000
,
0001
0000
0100
0000
0010
1000
0010
0000
0100
0000
0100
0000
0001
0000
0010
0000
,
0100
0000
0100
0000
1000
0100
0010
0001
1000
0000
0010
0000
0200
0000
0002
0000
,
0000
0000
0000
0000
,
0000
0000
0000
0303
,
1010
0000
0100
0000
0010
0000
1000
0010
,
0000
0100
1001
0010
,
0100
0000
1010
0000
0100
0000
0001
1000
,
0001
1000
0010
0000
,
1100
0000
0001
0000
1000
0000
0100
1000
,
0000
0001
0110
1000
,
0001
0000
1100
0000
0001
0000
0010
0100
,
0010
0100
1000
0000
,
0101
0000
0010
0000
0100
0000
0001
0100
,
0000
0010
1001
0100
,
0010
0000
0101
0000
0010
0000
1000
0001
,
1000
0001
0100
0000
,
0011
0000
1000
0000
0001
0000
0010
0001
,
0000
1000
0110
0001
,
1000
0000
0011
0000
1000
0000
0100
0010
,
0110
0000
1001
0000
,
1000
0000
0100
1000
0100
0000
1000
0010
,
0000
0010
0100
0000
0001
0000
0010
0000
,
0100
0000
1000
0001
1000
0000
0001
0010
,
0000
0010
0001
0000
0100
0000
0010
0000
,
1000
0000
0100
0010
0100
0000
1000
0001
,
0000
0001
0100
0000
0010
0000
1000
0000
,
0100
0000
1000
0001
0010
0000
0001
0100
,
0000
0010
1000
0000
0100
0000
0010
0000
,
0001
0000
0100
0010
0100
0000
0010
1000
,
0000
1000
0100
0000
0010
0000
0001
0000
,
1000
0000
0001
0100
0010
0000
1000
0001
,
0000
0001
0100
0000
0010
0000
1000
0000
,
0100
0000
0010
0001
0010
0000
0010
0100
,
0000
0100
1000
0000
0001
0000
1000
0000
,
0010
0000
0100
0000
0001
0000
1000
0100
,
0000
0100
0010
0000
0010
0001
0010
0001
,
0010
0000
0010
0100
1000
0000
1000
0010
,
0000
0010
0100
0000
0001
0000
0001
0100
,
0010
0000
0010
1000
0100
0000
0100
0010
,
0000
0010
0001
0000
0010
0000
0010
0100
,
1000
0000
1000
0100
0010
0000
0010
0100
,
0000
0100
1000
0000
0010
0000
0100
0001
,
0100
0000
0100
0010
1000
0000
1000
0100
,
0000
0100
1000
0000
0001
0000
0010
0001
,
0100
0000
0100
0010
1000
0000
1000
0100
,
0000
0100
1000
0000
0010
0000
0100
0001
,
0010
0000
0010
0001
0100
0000
0100
0001
,
0000
0001
1000
0000
0100
0000
0100
1000
,
0001
0000
0001
0100
0010
0000
0010
1000
,
0000
1000
0001
0000
0010
0000
0001
1000
,
0100
0000
0100
1000
0010
0000
0010
0100
,
0001
1000
0100
0010
0001
1000
0001
0010
,
0001
1000
0010
1000
0100
0000
0100
1000
,
0000
1000
0010
0000
0100
0000
0001
0100
,
0010
1000
0100
0010
0100
0000
1000
0010
,
0000
0010
0100
0000
0001
1000
0001
0100
,
0010
1000
0100
0010
0001
0000
0001
1000
,
0000
1000
0001
0000
0010
0100
1000
0100
,
1000
0001
0100
0010
1000
0000
1000
0100
,
0000
0100
0010
0000
0001
0010
0100
1000
,
0001
0010
0001
0100
0010
0000
0010
1000
,
0000
1000
0010
0000
0100
0001
1000
0100
,
0010
0100
1000
0001
0010
0000
0010
0001
,
0000
0001
0100
0000
0010
1000
0001
1000
,
0100
0010
0001
1000
0001
0000
0001
1000
,
0000
1000
0100
0000
1000
0001
0100
0001
,
1000
0000
0001
0000
1000
0001
0100
0010
,
1000
0010
0100
0001
1000
0100
0010
0001
,
1001
0000
0000
0000
;

//---------------dance-single - Renard----------------
#NOTES:
     dance-single:
     Renard:
     Hard:
     10:
     0.729,0.962,0.026,0.000,0.000:
0000
0000
0000
0000
,
0000
0000
0000
0000
,
0000
0000
0000
0000
,
1000
0010
0100
0001
,
1000
0000
1000
0001
0000
0001
1000
0000
,
0010
0100
0001
0010
,
0100
1000
0001
0000
,
1000
0010
0100
0001
,
1000
0000
1000
0100
0000
0100
1000
0000
,
0010
0100
0001
0010
,
0001
1000
1001
0000
,
0001
0100
0010
1000
,
0001
0000
0001
1000
0000
1000
0001
0000
,
0100
0010
1000
0100
,
0010
0001
1000
0000
,
0010
0100
0001
1000
,
0100
0000
0100
1000
0000
1000
0010
0000
,
0100
0001
0010
0100
,
1000
0000
0001
1000
0001
0000
1000
0001
,
1000
0000
0010
0000
0100
0000
0001
1000
,
0000
0001
0000
1000
,
0010
0000
0100
0000
0001
0000
0010
0100
,
0000
0010
0100
0000
1000
0000
0010
0000
,
0100
0000
0001
0000
1000
0000
0001
1000
,
0000
0001
0000
1000
,
0010
0000
0100
0000
0001
0000
1000
0100
,
0000
1000
0100
0000
1000
0000
0010
0000
,
0100
0000
0001
0000
0010
0000
0001
1000
,
0000
0001
0000
1000
,
0010
0000
0100
0000
0001
0000
1000
0001
,
0000
1000
0001
0000
1000
0000
0010
0000
,
0100
0000
0001
0000
1000
0000
0100
1000
,
0000
0001
0010
0000
0001
0000
1000
0000
,
0010
0000
0100
0000
0001
0000
1000
0001
,
0000
1000
0010
0000
,
0100
0000
0001
0000
1000
0100
0000
0000
,
1000
0000
0001
0000
0010
0100
0000
0000
,
1000
0000
0010
0000
0100
0001
0000
0000
,
1000
0001
1000
0000
,
0100
0000
1000
0000
0001
0010
0000
0000
,
0100
0000
1000
0000
0010
0100
0000
0000
,
0001
0000
1000
0000
0100
1000
0000
0000
,
0001
0010
0100
0000
,
1000
0000
0010
0000
0100
0001
0000
0000
,
1000
0000
0010
0000
0100
0001
0000
0000
,
1000
0000
0100
0000
0010
0001
0000
0000
,
1000
0010
0100
0000
,
0001
0000
1000
0000
0100
1000
0000
0000
,
0001
0000
0010
0000
0100
1000
0000
0000
,
0010
0000
0100
0000
0001
1000
0000
0000
,
1001
0000
1001
0000
,
0010
0000
1000
0000
0100
0010
0001
0000
,
0100
0000
0010
0000
1000
0100
0010
0000
,
0100
1000
0010
0100
,
0001
0001
1000
1000
0010
0100
0001
0000
,
1000
0000
0000
1000
0001
0000
0000
0010
,
0100
0000
0000
1000
0010
0100
0001
0000
,
0100
0000
0010
0000
1000
0000
0100
0010
,
0001
0000
0010
0000
0100
1000
0001
0000
,
0100
0010
1000
0100
0010
0001
0010
0100
,
1000
0100
0010
0001
0010
0100
1000
0010
,
0100
0001
0100
0010
1000
0010
0100
0001
,
0100
1000
0100
0001
0010
0100
1000
0010
,
0000
0000
0000
0000
,
0000
0000
0000
0000
,
1000
0000
0010
0000
0100
0000
0001
1000
,
0000
0001
0100
0000
0010
0000
1000
0000
,
0100
0000
0010
0000
0001
0000
1000
0001
,
0000
0100
0010
0000
1000
0000
0001
0000
,
1000
0000
0100
0000
0010
0000
0001
1000
,
0000
0001
1000
0000
0010
0000
1000
0000
,
0001
0000
0010
0000
0100
0000
1000
0010
,
0000
1000
0010
0000
1000
0000
0010
0000
,
0100
0000
0100
0001
,
0000
0001
1000
0000
,
1000
0100
0000
0100
,
0010
0000
0001
1000
0001
0000
1000
0000
,
0010
0000
0010
0100
,
0000
0100
0001
0000
,
0001
1000
0000
1000
,
0001
1000
0001
1000
0001
0000
1000
0000
,
0010
0000
0100
0000
0001
0000
1000
0100
,
0000
1000
0001
0000
1000
0000
0010
0000
,
0100
0000
0001
0000
0010
0000
0100
1000
,
0100
0000
1000
0100
1000
0000
0100
1000
,
0100
0000
1000
0000
0010
0000
0100
0001
,
0000
0001
1000
0000
0100
0000
0010
0000
,
0001
0000
1000
0001
1000
0000
0001
1000
,
0001
0000
1000
0001
1000
0000
0001
1000
,
0001
0000
0100
0000
0010
0000
1000
0001
,
0000
1000
0001
0000
1000
0000
0010
0000
,
0100
0000
0001
0000
1000
0000
0001
1000
,
0000
0001
1000
0000
0010
0000
0100
0000
,
0001
0000
0010
0100
0010
0000
0100
0010
,
0100
0000
0010
0100
0010
0000
0100
1000
,
0100
0000
1000
0001
0010
0000
0001
1000
,
0001
0000
1000
0010
1000
0000
0001
1000
,
0001
1000
0001
1000
0001
0000
1000
0000
,
0010
0100
0001
0010
,
0100
0010
0100
0010
0100
0000
1000
0000
,
0010
0100
0001
0000
,
1000
0001
1000
0001
1000
0000
0001
0000
,
0100
0010
1000
0100
,
0010
0001
0010
0001
0010
0000
0100
0000
,
1000
0000
0010
0100
0001
0000
1000
0000
,
0001
1000
0001
1000
0001
0000
1000
0000
,
0010
0100
0001
1000
,
0100
1000
0100
1000
0100
0000
1000
0000
,
0001
0010
0001
0010
0001
0000
1000
0000
,
0010
1000
0010
1000
0001
0000
0100
0000
,
0001
1000
0100
0010
,
0001
0010
0001
0010
0001
0000
0010
0100
,
0010
0100
0010
0000
0100
1000
0100
1000
,
0010
1000
0010
0100
,
0001
1000
0100
0010
,
0100
1000
0010
0100
,
0001
0000
1000
0001
1000
0000
0001
1000
,
0001
1000
0010
0100
,
0001
0010
0100
1000
,
0010
0000
1000
0010
1000
0000
0001
0100
,
0001
0000
1000
0100
1000
0000
0001
0010
,
0001
0010
0100
1000
,
0010
0000
0100
0000
0001
1000
0001
0000
,
1000
0000
0010
1000
0001
0000
0100
0001
,
1000
0000
0001
1000
0100
0000
1000
0000
,
0001
0000
0010
0001
0010
0000
0100
1000
,
0100
0000
1000
0010
1000
0000
0010
0100
,
0010
0000
0100
0001
0100
0000
0001
1000
,
0001
1000
0001
1000
0001
1000
0100
1000
,
0001
0000
0000
0000
;

//---------------dance-single - Renard----------------
#NOTES:
     dance-single:
     Renard:
     Medium:
     9:
     0.590,0.905,0.035,0.018,0.000:
0000
0000
0000
0000
,
0000
0000
0000
0000
,
0000
0000
0000
0000
,
1000
0000
0001
0000
,
0100
0000
0000
0001
0000
0000
1000
0000
,
0100
0000
1000
0000
,
0010
0000
0000
0100
0000
0000
0001
0000
,
1000
0000
0100
0000
,
0010
0000
0000
0001
0000
0000
1000
0000
,
0001
0000
0100
0000
,
0001
0000
0000
1000
0000
0000
0100
0000
,
1000
0000
0010
0000
,
0100
0000
0000
0001
0000
0000
1000
0000
,
0100
0000
1000
0000
,
0001
0000
0000
0100
0000
0000
0001
0000
,
1000
0000
0100
0000
,
1000
0000
0010
0000
,
0100
0000
0000
0001
,
1000
0000
0001
1000
,
0001
1000
0010
0100
,
0001
1000
0100
0010
,
0001
0000
0001
0000
,
1000
0000
1000
0000
,
0001
0010
0100
1000
,
0001
0100
0010
1000
,
0001
0000
0001
0000
,
1000
0001
1000
0000
,
0010
0100
0001
1000
,
0100
0010
0001
1000
,
0001
1000
0010
1000
,
0001
0000
1000
0000
,
1000
0100
0010
0001
,
1000
0010
0100
0001
,
0010
0001
0100
0001
,
1000
0000
0001
0000
,
1000
0000
0001
1000
0001
0000
1000
0000
,
0010
0000
0100
0000
,
0001
0010
0100
1000
,
0010
0100
0001
0000
,
1000
0000
0001
1000
0001
0000
0100
0000
,
0010
1000
0100
0010
,
0001
0000
0001
1000
,
0001
1000
0001
0000
,
1000
0010
1000
0010
1000
0000
0010
0000
,
0100
0000
0001
0000
,
0010
0100
1000
0001
,
0100
0000
0001
0000
,
0100
0001
0100
0001
0100
0000
0010
0000
,
1000
0100
0010
0000
,
0001
1000
0001
1000
,
0001
0000
0100
0000
,
0010
0010
0010
0000
1000
1000
1000
0000
,
0100
0000
0100
0000
0010
0001
0011
0000
,
0101
0010
1000
0100
,
0022
0000
0000
0030
0100
0000
0103
0000
,
1000
0000
0001
0100
0010
0000
0000
0010
,
1000
0000
1000
0100
0010
0001
0100
0010
,
0100
0001
0100
0010
0100
0001
0100
0010
,
1000
0100
0010
0001
1000
0000
0001
0000
,
0100
0000
0001
1000
0100
0010
0001
0010
,
0100
1000
0010
0100
0001
0100
0010
0000
,
0010
1000
0100
0010
0100
1000
0100
0010
,
0100
1000
0010
0100
0001
1000
0001
0000
,
1000
0000
0000
0000
,
0000
0000
0000
0000
,
1000
0000
0001
0000
0100
0000
0000
0010
,
0000
1000
0100
0010
,
0001
0000
0010
0000
0100
0000
0000
1000
,
0000
0010
0100
0001
,
0100
0000
0010
0000
1000
0000
0000
0100
,
0000
1000
0010
0100
,
0001
0000
0010
0000
0100
0000
0000
1000
,
0000
0100
1000
0010
,
0100
0000
0001
0000
0010
0000
0000
0100
,
0000
1000
0010
0100
,
0001
0000
0100
0000
0010
0000
0000
1000
,
0000
0001
1000
0100
,
0010
0000
0100
0000
1000
0000
0000
0010
,
0000
0100
0001
1000
,
0100
0000
1000
0000
,
0001
0000
1000
0001
1000
0000
0001
0000
,
1000
0000
0010
0000
0100
0000
0000
0001
,
0000
1000
0100
0010
,
0001
0000
0010
0000
0100
0000
0000
1000
,
0000
0010
0100
0001
,
1000
0000
0100
0000
0010
0000
0000
0001
,
0000
0010
0100
1000
,
0010
0000
0100
0000
0001
0000
0000
1000
,
0000
0100
1000
0010
,
0100
0000
0001
0000
1000
0000
0000
0001
,
0000
1000
0001
1000
,
0010
0000
0100
0000
0001
0000
0000
1000
,
0000
0001
1000
0010
,
0100
0000
0001
0000
1000
0000
0000
0001
,
0000
1000
0010
0100
,
0001
1000
0001
1000
,
0001
0000
0000
0001
1000
0000
0000
1000
,
0010
0000
0100
0000
0001
0000
1000
0001
,
1000
0001
1000
0010
,
0100
0001
0010
0100
,
1000
0000
1000
0000
,
0001
0000
0010
0000
0100
0000
1000
0001
,
1000
0001
1000
0010
,
0100
0001
1000
0000
,
0001
0000
1000
0000
,
0010
0000
0100
0000
0001
0000
1000
0100
,
1000
0000
0001
0100
0001
0000
1000
0000
,
0100
0000
1000
0001
,
1000
0000
0001
0000
,
1000
0000
0001
0000
0010
0000
0001
1000
,
0001
1000
0010
0000
,
1000
0000
0001
0000
1000
0000
0001
1000
,
0001
0100
0001
0000
,
1000
0000
0000
1000
0100
0000
0000
0100
,
0010
0001
0010
0100
,
1000
0000
0000
1000
0010
0000
0000
0010
,
0100
0000
0000
0100
0001
0000
0100
0000
,
0010
1000
0100
0010
,
0001
0000
0000
0001
1000
0000
0000
1000
,
0010
0000
0000
0010
0100
0000
0001
0000
,
1000
0100
0010
0001
,
1000
0000
0000
1000
0001
0000
0000
0001
,
0100
0000
0000
0100
0010
0000
1000
0000
,
0100
0000
0010
0000
0001
0000
1000
0001
,
1000
0001
0100
0010
,
1000
0000
0000
1000
0100
0000
0000
0100
,
0010
0000
0000
0010
0001
0000
0000
0001
,
1000
0000
0010
0100
0010
0000
0100
0001
,
0100
0000
0001
1000
0001
0000
0000
0000
,
1001
0000
0000
0000
;

//---------------dance-single - Renard----------------
#NOTES:
     dance-single:
     Renard:
     Easy:
     7:
     0.451,0.679,0.053,0.000,0.000: // measure 1
0000
0000
0000
0000
,  // measure 2
0000
0000
0000
0000
,  // measure 3
0000
0000
0000
0000
,  // measure 4
1000
0000
0001
0000
,  // measure 5
0100
0000
0000
0010
0000
0000
1000
0000
,  // measure 6
0100
0000
0010
0000
,  // measure 7
0001
0000
0001
0000
,  // measure 8
1000
0000
0010
0000
,  // measure 9
0100
0000
0000
0001
0000
0000
1000
0000
,  // measure 10
0001
0000
0100
0000
,  // measure 11
0010
0010
0000
0000
1000
0000
0000
0000
,  // measure 12
0100
0000
0010
0000
,  // measure 13
0001
0000
0000
1000
0000
0000
0001
0000
,  // measure 14
0100
0000
0010
0000
,  // measure 15
1000
0000
1000
0000
,  // measure 16
0001
0000
0100
0000
,  // measure 17
0001
0000
0000
1000
0000
0000
0100
0000
,  // measure 18
1000
0000
0010
1000
,  // measure 19
0001
0000
0000
0001
1000
0000
0000
1000
,  // measure 20
0001
1000
0001
1000
,  // measure 21
0001
1000
0001
0000
,  // measure 22
0100
0010
0100
0010
,  // measure 23
0100
0000
0000
0000
,  // measure 24
0010
1000
0010
1000
,  // measure 25
0010
1000
0010
0000
,  // measure 26
0100
0001
0100
0001
,  // measure 27
0100
0000
0001
0000
,  // measure 28
1000
0100
1000
0000
,  // measure 29
0001
0010
0001
0000
,  // measure 30
1000
0010
1000
0000
,  // measure 31
0001
0100
0001
0000
,  // measure 32
1000
0000
1000
0000
,  // measure 33
0100
0000
0010
0000
,  // measure 34
0001
0000
1000
0000
0001
0000
0000
1000
,  // measure 35
0000
0001
1000
0000
,  // measure 36
0010
0100
0001
0000
,  // measure 37
1000
0100
0010
0000
,  // measure 38
0100
1000
0001
0000
,  // measure 39
0010
0100
1000
0000
,  // measure 40
0010
0100
0001
0000
,  // measure 41
1000
0010
0100
0000
,  // measure 42
0010
1000
0100
0000
,  // measure 43
0010
0001
1000
0001
,  // measure 44
1000
0010
0100
0000
,  // measure 45
0001
1000
0100
0000
,  // measure 46
0100
1000
0010
0000
,  // measure 47
0010
0100
0001
0000
,  // measure 48
0010
0001
1000
0001
,  // measure 49
1000
0100
1000
0010
,  // measure 50
1000
0001
0100
0001
,  // measure 51
1000
0000
0001
1000
0001
0000
0000
0000
,  // measure 52
1000
0001
0100
0000
,  // measure 53
0010
0010
1000
0000
,  // measure 54
0011
0100
1010
0100
,  // measure 55
1001
0000
0000
0000
1000
1000
0001
0000
,  // measure 56
0001
0000
0000
0001
0010
0000
0000
0010
,  // measure 57
0100
0000
0000
0100
1000
0000
0001
0000
,  // measure 58
0100
0000
0010
0000
1000
0010
1000
0001
,  // measure 59
1000
0000
0000
0000
0100
1000
0001
0000
,  // measure 60
0100
0000
0000
0000
0001
1000
0100
0000
,  // measure 61
1001
0000
0000
0000
0010
0001
1000
0000
,  // measure 62
1001
0000
0000
0000
0010
1000
0001
1000
,  // measure 63
0010
0000
0010
0000
1000
0001
0100
0010
,  // measure 64
1000
0000
0000
0000
,  // measure 65
0000
0000
0000
0000
,  // measure 66
0001
0000
0000
1000
,  // measure 67
0000
0000
0100
0000
,  // measure 68
0000
0010
0000
0000
,  // measure 69
0001
1000
0001
1000
,  // measure 70
0001
0000
0000
0010
,  // measure 71
0000
0000
0100
0000
,  // measure 72
0000
1000
0000
0000
,  // measure 73
0010
0000
0000
0000
0000
0000
1000
0001
,  // measure 74
1000
0000
0000
0010
,  // measure 75
0000
0000
0100
0000
,  // measure 76
0000
0001
0000
0000
,  // measure 77
1000
0000
0000
0100
,  // measure 78
0010
0000
0000
0001
,  // measure 79
0000
0000
1000
0000
,  // measure 80
0000
0010
0000
0000
,  // measure 81
0100
0000
0000
0000
0000
0000
0001
1000
,  // measure 82
0001
1000
0000
0000
,  // measure 83
0010
0000
0100
0000
,  // measure 84
0001
1000
0000
0000
,  // measure 85
0100
0000
0010
0000
,  // measure 86
0001
1000
0000
0000
,  // measure 87
0010
0000
0100
0000
,  // measure 88
0001
1000
0000
0000
,  // measure 89
0100
0000
0000
0000
1000
0000
0001
1000
,  // measure 90
0001
1000
0000
0000
,  // measure 91
0010
0000
0100
0000
,  // measure 92
0001
1000
0000
0000
,  // measure 93
0100
0000
1000
0000
,  // measure 94
0010
0000
0000
0010
,  // measure 95
1000
0000
0000
1000
,  // measure 96
0001
1000
0100
1000
,  // measure 97
0010
1000
0001
0100
,  // measure 98
0001
1000
0000
0000
,  // measure 99
0001
1000
0000
0000
,  // measure 100
0001
1000
0000
0000
,  // measure 101
0001
1000
0001
1000
,  // measure 102
0010
0100
0000
0000
,  // measure 103
0010
0100
0000
0000
,  // measure 104
0010
0100
0000
0000
,  // measure 105
0010
0100
0010
0100
,  // measure 106
0010
1000
0000
0000
,  // measure 107
0001
0100
0000
0000
,  // measure 108
0001
1000
0000
0000
,  // measure 109
0100
1000
0001
0010
,  // measure 110
0100
1000
0000
0000
,  // measure 111
0001
0010
0000
0000
,  // measure 112
0001
0100
0010
1000
,  // measure 113
0001
0000
0000
0001
1000
0000
0000
1000
,  // measure 114
0010
0100
0001
0000
,  // measure 115
0001
1000
0100
0000
,  // measure 116
0100
1000
0010
0000
,  // measure 117
0010
0000
0010
0000
,  // measure 118
1000
0100
1000
0000
,  // measure 119
0001
0010
0001
0000
,  // measure 120
1000
0010
1000
0000
,  // measure 121
0001
0100
0001
0000
,  // measure 122
0001
1000
0100
1000
,  // measure 123
0100
1000
0100
1000
,  // measure 124
0001
0010
0001
0010
,  // measure 125
0001
0010
0001
0000
,  // measure 126
1000
0010
1000
0010
,  // measure 127
0100
0001
0100
0001
,  // measure 128
1000
0100
0010
0001
,  // measure 129
0010
0100
1000
0000
,  // measure 130
1001
0000
0000
0000
;
