#TITLE:Kingston Vampires;
#SUBTITLE:;
#ARTIST:Pendulum feat. MC Darrison;
#GENRE:Drum N Bass;
#TITLETRANSLIT:;
#SUBTITLETRANSLIT:;
#ARTISTTRANSLIT:;
#CREDIT:;
#BANNER:vampires.png;
#BACKGROUND:vampires-bg.png;
#LYRICSPATH:;
#CDTITLE:;
#MUSIC:vampires.ogg;
#OFFSET:0.000;
#SAMPLESTART:10.745;
#SAMPLELENGTH:12.000;
#SELECTABLE:YES;
#BPMS:0.000=178.025;
#STOPS:;
#BGCHANGES:;

//---------------dance-single - Renard----------------
#NOTES:
     dance-single:
     Renard:
     Hard:
     9:
     0.703,0.681,0.677,0.239,0.159:
0000
0000
0000
0000
,
0000
0000
0000
0000
,
0000
0000
0000
0000
,
0000
0000
0000
0000
0000
0000
1000
0001
,
1000
0000
0010
0010
0100
0100
0001
1000
,
0100
0010
0001
0000
0010
0000
0100
1000
,
0001
0000
0100
0001
1000
0100
1000
0001
,
0100
0001
1000
0001
1000
0000
0000
0000
,
1200
0000
0000
0010
0000
0000
0001
0000
,
0301
0100
1000
0100
0001
0000
0101
0000
,
2100
0000
0000
3020
0000
0000
0032
0000
,
0013
1000
0010
0100
0001
0000
0101
0000
,
2200
0000
0000
0000
0000
0000
0000
3300
,
1000
0100
1000
0100
1000
0100
1000
0100
1000
0000
0000
0000
,
0022
0000
0000
0000
0000
0000
0000
0033
,
0001
0010
0001
0010
0001
0010
0001
0010
0001
0000
0000
0000
,
0021
0000
0100
0000
1000
1000
0000
0000
,
1030
0010
0001
0010
0100
1000
0100
0000
,
0101
0000
0110
0000
0010
1000
0000
1000
,
0100
0010
0001
0010
0100
0000
1100
0000
,
0001
0000
0001
0010
0000
0010
0100
0000
,
0100
1000
0010
0001
0010
1000
0100
0000
,
0101
0000
0000
0110
0000
0000
1100
0000
0000
0000
1000
0000
0000
0010
0000
0000
,
0101
0000
0000
0110
0000
0000
1100
0000
0000
0000
0010
0000
0100
0000
0001
0000
,
0100
0001
0100
0000
0100
0010
0000
0010
,
1000
0100
0010
0001
0010
0100
1000
0010
,
0100
0001
0100
0000
0100
0001
0100
0000
,
0101
0110
1100
0110
,
0101
0000
0010
1000
0100
1000
0001
0010
,
0100
1100
0110
0011
,
1010
0000
0000
1001
0000
0000
1100
0000
0000
0000
0100
0000
0000
0010
0000
0000
,
0011
0000
0000
0101
0000
0000
1001
0000
0000
0000
0000
0000
0001
0100
0001
0000
,
1000
0000
0000
0000
0100
1000
0100
0000
1000
0000
0000
0000
0010
0100
0010
0000
,
0100
0000
0001
0000
1000
0000
0100
0000
0010
0000
0001
0000
0010
0001
0010
0000
,
0100
0000
0000
0000
1000
0100
1000
0000
0010
0000
0000
0000
0100
0000
0100
0001
,
0000
0001
1000
0000
0001
0000
0100
0000
0010
0000
0000
0000
1000
0000
0100
1000
,
0100
0000
0000
0000
1000
0000
0010
0100
0010
0000
0100
0000
0001
0000
1000
0000
,
1001
1010
0101
0011
,
0001
0100
0101
0000
0110
0000
1100
0000
,
1000
0000
0100
0000
0001
0000
0010
0000
0100
0000
0000
0000
1000
0100
1000
0000
,
0100
0000
0000
0000
0010
0001
0010
0000
0001
0000
1000
0000
0001
0000
0000
0000
,
0100
0010
1000
0000
1010
0000
0011
0000
,
0110
0000
0010
1000
0010
0001
0010
0000
,
1010
1100
0011
0101
,
1001
0000
1000
1010
0000
0010
0110
0000
,
0001
0100
1000
0100
0001
0000
0101
0000
,
0001
0010
1000
0000
1000
0010
0000
0010
,
0100
1000
0100
0001
0100
1100
0000
0100
,
2000
0000
0010
0000
0100
0100
0000
3200
,
0010
0000
0320
0001
0000
0001
0002
0030
,
1000
0000
1000
0000
0100
0203
0000
0010
,
0320
0000
1000
2030
0000
0001
3001
0000
,
2010
0000
0100
0000
0001
0001
0000
3002
,
0010
0000
0023
0100
0000
0230
2000
0300
,
0001
0000
0001
0000
0100
3200
0000
0010
,
0320
0000
0001
0032
0000
1000
1003
0000
,
1000
0100
1000
0001
0010
0001
1000
0010
,
1000
0001
0100
0001
1000
0100
0010
0000
,
0011
0000
0000
0110
0000
0000
1010
0000
0000
0000
0110
0000
0000
0011
0000
0000
,
0101
0000
0000
0110
0000
0000
1100
0000
0000
0000
0000
0000
1100
0000
0000
0000
,
1000
0100
0001
0100
0010
0001
0010
1000
,
0010
0100
1000
0010
0100
0001
0100
1000
,
0100
0001
0101
0000
0000
0110
0000
0000
,
1100
0000
0101
0000
0001
0100
1000
0000
,
0100
0001
0010
0001
1000
0010
1000
0100
,
1000
0001
0100
1000
0001
0010
1000
0001
,
0010
0001
0011
0000
0000
1001
0000
0000
,
0101
0000
0011
0000
0010
0001
0100
0000
,
1010
0000
1000
0100
0010
0100
1000
0001
,
0010
0001
0100
0000
0010
0000
1000
0010
,
1000
0000
0010
0100
0001
0010
0001
0100
,
0010
1000
0010
0100
0000
0001
0100
0010
,
1000
0000
0000
0000
;

//---------------dance-single - Renard----------------
#NOTES:
     dance-single:
     Renard:
     Challenge:
     11:
     0.923,1.000,0.329,0.139,1.000:
0000
0000
0000
0000
,
0000
0000
0000
0000
,
0000
0000
0000
0000
,
0000
0000
0000
0000
0000
0000
0000
0000
0000
0000
0000
0000
0001
1000
0001
1000
,
0001
1000
0100
1000
0001
1000
0100
1000
,
0010
0000
1000
0000
0001
0000
1000
0000
0001
0000
1000
0000
0001
0100
0001
0100
,
0001
0100
0001
1000
0001
0010
0001
1000
,
0001
0100
0001
1000
0001
0000
0000
0000
,
0001
1000
0001
1000
0001
1000
0001
1000
0001
1000
0001
1000
0001
1000
0001
1000
,
0010
1000
0001
1000
0010
1000
0001
1000
0001
1000
0010
1000
0001
1000
0001
1000
,
0001
1000
0001
1000
0001
1000
0001
1000
0001
1000
0001
1000
0001
1000
0001
1000
,
0010
1000
0001
1000
0010
1000
0001
1000
0001
1000
0001
0000
1000
0000
0000
0000
,
0010
1000
0001
1000
0010
1000
0001
1000
0001
1000
0010
1000
0001
1000
0001
1000
,
0010
0000
0000
0000
1000
0000
0000
0000
0001
0000
0000
0000
0010
0000
0000
0000
0001
0000
0000
0000
1000
0000
0000
0000
0010
0000
0000
1000
0000
0000
0010
0000
0000
1000
0000
0000
0010
0000
0000
0000
0000
0000
1000
0000
0000
0000
0000
0000
,
0010
1000
0001
1000
0010
1000
0001
1000
0001
1000
0010
1000
0001
1000
0001
1000
,
0010
0000
1000
0000
0001
0000
0010
0000
0001
0000
1000
0000
0010
0000
0000
0010
0000
0000
0010
0000
0000
0010
0000
0000
,
1000
0001
1000
0001
1000
0001
1000
0001
1000
0001
1000
0001
1000
0001
1000
0001
,
0100
0001
1000
0001
0100
0001
1000
0001
1000
0001
0100
0001
1000
0001
1000
0001
,
1000
0001
1000
0001
1000
0001
1000
0001
1000
0001
1000
0001
1000
0001
1000
0001
,
0100
0001
1000
0001
0100
0001
1000
0001
1000
0001
1000
0000
0001
0000
0000
0000
,
1000
0000
0011
0000
0000
1100
0000
0000
,
1001
0000
1001
0000
0000
0110
0000
0000
,
1000
0000
1000
0001
0000
0001
1000
0000
0000
0000
0001
0000
0000
0100
0000
0000
,
0010
0000
0010
1000
0000
1000
0010
0000
0000
0000
0010
0000
0001
0000
0010
0000
,
0100
0001
0100
0001
0100
0000
0010
0000
1000
0000
0100
1000
0100
1000
0100
0000
,
1000
0000
0010
0000
0100
0001
0100
0001
0100
0000
0001
0000
1000
0000
0100
1000
,
0100
1000
0100
0000
0010
0001
0010
0000
0001
0100
0001
0000
1000
0010
1000
0000
,
0001
0000
0001
0100
0000
0100
0001
0000
1000
0000
0100
0000
1100
0000
0000
0000
,
0010
1000
0010
1000
0010
0000
0100
0000
0001
0000
0010
0001
0010
0001
0010
0000
,
0001
0000
0100
0000
0010
1000
0010
1000
0010
0000
1000
0000
0001
0000
0010
0000
,
0011
0000
0000
0110
0000
0000
1010
0000
0000
0000
0110
0000
0000
0011
0000
0000
,
0101
0000
0000
0110
0000
0000
1100
0000
0000
0000
0000
0000
0100
0001
0100
0001
,
0100
0000
0010
0000
1000
0010
1000
0010
1000
0000
0010
0000
1000
0100
1000
0100
,
1000
0000
0001
0000
0010
0000
0100
0000
1000
0001
1000
0000
0001
1000
0001
0000
,
0100
0001
0100
0001
0100
0000
0010
0000
1000
0100
1000
0100
1000
0000
1000
0001
,
0000
0001
1000
0100
1000
0000
0001
0100
0001
0000
0000
0000
1001
0000
0000
0000
,
0110
0000
0000
0000
1000
0010
1000
0010
1000
0000
0001
0000
0100
0001
0100
0001
,
0100
0000
0001
0000
1000
0000
0100
0010
0100
0000
0010
0001
0010
0000
0001
0100
,
0001
0000
1000
0000
0010
0000
0100
0001
0100
0000
0010
0000
1000
0100
1000
0000
,
0001
0000
0010
0000
0100
1000
0100
0000
1000
0000
0010
0100
0010
0000
0100
0000
,
0001
1000
0001
0000
1000
0000
0100
1000
0100
0000
1000
0000
0001
0010
0001
0100
,
0010
0000
0110
0000
0110
0000
0000
0000
1000
0000
0010
1000
0010
0000
1000
0000
,
0001
0000
0100
0001
0100
0000
0001
0000
1000
0000
0100
1000
0100
0000
1000
0000
,
0001
0010
0100
1000
0001
0000
0000
0000
1000
0100
0010
0001
1000
0000
0001
0000
,
0100
0001
1000
0001
0100
0001
1000
0001
1000
0001
0100
0001
1000
0001
1000
0000
,
0001
0000
0001
0000
0100
0000
0100
0000
0010
1000
0010
0000
0202
0000
0000
0000
,
0000
1313
0000
0001
1000
0000
2200
0000
,
0000
3311
0000
0000
1001
0000
0000
0000
,
2000
0000
0000
0000
,
3200
0000
0000
0000
,
0302
0000
0000
0000
,
0023
0000
0000
0000
,
2030
0000
0000
0000
,
3020
0000
0000
0000
,
0032
0000
0000
0000
,
0203
0000
0000
0000
,
1300
0000
1010
0000
0000
0101
0000
0000
,
0011
0000
0110
0000
0000
1100
0000
0000
,
0001
0000
0000
0100
0000
0000
0010
0000
0000
0000
1000
0000
0000
0100
0000
0000
,
0010
0000
0000
0001
0000
0000
1000
0000
0000
0000
0000
0000
1001
0000
0000
0000
,
0010
1000
0001
0100
0010
0000
1000
0010
0100
0001
1000
0000
0001
0100
0001
0000
,
1000
0100
1000
0010
1000
0000
0001
0100
0001
0010
0001
0000
1000
0100
1000
0001
,
0010
0001
0010
0001
0010
0000
0100
1000
0100
1000
0100
0000
1000
0001
1000
0000
,
1001
0110
2002
3003
,
1000
0100
0010
0001
1000
0000
0001
0010
0100
1000
0001
0000
1000
0010
0100
0001
,
1000
0001
0100
0010
1000
0000
0001
0100
0001
1000
0100
0000
1000
0010
1000
0000
,
0010
0000
0000
0100
0000
0000
0001
0000
0000
0000
0010
0000
0010
0100
0000
0100
,
1000
0000
1000
0001
0000
0001
1000
0000
0000
0000
0010
0000
0100
0010
0100
0000
,
0110
0000
0010
0010
0010
1000
1000
1000
,
0001
0000
0001
0000
0100
0000
0000
0000
0001
0000
0000
0000
1000
0100
0010
0001
,
1000
0000
0001
0001
0001
0100
0100
0100
,
0010
0000
1000
0000
0010
0000
1000
0000
0000
0000
0000
0000
0001
0100
0001
0100
,
0001
0000
0000
0000
;

//---------------dance-single - Renard----------------
#NOTES:
     dance-single:
     Renard:
     Medium:
     6:
     0.427,0.538,0.309,0.219,0.000:
0000
0000
0000
0000
,
0000
0000
0000
0000
,
0000
0000
0000
0000
,
0000
0000
0000
0000
,
1000
0000
0001
0100
0001
0000
0001
0000
,
1000
1000
0200
0000
,
0310
0000
0000
0001
0010
0001
0010
0000
,
0100
0100
1000
0000
,
0002
0000
0000
0100
,
0203
0000
0000
0010
,
0320
0000
0000
1000
,
2030
0000
3200
0000
,
0310
0001
1000
0001
,
0100
0001
0100
0001
0100
0000
0000
0000
,
0020
0000
2030
0000
,
3001
0100
0001
0100
0001
0000
1000
0000
,
0200
0000
0000
0010
,
0320
0000
0000
0001
,
0032
0000
0000
1000
,
2003
0000
3020
0000
,
0130
0000
0000
0001
0000
0000
1000
0000
,
0100
0000
0000
0010
0000
0000
0001
0000
,
0010
0100
1000
0010
,
0100
0000
0001
1000
0001
0000
0100
0000
,
0010
0000
1000
0000
0000
0100
0000
0000
,
0010
0000
0001
0000
0010
0000
0100
1000
,
0100
0000
1000
0000
0000
0010
0000
0000
,
0101
1010
1100
0011
,
0101
0000
1001
0000
0000
1010
0000
0000
,
0101
1001
1100
0011
,
1000
0001
0100
0010
,
1000
0000
0000
0000
0001
0000
1000
0100
,
1000
0000
0001
0010
0001
0000
1000
0010
,
1000
0000
0001
0000
0100
0000
0001
1000
,
0001
0000
1000
0100
1000
0000
0001
0010
,
0001
0000
1000
0000
0001
0000
1000
0001
,
1000
0000
0010
0100
0010
0000
1000
0001
,
1000
0000
0010
0100
0010
0000
1000
0000
,
0100
0000
0010
0000
0001
0000
0001
0010
,
0100
1000
0100
0010
0001
0000
1000
0000
,
0001
1000
0001
1000
,
0010
0100
0100
0000
0010
0000
1000
0000
,
0100
0010
0001
0000
0011
0000
0000
0000
,
1001
0000
1010
0101
,
1001
0000
0000
1100
0000
0000
0011
0000
,
0101
1010
1001
1001
,
0000
1000
0000
0100
0010
0001
0010
0000
,
0000
0100
0000
0000
1001
0000
0000
0000
,
2000
0000
0000
0000
,
3020
0000
0000
0000
,
0230
0000
0000
0000
,
0302
0000
0000
0000
,
2003
0000
0000
0100
,
3200
0000
0000
0010
,
0320
0000
0000
0001
,
0032
0000
2003
0000
,
3010
0000
0100
0000
0000
1001
0000
0000
,
1010
0000
0101
0000
0000
1100
0000
0000
,
0001
0000
0000
0000
0000
0010
0000
0100
,
1000
0000
0000
0000
0000
0010
0000
0100
,
0001
0000
1000
0000
0000
0100
0000
0000
,
0010
0010
0010
0010
,
0001
0000
0100
0000
0000
0010
0000
1000
,
0010
1001
0101
1010
,
1100
0000
0010
0000
0001
0100
0000
0010
,
1000
0001
1000
0000
0001
0000
0100
0000
,
0010
0000
1000
0100
0000
0010
0001
0010
,
0100
0000
1000
0010
0000
0100
0001
0000
,
1000
0001
0100
0001
,
1000
0000
0100
0000
0000
0000
1000
0001
,
1000
0010
0100
0001
,
1000
0100
0010
0001
0000
0000
0001
1000
,
0001
0000
0000
0000
;

//---------------dance-single - Renard----------------
#NOTES:
     dance-single:
     Renard:
     Easy:
     4:
     0.393,0.538,0.299,0.100,0.000: // measure 1
0000
0000
0000
0000
,  // measure 2
0000
0000
0000
0000
,  // measure 3
0000
0000
0000
0000
,  // measure 4
0000
0000
0000
0000
,  // measure 5
1000
1000
1000
1000
,  // measure 6
0100
0100
0010
0010
,  // measure 7
0001
0001
0001
0001
,  // measure 8
0010
0100
1001
0000
,  // measure 9
2000
0000
0000
0000
,  // measure 10
3020
0000
0100
0100
,  // measure 11
0230
0000
0000
0000
,  // measure 12
0302
0000
0010
0010
,  // measure 13
0023
0000
0000
0000
,  // measure 14
0130
1000
0010
0100
,  // measure 15
0002
0000
0000
0000
,  // measure 16
0013
0100
1000
0010
,  // measure 17
0100
0100
0001
1000
,  // measure 18
0100
0100
0010
0001
,  // measure 19
0010
0010
0100
1000
,  // measure 20
0010
0010
0100
0001
,  // measure 21
2000
0000
3002
0000
,  // measure 22
0100
0100
0100
0100
,  // measure 23
0203
0000
0320
0000
,  // measure 24
1030
0010
0100
0001
,  // measure 25
1000
0100
0010
0001
,  // measure 26
0010
0010
0100
1000
,  // measure 27
0010
0010
0100
0001
,  // measure 28
1000
0100
1100
0000
,  // measure 29
0011
0000
0101
0000
,  // measure 30
1010
0000
1001
0000
,  // measure 31
1000
1000
0001
0001
,  // measure 32
0100
0010
1000
0010
,  // measure 33
1010
0001
0101
1000
,  // measure 34
1100
0011
1001
1000
,  // measure 35
0010
0100
0001
1000
,  // measure 36
0100
0010
0001
0010
,  // measure 37
0100
0100
1000
1000
,  // measure 38
0010
0010
0100
0100
,  // measure 39
0001
1000
0100
1000
,  // measure 40
0010
0100
0001
0010
,  // measure 41
0110
0010
1001
0010
,  // measure 42
1001
0100
1001
1000
,  // measure 43
1100
0100
0110
0010
,  // measure 44
0011
1001
1010
1001
,  // measure 45
0001
0000
0100
0000
,  // measure 46
0010
0010
1000
0100
,  // measure 47
0000
0010
0001
0100
,  // measure 48
0000
0010
1000
0100
,  // measure 49
1000
1000
1000
1000
,  // measure 50
0001
0001
0000
0001
,  // measure 51
0100
0100
0100
0100
,  // measure 52
0010
0010
0000
0010
,  // measure 53
1000
1000
1000
1000
,  // measure 54
0100
0100
0000
0100
,  // measure 55
0010
0010
0010
0010
,  // measure 56
0001
0001
0000
0001
,  // measure 57
1000
0001
0000
0100
,  // measure 58
0010
1000
0000
0001
,  // measure 59
0100
0001
1000
0100
,  // measure 60
0010
0001
1001
1010
,  // measure 61
0101
1001
0000
1100
,  // measure 62
0010
0001
0100
0010
,  // measure 63
1000
0101
0000
1010
,  // measure 64
1100
0000
0010
0001
,  // measure 65
0100
0100
0001
1000
,  // measure 66
0100
0010
0010
0010
,  // measure 67
0001
1000
0010
0100
,  // measure 68
0001
1000
0100
0010
,  // measure 69
0001
0001
1000
1000
,  // measure 70
0001
0001
0100
0100
,  // measure 71
0001
1000
0100
0010
,  // measure 72
0001
1000
0010
0100
,  // measure 73
1001
0000
0000
0000
;
