#TITLE:King of the Ring;
#SUBTITLE:;
#ARTIST:Arcade;
#TITLETRANSLIT:;
#SUBTITLETRANSLIT:;
#ARTISTTRANSLIT:;
#CREDIT:;
#BANNER:king.png;
#BACKGROUND:king-bg.png;
#LYRICSPATH:;
#CDTITLE:;
#MUSIC:king.ogg;
#OFFSET:0.000;
#SAMPLESTART:74.731;
#SAMPLELENGTH:10.200;
#SELECTABLE:YES;
#BPMS:0.000=166.910;
#STOPS:;
#BGCHANGES:32.000=flowerspinner=0.600=1=0=1,
60.000=spin1=2.000=0=0=1,
61.000=spin2=2.000=0=0=1,
61.750=spin3=2.000=0=0=1,
62.000=spin4=2.000=0=0=1,
62.500=spin3=2.000=0=0=1,
63.000=spin2=2.000=0=0=1,
63.500=spin1=2.000=0=0=1,
64.000=flowerspinner2=2.000=0=0=1,
92.000=vid.avi=1.000=0=0=1,
92.500=flowerspinner=1.000=0=0=1,
93.000=vid.avi=1.000=0=0=1,
93.500=flowerspinner=1.000=0=0=1,
94.000=vid.avi=1.000=0=0=1,
94.500=flowerspinner=1.000=0=0=1,
95.000=vid.avi=1.000=0=0=1,
95.500=flowerspinner=1.000=0=0=1,
96.000=vid.avi=2.000=1=0=1,
103.500=flowerspinner=1.000=0=0=1,
103.750=vid.avi=1.000=0=0=1,
104.000=flowerspinner=1.000=0=0=1,
104.500=vid.avi=2.000=1=0=1,
108.000=flowerspinner=1.000=0=0=1,
108.500=vid.avi=1.000=1=0=1,
109.000=flowerspinner=1.000=0=0=1,
109.500=vid.avi=1.000=1=0=1,
110.000=flowerspinner=1.000=0=0=1,
110.500=vid.avi=1.000=1=0=1,
111.000=flowerspinner=1.000=0=0=1,
111.500=vid.avi=1.000=1=0=1,
112.000=spin1=1.000=0=0=1,
113.000=spin2=1.000=0=0=1,
114.000=spin3=1.000=0=0=1,
114.500=spin4=1.000=0=0=1,
115.000=spin3=1.000=0=0=1,
116.000=vid.avi=2.000=0=0=1,
120.000=spin1=1.000=0=0=1,
121.000=spin3=1.000=0=0=1,
122.000=spin1=1.000=0=0=1,
122.500=spin2=1.000=0=0=1,
123.000=spin4=1.000=0=0=1,
123.500=spin3=1.000=0=0=1,
124.000=vid.avi=2.000=0=0=1,
128.000=spin1=1.000=0=0=1,
129.000=spin2=1.000=0=0=1,
130.000=spin3=1.000=0=0=1,
130.250=spin2=1.000=0=0=1,
130.500=spin1=1.000=0=0=1,
131.000=spin3=1.000=0=0=1,
131.500=spin4=1.000=0=0=1,
132.000=vid.avi=2.000=0=0=1,
136.000=spin1=1.000=0=0=1,
136.500=spin4=1.000=0=0=1,
137.000=spin3=1.000=0=0=1,
137.500=spin2=1.000=0=0=1,
138.000=spin3=1.000=0=0=1,
138.500=spin1=1.000=0=0=1,
139.000=spin4=1.000=0=0=1,
139.250=spin3=1.000=0=0=1,
139.500=spin2=1.000=0=0=1,
139.750=spin1=1.000=0=0=1,
140.000=vid.avi=2.000=0=0=1,
144.000=spin2=1.000=0=0=1,
145.000=spin3=1.000=0=0=1,
146.000=spin1=1.000=0=0=1,
146.500=spin4=1.000=0=0=1,
147.000=spin1=1.000=0=0=1,
148.000=vid.avi=2.000=0=0=1,
152.000=spin4=1.000=0=0=1,
152.500=spin3=1.000=0=0=1,
153.000=spin1=1.000=0=0=1,
153.500=spin4=1.000=0=0=1,
154.000=spin2=1.000=0=0=1,
154.250=spin3=1.000=0=0=1,
154.500=spin4=1.000=0=0=1,
155.000=spin1=1.000=0=0=1,
155.500=spin4=1.000=0=0=1,
156.000=vid.avi=2.000=0=0=1,
160.000=spin1=1.000=0=0=1,
160.500=spin4=1.000=0=0=1,
161.000=spin2=1.000=0=0=1,
161.500=spin4=1.000=0=0=1,
162.000=spin3=1.000=0=0=1,
162.500=spin2=1.000=0=0=1,
163.000=spin1=1.000=0=0=1,
163.500=spin2=1.000=0=0=1,
164.000=vid.avi=2.000=0=0=1,
168.000=spin4=1.000=0=0=1,
168.500=vid.avi=1.000=0=0=1,
169.000=spin3=1.000=0=0=1,
169.500=vid.avi=1.000=0=0=1,
170.000=spin2=1.000=0=0=1,
170.500=vid.avi=1.000=0=0=1,
171.000=spin1=1.000=0=0=1,
171.500=vid.avi=1.000=0=0=1,
172.000=flowerspinner=1.000=0=0=1,
172.500=vid.avi=1.000=0=0=1,
173.000=flowerspinner=1.000=0=0=1,
173.500=vid.avi=1.000=0=0=1,
174.000=flowerspinner2=1.000=0=0=1,
174.500=flowerspinner=1.000=0=0=1,
175.000=flowerspinner2=1.000=0=0=1,
175.500=flowerspinner=1.000=0=0=1,
176.000=king-bg.png=0.100=1=0=1,
192.000=flowerspinner=0.700=1=0=1,
204.000=king-bg.png=1.000=0=0=1,
204.500=vid.avi=1.000=0=0=1,
205.000=king-bg.png=1.000=0=0=1,
205.500=vid.avi=1.000=0=0=1,
206.000=king-bg.png=1.000=0=0=1,
206.250=vid.avi=1.000=0=0=1,
206.500=king-bg.png=1.000=0=0=1,
206.750=vid.avi=1.000=0=0=1,
207.000=king-bg.png=1.000=0=0=1,
207.500=vid.avi=1.000=0=0=1,
208.000=flowerspinner2=2.000=0=0=1,
240.000=king-bg.png=0.100=1=0=1,
272.000=vid.avi=0.700=1=0=1,
99999=-nosongbg-=1.000=0=0=0 // don't automatically add -songbackground-
;

//---------------dance-single - Renard----------------
#NOTES:
     dance-single:
     Renard:
     Hard:
     8:
     0.564,0.558,0.338,0.097,0.000: // measure 1
0000
0000
0000
0000
,  // measure 2
0000
0000
0000
0000
,  // measure 3
0000
0000
0000
0000
,  // measure 4
0000
0000
0000
0000
,  // measure 5
2000
0000
3002
0000
0103
0010
1000
0100
,  // measure 6
0010
0000
0011
0000
,  // measure 7
0210
0000
2300
3020
,  // measure 8
0230
0000
0000
0000
0302
0000
0000
0003
,  // measure 9
1000
0100
1000
0100
0010
0100
0010
0100
,  // measure 10
0010
0001
0010
0001
0100
0001
0100
0001
,  // measure 11
0100
0010
0100
0010
1000
0010
1000
0010
,  // measure 12
1000
0100
0010
0001
0010
0100
1000
0001
,  // measure 13
0010
0001
0010
0001
0010
0100
0010
0100
,  // measure 14
1000
0100
1000
0100
1000
0010
1000
0010
,  // measure 15
0100
0001
0100
0001
1000
0001
1000
0001
,  // measure 16
1100
0011
1001
1010
,  // measure 17
0100
0001
1000
0100
0010
0001
0010
0000
,  // measure 18
0100
1000
0010
0100
0001
0000
1001
0000
,  // measure 19
1000
0100
0010
0001
0010
0100
1000
0000
,  // measure 20
0010
0100
0101
0000
0100
0010
1010
0000
,  // measure 21
1000
0100
0010
0001
0010
0100
1000
0000
,  // measure 22
0010
1000
0001
0100
0010
0000
1001
0000
,  // measure 23
1000
0100
0010
0001
0010
0100
1000
0000
,  // measure 24
0010
1000
1010
0000
0001
0100
0101
0000
,  // measure 25
2000
0000
0000
0000
,  // measure 26
3200
0000
0000
0000
,  // measure 27
0320
0000
0000
0000
,  // measure 28
0031
0101
1010
1001
,  // measure 29
1000
0100
1000
0010
1000
0001
0001
0001
,  // measure 30
1000
0100
0010
0001
0010
0100
0100
0100
,  // measure 31
1000
0010
1000
0100
1000
0001
0001
0001
,  // measure 32
0010
0001
0100
0001
1000
0010
0010
0010
,  // measure 33
1000
0100
0010
0001
0010
0100
0100
0100
,  // measure 34
1000
0010
0100
0001
1000
0010
1001
0000
,  // measure 35
1000
0010
0100
0001
0010
0100
0100
0100
,  // measure 36
1000
0010
0100
0001
1000
0000
1001
0000
,  // measure 37
1000
0100
0010
0001
0010
0100
0100
0100
,  // measure 38
0010
0001
1000
0010
0100
0001
0001
0001
,  // measure 39
1000
0100
0010
0001
0010
0100
0100
0100
,  // measure 40
1000
0010
0100
0001
1000
0100
0100
0100
,  // measure 41
1000
0000
1001
0000
0010
0100
0110
0000
,  // measure 42
1000
0000
1001
0000
0001
0010
0011
0000
,  // measure 43
0001
0000
1001
0000
0010
1000
1001
0000
,  // measure 44
1000
0100
0010
0001
0010
0010
0010
0010
,  // measure 45
0001
0000
0000
0000
,  // measure 46
1000
0000
0000
0000
,  // measure 47
0010
0000
0000
0000
,  // measure 48
0100
0000
0001
0000
,  // measure 49
1000
0100
1000
0000
0000
0001
0010
0000
,  // measure 50
0001
0100
0001
0000
0000
1000
0010
0000
,  // measure 51
1000
0100
1000
0000
0000
0001
0010
0000
,  // measure 52
0011
0110
1100
1001
,  // measure 53
1000
0100
0010
0001
0010
0100
1000
0010
,  // measure 54
0000
0010
0100
0001
1000
0000
1001
0000
,  // measure 55
1000
0100
0010
0100
0010
0100
0010
0001
,  // measure 56
1000
0010
0000
1001
0000
1100
0000
1000
,  // measure 57
0001
0010
0100
1000
0010
0100
0001
1000
,  // measure 58
0100
0000
0100
1000
0000
1000
0010
0100
,  // measure 59
0001
1000
0100
0010
0000
0010
0001
0010
,  // measure 60
0100
1000
0010
0100
0000
0100
0001
0000
,  // measure 61
1100
0000
0011
0000
0001
1000
0010
0100
,  // measure 62
0001
0000
1000
0000
,  // measure 63
0100
0000
1000
0000
0010
0100
0001
0000
,  // measure 64
1000
0100
0000
0011
0000
1100
0000
0000
,  // measure 65
1000
0010
0100
0000
0001
1000
0001
0100
,  // measure 66
0000
0001
1000
0100
0010
0000
0001
0000
,  // measure 67
0010
0100
0000
1000
0000
0010
0000
0100
,  // measure 68
0001
1000
0000
0100
0000
0010
0000
0000
,  // measure 69
1001
0000
0000
0000
;

//---------------dance-single - Renard----------------
#NOTES:
     dance-single:
     Renard:
     Medium:
     6:
     0.352,0.460,0.155,0.077,0.000:
0000
0000
0000
0000
,
0000
0000
0000
0000
,
0000
0000
0000
0000
,
0000
0000
0000
0000
,
0000
0000
0000
0000
,
0000
0000
0000
0000
,
0000
0000
0000
0000
,
0000
0000
0000
0000
,
1000
0000
1000
0000
0010
0000
0100
0001
,
1000
0000
1000
0000
,
0001
0000
0001
0000
0010
0000
0100
1000
,
0001
0000
0001
0000
,
1000
0000
1000
0000
0010
0000
0100
0001
,
1000
1000
0001
0000
,
0010
0000
0000
0100
1000
0000
0000
0001
,
0010
1001
1010
1001
,
1000
0000
0001
0100
0001
0000
1000
0000
,
0100
0000
0010
0001
0010
0000
0100
0000
,
1000
0000
0010
1000
0010
0000
1000
0000
,
0001
0001
1000
1000
,
0001
0000
0010
0100
0010
0000
0100
0000
,
1000
0000
0001
1000
0001
0000
1000
0000
,
0010
1000
0010
0000
1000
0000
0001
0100
,
0001
0000
1000
0000
0001
1000
0001
0000
,
1000
0000
0000
0000
,
0001
0000
0000
0000
0000
0000
0000
0001
,
1000
0000
0000
0000
,
0110
1010
0101
1001
,
1000
0100
0000
0100
0000
0100
0000
0100
,
0000
0010
0000
0010
0000
0010
0000
0010
,
0000
0001
0000
0001
0000
0001
0000
0001
,
0000
0100
0000
0100
0000
0100
0000
0100
,
0010
1000
0000
1000
0000
1000
0000
1000
,
0100
0010
0000
0010
0000
0010
0000
0010
,
0001
0100
0000
0100
0000
0100
0000
0100
,
0010
1000
0000
1000
0000
1000
0000
1000
,
0100
1000
0000
1000
0000
1000
0000
1000
,
0010
0100
0000
0100
0000
0100
0000
0100
,
0001
0010
0000
0010
0000
0010
0000
0010
,
0001
0100
0000
0100
0000
0100
0000
0100
,
0001
1000
0000
1000
0100
1000
0000
1000
,
0001
1000
0000
1000
0010
1000
0000
1000
,
0100
0010
0000
0010
0001
0100
0000
0100
,
0001
1000
1001
1010
,
1002
0000
0000
0000
,
0203
0000
0000
0000
,
0320
0000
0000
0000
,
2030
0000
0200
0000
,
0020
0000
0000
0030
,
0002
0000
0000
0000
0000
0000
0000
0003
,
0020
0000
0000
0000
0000
0000
0000
0030
,
0001
0010
0011
3311
,
1000
0000
1000
0000
0010
0100
0001
0100
,
0000
0001
1000
0100
,
0010
0001
0001
1000
,
0001
1000
0001
0100
,
0010
0000
1000
0000
0100
0010
0001
0010
,
0000
0100
1000
0010
,
0100
0001
0000
1000
0000
0001
0000
0000
,
1000
0010
0000
0100
0000
0001
0000
0000
,
1100
0000
0011
0000
0001
0100
0010
1000
,
0000
0000
0000
0000
,
0000
0001
1000
0100
,
1000
0010
0000
0100
0000
0001
0000
0000
,
1000
0000
0100
0000
1000
0010
0100
0001
,
0000
0000
0000
0000
,
1000
0001
0000
0100
0000
0010
0000
0000
,
1000
0100
0000
0010
0000
1001
0000
0000
,
0110
0000
0000
0000
;

//---------------dance-single - Renard----------------
#NOTES:
     dance-single:
     Renard:
     Easy:
     3:
     0.298,0.460,0.184,0.077,0.000:
0000
0000
0000
0000
,
0000
0000
0000
0000
,
0000
0000
0000
0000
,
0000
0000
0000
0000
,
2000
0000
0000
0000
,
3002
0000
0000
0000
,
0203
0000
0000
0000
,
0320
0000
2030
0000
,
0001
0001
0001
0000
,
0010
0010
0010
0000
,
0100
0100
0100
0000
,
0010
0010
3001
0000
,
0002
0000
0010
0010
,
0100
0000
1000
1000
,
0010
0000
0100
0103
,
0101
0000
1001
0000
,
1100
0000
0000
0100
0010
0000
0001
0000
,
0100
0000
0000
0010
1000
0000
0000
0000
,
0010
0000
0000
0100
0001
0000
1000
0000
,
0100
0000
0000
0010
0001
0000
0000
0000
,
1000
0000
0000
0001
0100
0000
0010
0000
,
1000
0000
1001
0000
,
0001
0000
0000
1000
0100
0000
0010
0000
,
0001
1001
1001
1001
,
1000
0000
0000
0000
,
1000
0000
0000
0000
,
0010
0000
0000
0000
,
0010
0100
0001
1000
,
1001
0000
1000
0010
,
0110
0000
0100
0001
,
0011
0000
0010
0100
,
0000
1100
0000
1010
0000
1001
0000
0100
,
0001
0000
1000
0100
,
0010
0000
0001
0100
,
0010
0000
1000
0100
,
0010
0000
0000
0000
0001
0000
0100
0001
,
0100
0010
0000
0010
0000
1000
0000
1000
,
0000
0100
0000
0100
0000
1000
0000
1000
,
0000
0001
0000
0001
0000
0100
0000
0100
,
0000
0001
0000
0001
0000
0001
0000
0001
,
1000
0100
0000
0100
0000
0100
0000
0100
,
0000
0100
0000
0100
0000
0100
0000
0100
,
0010
0001
0000
0001
0000
0001
0000
0001
,
1000
1001
1010
0101
,
1001
0000
0000
0000
,
0010
0000
0000
0000
,
0100
0000
0000
0000
,
0001
2000
0200
0000
,
0010
0000
0000
0000
,
0001
0000
0000
0000
,
0010
0000
0001
0000
,
0010
0001
0010
3311
,
1000
1000
0010
0010
,
0100
0000
0001
0000
,
0010
0010
0100
1000
,
0010
0000
0100
0000
,
0001
0010
0001
0100
,
0010
0000
0010
0000
,
1000
1000
0010
0100
,
0001
0000
0001
0000
,
1000
0000
0100
0000
1000
0000
0010
0100
,
0000
0000
0001
0000
,
1000
0100
1000
0010
,
0100
0000
0001
1000
0000
0001
0000
0000
,
0100
0000
0001
0000
1000
0000
0100
0010
,
0000
0000
0001
0000
,
0010
0000
0000
0100
0000
1000
0000
0000
,
0010
0000
0000
0100
0000
0001
0000
0000
,
1001
0000
0000
0000
;
