#TITLE:June;
#SUBTITLE:;
#ARTIST:Lollipop;
#GENRE:Synthpop;
#TITLETRANSLIT:;
#SUBTITLETRANSLIT:;
#ARTISTTRANSLIT:;
#CREDIT:;
#BANNER:june.png;
#BACKGROUND:june-bg.png;
#LYRICSPATH:;
#CDTITLE:;
#MUSIC:june.ogg;
#OFFSET:-0.000;
#SAMPLESTART:24.131;
#SAMPLELENGTH:12.480;
#SELECTABLE:YES;
#BPMS:0.000=159.000;
#STOPS:;
#BGCHANGES:;

//---------------dance-single - Alezay----------------
#NOTES:
     dance-single:
     Alezay:
     Challenge:
     9:
     0.777,0.774,0.057,1.000,0.171:
0000
0000
0000
0000
,
0000
0000
0000
0000
,
0000
0000
0000
0000
,
2000
0000
0000
0000
0002
3000
0000
0000
0200
0003
0000
0000
0020
0300
2000
0030
,
0200
3000
0002
0300
2000
0003
0000
0000
0000
0000
0000
0000
0000
0000
0000
0000
,
0002
3000
2000
0003
0002
3000
0200
0003
0020
0300
0002
0030
0000
0000
0200
0003
,
0020
0300
0000
0000
0002
0030
0000
0000
0020
0003
2000
0030
0000
0000
0002
3000
,
0200
0003
0000
0000
2000
0300
0000
0000
0200
3000
0000
0000
0002
0300
0000
0000
,
1003
0000
0001
1000
0001
0000
1000
0000
0100
0000
0010
0001
0100
0000
0010
0000
,
1000
0000
0001
1000
0001
0000
0100
0000
0010
0000
0100
0001
0100
0000
0010
0000
,
1000
0000
0100
0010
0100
0000
0010
0000
0001
0000
0100
0010
0100
0000
0010
0000
,
1000
0000
0001
1000
0001
0000
1000
0000
0010
0000
0100
0001
0010
0000
0100
0000
,
1000
0000
0001
1000
0100
0000
0010
0000
0100
0000
1000
0001
0100
0000
0010
0000
,
0100
0000
0100
0010
1000
0000
0010
0000
0100
0000
0010
0100
0001
0000
1000
0000
,
0100
0000
1000
0100
1000
0000
0100
0000
0010
0000
0001
0010
0001
0000
1000
0000
,
0001
0000
0100
0001
0010
0000
0100
0000
1000
0000
0100
1000
0010
0000
0100
0000
,
0002
0000
0000
0000
0200
0003
0020
0300
0002
0030
0000
0000
0020
0000
0000
0000
,
0000
0003
0000
0000
2000
0030
0200
3000
0002
0300
0200
0003
2000
0300
0002
3000
,
0200
0003
2000
0300
0002
0000
0000
0000
0000
0000
0000
0000
0000
3000
0000
0000
,
2000
0003
0000
0000
0200
3000
0000
0000
0020
0300
0000
0000
2000
0030
0200
3000
,
0020
0300
2000
0030
0020
3000
0000
0000
2000
0000
3000
0000
0002
0000
0003
0000
,
0002
0030
0200
0003
0020
0300
0002
0030
0020
0003
0200
0030
0000
0000
0020
0300
,
2000
0030
0000
0000
0200
0000
0000
3000
0002
0300
0200
0003
0000
0000
0020
0300
,
0002
0030
0000
0000
2000
0003
0000
0000
0002
3000
0000
0000
0200
0003
0000
0000
,
0300
0000
0100
0000
0001
0000
1000
0000
0010
0000
0100
0001
0200
0000
0000
0000
,
0300
0000
0100
0000
0001
0000
1000
0000
0100
0000
0010
0001
0200
0000
0010
0000
,
0310
0000
0100
0000
0001
0000
1000
0001
1000
0000
1000
0100
1000
0000
2002
0000
,
0000
0000
0000
0000
0000
3003
0010
1000
,
0100
1000
0001
0100
0220
0000
0000
0330
,
0100
0000
0010
1000
0001
0000
1000
0000
0002
0000
0000
0000
0200
0003
0000
0000
,
0020
0300
0000
0000
0000
0000
0000
0000
0000
0000
0000
0000
0100
0000
0001
0000
,
0130
0000
0000
0000
0000
1000
0001
0000
0000
0000
0000
0100
0001
0000
0000
1000
0000
0001
0100
0000
0010
1000
0000
0010
,
1000
0000
1000
0000
0001
0000
0100
0000
0010
0000
0100
0010
2000
0000
0000
0000
,
3000
0000
1000
0000
0100
0000
0010
0000
1000
0000
0010
0100
1000
0000
0001
0000
,
0100
0000
0010
0000
0001
0000
0010
0000
1000
0000
0001
1000
0001
0000
2000
0000
,
0000
0000
0010
0000
0100
0000
0010
3010
,
1000
0100
0001
0100
2000
0000
0000
0000
,
3001
0000
1000
0001
1000
0000
0020
0000
0100
0000
0000
0000
0001
0000
0000
0000
,
0200
0000
1000
0000
1000
0330
0100
0001
,
2000
0200
0010
0001
,
0011
0000
3300
0000
2000
0000
0200
3000
0020
0300
0000
0000
2000
0030
0000
0000
,
0000
0000
0000
0000
0002
3000
2000
0003
0020
3000
0002
0030
0200
0003
2000
0300
,
0200
3000
0002
0300
2000
0000
0000
0000
0000
0000
0000
0000
0000
3003
0000
0000
,
2100
0000
0000
0000
0002
0000
0000
0000
0010
0000
0003
0000
0020
3000
0002
0030
,
0020
0003
2000
0030
0002
3000
0000
0000
0010
0000
0000
0000
1000
0000
0000
0000
,
0200
0003
0020
0300
0002
0030
0020
0003
2000
0030
0200
3000
0000
0000
0020
0300
,
2000
0030
0000
0000
0002
3000
0000
0000
2000
0003
0020
3000
0000
0000
0002
0030
,
0200
0003
0000
0000
2000
0300
0000
0000
0002
3000
0000
0000
0020
0003
0000
0000
,
1030
0000
1000
0001
2002
0000
0010
0000
,
0000
3003
0000
0000
0000
0000
0001
0000
0100
0000
0010
0000
0100
0000
0001
0000
,
1000
0100
0200
0000
0000
0000
0000
0000
,
0020
0000
0030
0000
0002
0000
0003
0000
0020
0000
0030
0000
0020
0300
0200
0030
,
0002
0300
2000
0003
0020
3000
0000
0000
1000
0000
0000
0000
0100
0000
0000
0000
,
2000
0030
0020
3000
0002
0030
0200
0003
2000
0300
0002
3000
0000
0000
2000
0003
,
0200
3000
0000
0000
0002
0300
0000
0000
0020
0003
2000
0030
0000
0000
0002
3000
,
0200
0003
0000
0000
2000
0300
0000
0000
0020
3000
0000
0000
0200
0000
0000
0000
,
0002
0000
0000
0000
0000
0000
0000
0333
0000
0000
0000
0000
0000
0000
0000
0000
;

//---------------dance-single - Alezay----------------
#NOTES:
     dance-single:
     Alezay:
     Hard:
     8:
     0.540,0.582,0.286,0.297,0.029:
0000
0000
0000
0000
,
0000
0000
0000
0000
,
0000
0000
0000
0000
,
1002
0000
0100
0000
0010
0003
0100
0001
,
1000
0010
0100
0000
0000
0000
0000
0000
,
0010
1000
0100
1000
0001
0100
0000
0010
,
0100
0000
0001
0000
1000
0100
0000
0010
,
0001
0101
1010
0110
,
0001
0100
0010
0100
0001
1000
0100
0001
,
0100
1000
0001
0100
0010
0001
0010
1000
,
0100
1000
0001
0100
0001
1000
0010
1000
,
0001
0010
0001
1000
0100
0010
0001
0001
,
0010
0100
1000
0100
1000
0001
0100
0001
,
0100
0010
0100
0010
1000
0010
1000
0001
,
1000
0100
1000
0010
1000
0001
0100
0001
,
1000
0001
0010
0001
1000
0100
1000
0001
,
0101
0000
0001
1000
0002
0000
1003
0000
,
0000
0000
0000
1000
0001
0100
0010
0100
,
0010
0010
1000
0000
0000
0000
0000
0000
,
2000
0000
0100
0000
0001
3000
1000
0010
,
0100
0010
0101
0000
0000
0000
0000
0000
,
0001
0100
0010
0100
0001
1000
0000
1000
,
0100
0000
0100
0000
0100
1000
0000
0001
,
1002
0100
0010
0200
,
0303
0000
0100
0000
0001
0000
1000
0000
0001
0000
1000
0100
2000
0000
0000
0000
,
0000
0000
3001
0000
0100
0000
0010
0000
1000
0000
1000
0010
1000
0000
1001
0000
,
0001
0000
0100
0000
0010
0000
1000
0000
0010
0000
0100
0010
0100
0000
0202
0000
,
0000
0000
0000
0000
0000
0000
0000
0000
0000
0303
0000
0000
0001
0000
1000
0000
,
0100
1000
0001
0100
0020
0000
0000
0000
,
0130
0010
0100
0001
0200
0000
0320
0000
,
2030
0000
0000
0000
0000
0000
0001
0001
,
0002
0000
0000
0000
0000
0000
0000
3003
,
0000
0010
1000
0100
1000
0100
1000
0010
,
0000
0000
0100
0000
0001
0000
1000
0000
0010
0000
0100
0010
1000
0000
0001
0000
,
1000
0000
1000
0000
0010
0000
0100
0000
0001
0000
0100
0010
1000
0000
2002
0000
,
0000
0000
0000
0000
0000
3003
0002
0000
,
1003
0010
0100
0001
2000
0000
0000
0000
,
3001
0010
0100
1000
0002
0000
0203
0000
,
0320
0000
0000
0000
0000
0000
0100
0100
,
0200
0000
0000
0000
0000
0000
0000
0330
,
0000
0000
0100
0001
1000
0000
1001
0000
,
0000
0000
0000
1000
0100
1000
0010
1000
,
0010
0010
0010
0000
0000
0000
0000
0000
,
2010
0000
0100
0000
0010
0000
3010
1000
,
0001
0001
0001
0000
0000
0000
0000
0000
,
0001
0100
0010
1000
0100
1000
0010
0100
,
0001
0000
1001
0000
1000
0100
0000
0001
,
1001
0110
1001
0101
,
0000
0000
0001
1000
0020
0000
0031
0000
,
0000
0000
0000
0010
1000
0100
0010
0100
,
1000
0001
1001
0000
0000
0000
0000
0000
,
0210
0000
1000
0000
0301
0000
0001
1000
,
0001
1000
0001
0000
0000
0000
0000
0000
,
1000
0010
0100
0001
0100
0010
0000
0010
,
1000
0000
1001
0000
1000
0100
0000
0100
,
1100
1001
0110
0011
,
2002
0000
0000
0000
0000
3003
0000
0000
;

//---------------dance-single - Alezay----------------
#NOTES:
     dance-single:
     Alezay:
     Medium:
     5:
     0.379,0.550,0.228,0.080,0.000:
0000
0000
0000
0000
,
0000
0000
0000
0000
,
0000
0000
0000
0000
,
0002
0000
2000
0003
3020
0000
1030
0000
,
0001
1000
0001
0000
1000
0000
1000
0000
,
0010
0100
0001
1000
,
1100
1001
0101
0011
,
1001
0110
1001
1100
,
0001
1000
0010
1000
,
0100
0010
0001
0100
,
0010
1000
0010
0000
0100
0001
0100
0000
,
0010
0100
0010
0000
1000
0001
1000
0000
,
0100
0010
0001
0100
,
0010
1000
0001
0100
,
0010
1000
0010
0000
0100
0001
0100
0000
,
0001
1000
0001
0000
1000
0100
1000
0000
,
0010
1000
0001
1001
,
0000
0000
0010
1000
,
0100
0110
0000
0000
,
1001
0000
0110
0000
,
0001
0100
0000
0000
,
0010
1000
0100
0010
,
0001
0100
0100
0100
,
0010
0010
1000
1001
,
0001
1000
0100
0010
,
0000
0001
0100
0010
,
1000
0001
0100
0010
,
0000
0000
0000
0100
,
1000
0001
0100
0000
,
0010
0000
1000
0000
0100
0010
0100
0000
,
0010
0000
0000
0001
,
0100
0000
0010
0010
,
1000
0001
1000
0100
,
0000
0001
0100
0010
,
1000
0100
0010
0001
,
0000
1000
0010
0100
,
0001
1000
0100
0010
,
0001
0101
0001
1100
,
0100
1010
0010
0101
,
0001
0110
0100
1001
,
0001
0100
0010
2000
,
0000
3000
0001
0100
,
0010
1000
0010
0000
0000
0000
0000
0000
,
1000
0100
0010
0001
,
0100
0001
0200
0000
0000
0000
0300
0000
,
0010
1000
0100
0010
,
0001
0100
0001
0000
1000
0010
1000
0100
,
0010
0001
0100
0100
,
0010
1000
0001
0100
,
0000
0000
0010
1000
,
0100
0010
0100
0000
0000
0000
0000
0000
,
0001
1000
0010
1000
,
0001
1000
0001
0000
0000
0000
0000
0000
,
1000
0010
0100
0001
,
1000
0100
1000
0000
0010
0100
0010
0000
,
0100
0001
0010
0100
1000
0001
1000
0000
,
2002
0000
0000
0000
0000
3003
0000
0000
;

//---------------dance-single - Alezay----------------
#NOTES:
     dance-single:
     Alezay:
     Easy:
     2:
     0.098,0.161,0.046,0.023,0.000:
0000
0000
0000
0000
,
0000
0000
0000
0000
,
0000
0000
0000
0000
,
0001
0000
0000
0000
,
0100
0000
0000
0000
,
0010
0000
0000
0000
,
1000
0000
0000
0000
,
0001
0000
0000
0000
,
1001
0000
0000
0000
,
1000
0000
0000
0000
,
0100
0000
0000
0000
,
0010
0000
0000
0000
,
1000
0000
0000
0000
,
0001
0000
0000
0000
,
0100
0000
0000
0000
,
0010
0000
0000
0000
,
0001
0000
0000
0000
,
1000
0000
0000
0000
,
0001
0000
0000
0000
,
0100
0000
0000
0000
,
0010
0000
0000
0000
,
1000
0000
0000
0000
,
0001
0000
0000
0000
,
0100
0000
0000
0000
,
0010
0000
0000
0000
,
1000
0000
0000
0000
,
0100
0000
0000
0000
,
1000
0000
0000
0000
,
1001
0000
0000
0000
,
0001
0000
0000
0000
,
0110
0000
0000
0000
,
1000
0000
0000
0000
,
0100
0000
0000
0000
,
0010
0000
0000
0000
,
0100
0000
0000
0000
,
1000
0000
0000
0000
,
0001
0000
0000
0000
,
0100
0000
0000
0000
,
0010
0000
0000
0000
,
0100
0000
0000
0000
,
0001
0000
0000
0000
,
1000
0000
0000
0000
,
0001
0000
0000
0000
,
0100
0000
0000
0000
,
0010
0000
0000
0000
,
0010
0000
0000
0000
,
1000
0000
0000
0000
,
0001
0000
0000
0000
,
1000
0000
0000
0000
,
0100
0000
0000
0000
,
1000
0000
0000
0000
,
0001
0000
0000
0000
,
1000
0000
0000
0000
,
0010
0000
0000
0000
,
1000
0000
0000
0000
,
0001
0000
0000
0000
,
2002
0000
3003
0000
;
