#TITLE:Joy to the World;
#SUBTITLE:;
#ARTIST:Orlando;
#TITLETRANSLIT:;
#SUBTITLETRANSLIT:;
#ARTISTTRANSLIT:;
#CREDIT:;
#BANNER:world.png;
#BACKGROUND:world-bg.png;
#LYRICSPATH:;
#CDTITLE:;
#MUSIC:world.ogg;
#OFFSET:0.000;
#SAMPLESTART:25.034;
#SAMPLELENGTH:12.000;
#SELECTABLE:YES;
#BPMS:0.000=172.000;
#STOPS:;
#BGCHANGES:;
#GENRE:Speed Dance;

//---------------dance-single - Renard----------------
#NOTES:
     dance-single:
     Renard:
     Hard:
     8:
     0.653,0.630,0.541,0.142,0.018:
0000
0000
0000
0000
,
0000
0000
0000
0000
,
0000
0000
0000
0000
,
0000
0000
0000
0000
,
0000
0000
0000
0000
,
0000
0000
0000
0000
,
0000
0000
0000
0000
,
0000
0000
0000
0000
,
1000
0001
0100
0010
1000
0000
1000
0100
,
0010
0001
0100
0010
1000
0001
0000
1010
,
0000
0100
0001
0010
0001
0100
0010
1000
,
0000
0100
1000
0010
0100
0001
0000
1010
,
0000
0100
0001
0100
0010
1000
0010
0100
,
0001
0010
0100
1000
0000
1000
0001
0100
,
0010
1000
0100
1000
0010
0100
0000
1001
,
0000
1010
0000
0101
0000
1000
0100
0010
,
0001
0010
0100
1000
0001
0100
0010
1000
,
0001
1000
0001
0100
0010
1000
0001
0000
,
2100
3010
0102
0013
,
0101
0000
0110
0000
1000
0010
0100
0000
,
0012
0103
2010
3100
,
0001
0010
0100
0000
1000
0010
0100
0000
,
0001
0000
1000
0100
0010
0000
0001
1000
,
0100
0000
0010
0001
1000
0000
0001
0100
,
0010
1000
0100
1000
0010
0100
0001
1000
,
0010
0100
0000
1010
0000
0001
0100
0000
,
0001
0110
1000
0110
,
0001
1010
0100
1010
,
0100
1001
0010
1001
,
0100
0000
1000
0001
1000
0100
0001
0000
,
0001
0100
0001
0100
1000
0100
1000
0100
,
1000
0010
1000
0010
0001
0010
0001
0010
,
1000
0010
0100
0001
1000
0100
0010
0001
,
0010
0100
1000
0010
0100
0000
1001
0000
,
2010
3100
0012
0103
,
0001
0100
0010
1000
0100
0000
1001
0000
,
0102
0013
2100
3010
,
1000
0010
0100
0010
0100
0001
0010
0000
,
0001
0010
0001
0010
1000
0010
1000
0000
,
0001
0100
0001
0100
1000
0100
1000
0000
,
0010
0100
0001
0100
0010
1000
0100
1000
,
0010
0100
0000
1001
0000
0101
1010
0000
,
0001
0100
0001
0100
0010
0100
0010
0100
,
1000
0100
1000
0100
0010
0100
0010
0100
,
0010
1000
0010
1000
0010
0100
0010
0100
,
0010
0001
0010
0001
0010
0100
0010
0000
,
1000
0010
0100
0001
1000
0100
0010
0001
,
1000
0001
0100
0010
1000
0001
0010
0100
,
1000
0000
0010
0100
0001
1000
0100
1000
,
0010
0100
0000
0100
0001
1000
0100
1000
,
0010
0000
0100
0001
1000
0100
1000
0010
,
0100
0001
0000
1000
0010
0000
1001
0000
,
2010
0000
0100
0000
3001
0000
1000
0001
,
0100
0001
0010
0000
0001
0100
0010
0000
,
1002
0000
0010
0000
0103
0000
0100
0010
,
1000
0100
0010
0000
0001
0100
0010
0000
,
1000
0100
1000
0100
0010
0001
0010
0001
,
1000
0010
1000
0010
0100
0001
0100
0001
,
1000
0100
1000
0010
0100
0001
1000
0010
,
0000
1010
0000
0101
0000
1000
0001
1000
,
0001
0000
0000
0001
0100
0000
0010
0000
1000
0000
0100
0000
0001
0000
0100
0000
,
0000
0100
1000
0000
1001
0000
1100
0000
,
0100
0000
0000
0100
1000
0000
0010
0000
0001
0000
0010
0000
0100
0000
0001
0000
,
0000
0001
0100
0010
0200
0000
0001
0301
,
1000
0000
0000
1000
0010
0000
0100
0000
0001
0000
0100
0000
1000
0000
0100
0000
,
0000
0100
0010
0000
1001
0000
1010
0000
,
0010
0000
0000
0010
0100
0000
0001
0000
1000
0000
0100
0000
0001
0000
0100
0000
,
0010
0100
1000
0010
0200
0001
0301
0000
,
0101
0110
1010
1001
,
0001
0001
0010
0010
0100
1000
0001
0000
,
1100
1010
0101
0011
,
0101
0000
0100
0010
0000
0010
1000
0000
,
1001
1010
1001
0101
,
0100
0100
0010
1000
0100
1000
0001
0000
,
0011
0101
0110
1010
,
0100
0001
0010
0100
0000
0100
1000
0000
,
2001
3010
0102
0013
,
1000
0001
0000
0202
0000
0000
0000
1313
,
0000
0000
1010
0000
0101
1010
0000
1001
;

//---------------dance-single - Renard----------------
#NOTES:
     dance-single:
     Renard:
     Medium:
     6:
     0.422,0.420,0.115,0.000,0.000:
1000
0000
0001
0000
1000
0001
0100
0010
,
0000
0000
0000
0000
,
0000
0000
0000
0000
,
0000
0000
0000
0000
,
0000
0000
0000
0000
,
0000
0000
0000
0000
,
0000
0000
0000
0000
,
0000
0000
0000
0000
,
1000
0000
0001
0000
0100
0000
0001
1000
,
0000
0100
0000
0000
1000
0010
0000
0100
,
0000
0000
0001
0000
1000
0000
0100
1000
,
0000
0001
0100
0001
,
1000
0000
1000
0001
0100
0000
0000
0000
,
0100
0000
0100
0001
1000
0000
0000
0000
,
0100
0000
1000
0000
0001
0010
0000
0001
,
0000
1000
0010
0100
,
0001
1000
0001
1000
0001
0000
1000
0000
,
0001
0100
0001
1000
,
1000
0000
0100
0000
0010
0000
0001
0010
,
0001
0010
0100
1000
,
0001
0000
0100
0000
0001
0000
0100
0010
,
1000
0010
1000
0001
,
0100
0000
0100
0001
1000
0000
0000
0000
,
0100
0000
0100
1000
0001
0000
0000
0000
,
1000
0000
0000
1000
0001
0010
0000
0001
,
0000
1000
0000
0010
1000
0000
0001
0000
,
1000
1000
0001
0001
,
0100
0000
0001
0000
1000
0100
0000
1000
,
0000
0001
0100
0001
,
1000
0000
0001
0000
0010
0001
0000
1000
,
0010
0000
0100
0000
0001
0000
1000
0100
,
1000
0000
0001
0000
0100
0000
0100
0001
,
1000
0000
0100
1000
0001
0000
0100
0000
,
0001
1000
0001
0010
,
0001
0000
1000
0000
0010
0000
1000
0001
,
1000
0000
0001
0000
0010
0000
0001
1000
,
0001
0000
1000
0000
0100
0000
1000
0001
,
1000
0000
0001
0000
0100
0000
0001
1000
,
0001
0000
0000
0001
1000
0000
0000
1000
,
0010
0000
0000
0010
0100
0000
0000
0100
,
0001
1000
0001
1000
,
1000
0000
0000
0000
0001
0000
0000
1000
,
0001
0100
0001
1000
,
0100
0000
1000
0000
0001
1000
0000
0001
,
0000
1000
0001
0000
1000
0000
0001
0000
,
1000
0000
0001
0000
1000
0001
0000
1000
,
0001
0100
0010
1000
,
0100
0010
0001
0010
,
0100
0000
1000
0000
0001
1000
0001
1000
,
0000
0001
0000
1000
0010
0000
0100
0000
,
0001
0000
0001
1000
0001
0000
0001
1000
,
0001
1000
0001
1000
,
0010
0000
0100
0000
0001
0000
1000
0100
,
1000
0000
0001
0000
0100
0000
0001
0010
,
0001
0000
1000
0000
0010
0000
1000
0010
,
1000
0000
0001
0000
0100
0000
0001
1000
,
0100
0000
0100
1000
0001
0000
0100
0001
,
1000
0000
0100
1000
0001
0000
1000
0000
,
0001
0001
1000
0001
,
1000
0000
0001
0000
1000
0001
1000
0001
,
1000
0000
0001
0000
1000
0000
0010
1000
,
0000
0001
0100
0000
1001
0000
1001
0000
,
1000
0000
0001
0000
0100
0000
0001
1000
,
0000
1000
0001
0000
1001
0000
1001
0000
,
1000
0000
0001
0000
1000
0000
0010
1000
,
0000
1000
0001
0000
1001
0000
1001
0000
,
1000
0000
0100
0000
0010
0000
0001
0010
,
0000
0010
0100
0000
1001
0000
1001
0000
,
1000
0010
0100
0001
,
1000
1000
0001
0001
,
1000
0100
0010
0001
,
1000
0000
0000
0001
0000
0000
0100
0000
,
0010
1000
0100
0010
,
0001
0000
1000
0001
1000
0000
1000
0000
,
0010
0100
0001
1000
,
0001
0000
0000
1000
0000
0000
0010
0000
,
0101
0101
1010
1010
,
1000
0100
0000
1000
0000
0000
0000
0010
,
0000
0000
0100
0000
0001
1000
0000
1001
;

//---------------dance-single - Renard----------------
#NOTES:
     dance-single:
     Renard:
     Easy:
     4:
     0.317,0.350,0.080,0.036,0.000:
0000
0000
0000
0000
,
0000
0000
0000
0000
,
0000
0000
0000
0000
,
0000
0000
0000
0000
,
0000
0000
0000
0000
,
0000
0000
0000
0000
,
0000
0000
0000
0000
,
0000
0000
0000
0000
,
1000
0001
1000
0001
,
1000
0001
1000
0010
,
0100
0001
0100
0001
,
0100
0001
0100
0001
,
0010
0100
1000
0001
,
0100
0010
1000
0010
,
0100
0001
1000
0100
,
0010
0001
1000
0001
,
1000
0000
0000
0000
0001
0000
1000
0001
,
1000
0010
0100
0000
,
0001
0100
0010
1000
,
0001
1000
0100
0010
,
0001
1000
0100
0001
,
0100
1000
0010
0001
,
0010
1000
0001
0100
,
0001
1000
0100
0010
,
0001
0000
1000
0000
0001
1000
0000
0001
,
0000
1000
0010
0100
,
0001
1000
0100
1000
,
0001
0010
0001
0001
,
1000
0010
0100
0001
,
0100
0010
1000
1000
,
0010
0100
0010
0100
,
0001
1000
0001
1000
,
0010
1000
0001
0100
,
0001
1000
0100
1000
,
0001
0000
0010
0000
0100
0000
1000
0100
,
1000
0000
0000
0000
,
0001
0000
0010
0000
0100
0000
1000
0100
,
1000
0000
0000
0000
,
0010
1000
0001
0100
,
0001
1000
0010
1000
,
0100
0100
1000
0010
,
0100
0000
0100
0000
,
0001
1000
0100
1000
,
0001
0000
0001
0000
,
1000
0001
0100
0010
,
1000
0000
1000
0000
,
0010
0100
0001
0000
,
0100
0010
1000
0000
,
0010
0100
0001
1000
,
0100
0010
0001
0000
,
1000
0001
1000
0001
,
1000
0010
0100
0001
,
1001
0000
1010
0000
,
0100
0001
0010
0000
,
0011
0000
1100
0000
,
1000
0001
0100
0000
,
0110
0000
1010
0000
,
0101
0000
1001
0000
,
1000
0100
0010
0001
,
0001
0010
0001
0000
,
1000
0000
0100
0000
,
2000
0000
0000
0000
0010
0000
0010
3000
,
1000
0000
0010
0000
,
0200
0000
0001
0301
,
0100
0000
0010
0000
,
2000
0000
0001
3001
,
0001
0000
0100
0000
,
0020
0000
0000
0000
0100
0030
0100
0000
,
0010
1000
0001
0100
,
0001
0000
0001
0000
,
1000
0100
0010
0001
,
1000
0000
0000
1000
0000
0000
1000
0000
,
0010
0000
0010
0000
,
0100
0000
0100
0000
,
0001
0010
0100
0000
,
1000
0000
0000
1000
0000
0000
1000
0000
,
0010
0100
0001
1000
,
0001
0000
0000
1000
0000
0000
0000
0010
,
0000
0000
0100
0000
0001
1000
0000
1001
;

//---------------dance-single - BlueChaos----------------
#NOTES:
     dance-single:
     BlueChaos:
     Challenge:
     10:
     0.818,0.878,0.488,0.178,0.209: // measure 1
0000
0000
0000
0000
,  // measure 2
0000
0000
0000
0000
,  // measure 3
0000
0000
0000
0000
,  // measure 4
0000
0000
0000
0000
,  // measure 5
1001
0100
1001
0000
0101
0001
0010
1100
,  // measure 6
0000
1010
0000
0101
0000
0100
0010
0100
,  // measure 7
1001
0000
0011
0000
1100
1010
0000
0101
,  // measure 8
0000
1001
0000
0110
0000
1001
0001
0100
,  // measure 9
0010
1000
0010
1000
0001
1000
0001
0010
,  // measure 10
0001
0000
0010
0000
0100
0000
0010
0000
0100
0000
1000
0100
1000
0000
0100
0000
,  // measure 11
0010
0001
0100
0010
1000
0100
1000
0001
,  // measure 12
1000
0000
0010
0000
0100
0000
0010
0000
1000
0000
0001
0010
0001
0000
0100
0000
,  // measure 13
0100
0010
0100
0001
0010
0100
1000
0001
,  // measure 14
0010
0001
0100
0010
1000
M000
0001
0100
,  // measure 15
0010
0100
0001
0010
0100
0100
1000
0001
,  // measure 16
0100
0000
0001
0100
0010
0000
0100
0001
1000
0001
0010
0100
1000
0000
1000
0000
,  // measure 17
1010
0010
0100
0001
0011
0010
0100
1000
,  // measure 18
1001
0000
1000
0000
0001
0100
0010
0100
0001
0010
0100
1000
0100
1000
0001
0000
,  // measure 19
1000
0000
0001
0000
1000
0000
0100
0000
0010
0000
0001
0010
0001
0000
1000
0001
,  // measure 20
1000
0000
0001
0000
0010
0000
0100
0000
1000
0000
0001
0100
0001
0000
1000
0010
,  // measure 21
1000
0000
0001
0000
0010
0000
0001
0000
0100
0000
0001
0010
0001
0000
1000
0100
,  // measure 22
1000
0001
0101
0M00
0001
0100
1000
0000
,  // measure 23
1000
0200
0001
0301
0010
0200
0010
0310
,  // measure 24
0001
0200
0000
0310
00M0
0100
0001
1000
,  // measure 25
1100
0000
0100
1000
1001
0002
0000
1003
,  // measure 26
0010
0000
0100
0001
0100
0000
0001
0010
0100
1000
0001
0100
0010
0000
1000
0000
,  // measure 27
0010
0100
0010
1000
0100
0001
0100
1000
,  // measure 28
0100
0000
0010
0000
0001
0000
0100
0000
0010
1000
0010
0000
0010
0000
1000
0000
,  // measure 29
0001
0010
0100
0010
0001
0100
0010
1000
,  // measure 30
0010
0000
0100
0000
0001
0000
1000
0000
0100
1000
0100
0000
0100
0000
0010
0000
,  // measure 31
0001
1000
0010
0100
0010
0001
0010
0100
,  // measure 32
0010
1000
0001
0010
0100
0010
0100
1000
,  // measure 33
0100
0010
0100
0001
0100
1000
0100
0010
,  // measure 34
0001
0000
0100
0000
0001
1000
0001
0100
0010
1000
0010
0100
0001
0000
0100
0000
,  // measure 35
0001
0000
0010
0000
0100
0000
0010
0000
0001
0000
1000
0100
0010
0000
0001
0100
,  // measure 36
0010
0000
0100
0000
0001
0000
1000
0000
0001
0000
0010
0001
1000
0000
0001
0100
,  // measure 37
0010
0000
0100
0000
0010
0000
1000
0000
0001
0000
0100
0010
1000
0000
0001
0010
,  // measure 38
0100
0010
0001
0100
0010
1000
0001
000M
,  // measure 39
0010
0002
0100
0103
0010
2000
0001
3001
,  // measure 40
0010
0200
0000
1300
M000
0100
0010
0001
,  // measure 41
1001
0000
0001
0100
0100
1001
0000
0010
,  // measure 42
0000
0110
0000
1001
0000
0100
0010
1001
,  // measure 43
1000
0100
0010
0001
1000
0100
0010
0001
,  // measure 44
0100
0010
1000
0001
0100
0010
1000
0001
,  // measure 45
0010
0100
0010
0001
0100
0010
1000
0010
,  // measure 46
0100
0001
0010
0001
0100
0010
1000
0100
,  // measure 47
1000
0010
0100
0001
1000
0100
0010
0001
,  // measure 48
0010
0100
1000
0001
0100
0010
1000
0001
,  // measure 49
1000
1000
0010
0100
0001
0010
0100
0100
,  // measure 50
1000
M000
0100
0010
0001
0000
0010
0001
,  // measure 51
1100
0000
0010
0100
1001
0000
0100
0001
,  // measure 52
1010
0000
1000
0000
0100
0010
0001
1000
0010
0100
0001
0010
0100
0000
0010
0000
,  // measure 53
0100
0000
1000
0000
0100
0000
1000
0000
0001
0000
0100
0010
1000
0000
0001
0010
,  // measure 54
0100
0000
0010
0000
0001
0000
0100
0000
0010
0000
0100
0001
1000
0000
0001
0100
,  // measure 55
0010
0000
0100
0000
0001
0000
0010
0000
0100
0000
1000
0100
0010
0000
0100
1000
,  // measure 56
0001
1000
0100
0010
0001
0100
0010
00M0
,  // measure 57
0100
0002
1000
1003
0100
0020
0001
0031
,  // measure 58
1000
0002
0000
0103
0M00
0001
0100
0010
,  // measure 59
1010
0000
1000
0100
0010
0011
0000
1001
,  // measure 60
0000
1100
0000
1100
0000
1000
0001
0101
,  // measure 61
0000
0100
0001
1000
0001
0010
0100
1000
,  // measure 62
0001
0100
0010
1000
1010
0000
1010
0000
,  // measure 63
1000
0010
0100
0001
0010
0100
0010
0001
,  // measure 64
1000
0001
0100
0001
0101
0100
0010
1000
,  // measure 65
1001
0000
0001
0010
0001
0100
0010
1000
,  // measure 66
0100
1000
0001
0100
0101
0000
0101
0000
,  // measure 67
0001
0010
0001
0100
0010
1000
0100
0010
,  // measure 68
0001
0100
0010
1000
1001
0001
0010
0100
,  // measure 69
0120
0001
1000
0100
,  // measure 70
0001
0001
0001
0001
0031
0000
0100
0000
,  // measure 71
0201
1000
0010
0001
,  // measure 72
0310
1000
0010
0000
1000
0000
0001
1000
0001
0000
1000
0000
0100
0000
0000
0000
,  // measure 73
1200
0010
0001
0010
,  // measure 74
1000
1000
1000
1000
1300
0000
0010
0000
,  // measure 75
0120
1000
0001
0100
,  // measure 76
1030
0001
1000
0000
0001
0000
0100
0010
0100
0000
0001
0000
0010
0000
0000
0000
,  // measure 77
2100
0M00
3001
0000
0102
0M00
1003
0000
,  // measure 78
0110
1001
0000
2200
0000
3300
0000
0011
,  // measure 79
0000
0000
0101
0000
1010
1010
0000
2002
,  // measure 80
0000
3003
0000
0000
0000
0000
0000
0000
;
