#TITLE:Journey - Part II;
#SUBTITLE:;
#ARTIST:Draigun;
#TITLETRANSLIT:;
#SUBTITLETRANSLIT:;
#ARTISTTRANSLIT:;
#CREDIT:;
#BANNER:journey.png;
#BACKGROUND:journey-bg.png;
#LYRICSPATH:;
#CDTITLE:;
#MUSIC:journey.ogg;
#OFFSET:0.000;
#SAMPLESTART:27.302;
#SAMPLELENGTH:12.000;
#SELECTABLE:YES;
#BPMS:0.000=158.020;
#STOPS:;
#BGCHANGES:;
#GENRE:Trance;

//---------------dance-single - Renard----------------
#NOTES:
     dance-single:
     Renard:
     Hard:
     8:
     0.587,0.523,0.011,0.000,0.005:
0000
0000
0000
0000
,
0000
0000
0000
0000
,
0000
0000
0000
0000
,
0000
0000
0000
0000
,
1000
0000
1000
0000
0010
0000
0100
0001
,
0010
0010
0100
0000
,
1000
0000
1000
0000
0001
0000
0010
0100
,
1000
0000
0010
0100
0001
0000
1000
0001
,
0100
0001
0100
0001
0100
0000
0010
0000
,
1000
0010
1000
0010
1000
0000
0100
0000
,
0010
0001
0010
0001
1000
0100
1000
0100
,
1000
0010
1000
0010
0100
0001
0100
0001
,
1000
1000
0100
0100
0010
0010
0001
0001
,
1000
1000
0010
0010
0100
0100
0001
0100
,
0001
0100
0010
0100
1000
0100
0010
0100
,
0001
0010
0100
0010
1000
0010
0001
0000
,
0001
0000
1000
0000
0010
0000
0000
0000
0100
0000
0000
0000
0000
0000
0000
0100
,
0001
1000
0100
0000
1000
0001
1000
0001
,
1000
0100
0001
0100
0010
0001
0010
1000
,
0010
0100
0001
0100
1000
0010
0001
0010
,
1000
0010
0001
1000
0100
0001
0100
1000
,
0100
0010
1000
0010
0001
1000
0100
0001
,
0010
1000
0001
0100
1000
0100
0010
0001
,
0010
1000
0001
1000
0010
0001
0100
1000
,
0001
1000
0100
0001
0010
0100
0001
0100
,
0010
0001
1000
0100
0010
1000
0010
0100
,
1000
0010
0100
0001
1000
0100
0001
0100
,
0010
0001
0100
1000
0100
0010
1000
0010
,
0100
1000
0100
0001
0010
0100
1000
0100
,
0001
0100
1000
0010
0100
0001
1000
0100
,
1000
0001
0010
0100
1000
0010
0100
0001
,
0100
1000
0100
0010
0001
1000
0100
0001
,
0010
1000
0001
0100
1000
0100
0010
0001
,
0010
1000
0010
0100
1000
0100
0001
0100
,
1000
0010
0001
0010
0100
0001
0100
1000
,
0100
0010
1000
0001
0010
0100
1000
0001
,
0100
1000
0001
0010
1000
0010
0100
0001
,
0100
0010
1000
0100
0001
0100
0010
0001
,
1000
0001
0010
0001
0100
0010
1000
0010
,
0001
0010
0100
1000
0100
0001
1000
0001
,
0100
1000
0100
0010
1000
0010
1000
0100
,
0010
0001
0010
0100
1000
0100
0001
0100
,
0001
0100
1000
0100
1000
0010
1000
0010
,
1000
0010
0001
0010
0001
0010
0100
1000
,
0100
0001
0100
0010
1000
0100
0001
0100
,
0010
0001
0010
0100
1000
0010
0100
0001
,
0100
1000
0100
0010
0001
0010
1000
0001
,
0001
1000
0100
0100
0010
0001
1000
0010
,
0100
0100
0001
0010
0100
0100
1000
0010
,
0100
0001
1000
0001
0100
0001
1000
0001
,
1000
0001
0100
0010
,
1000
0000
0100
0000
1000
0000
0010
0100
,
0001
1000
0100
0010
,
0001
0000
1000
0000
0010
0000
0100
0001
,
1000
0001
1000
0100
,
0010
0000
0001
0000
1000
0000
0001
0100
,
0010
0000
0010
1000
0100
0000
0100
0010
,
0001
0000
0001
1000
0100
1000
0001
0000
,
1001
0000
0000
0000
;

//---------------dance-single - Renard----------------
#NOTES:
     dance-single:
     Renard:
     Medium:
     5:
     0.332,0.400,0.234,0.000,0.000:
0000
0000
0000
0000
,
0000
0000
0000
0000
,
0000
0000
0000
0000
,
0000
0000
0000
0000
,
0000
0000
0000
0000
,
0000
0000
0000
0000
,
0000
0000
0000
0000
,
0000
0000
0000
0000
,
0010
0010
0100
0001
,
0010
0010
0100
0001
,
0010
0010
0100
0001
,
0010
0010
0100
0001
,
0010
0000
0000
0100
1000
0000
0000
0000
,
0010
0000
0000
0100
1000
0000
0000
0000
,
0010
0000
0100
0001
0100
0000
0001
0100
,
0001
0000
1000
0100
1000
0000
0100
1000
,
0100
0100
0100
0100
,
0010
0010
1001
1001
,
1000
0100
0001
0100
,
1000
0100
0001
0100
,
1000
0010
0001
0010
,
1000
0000
0010
0000
0001
0000
0010
1000
,
0010
1000
0100
0001
,
0100
0001
0100
0001
,
0100
1000
0010
1000
,
0010
0000
0001
0000
0010
0000
1000
0010
,
1000
1000
0010
0010
,
0100
0100
0001
1000
,
0001
0100
0001
1000
,
0100
1000
0001
1000
,
0001
0010
1000
0010
,
0001
0100
1000
0100
,
0001
0010
0001
0010
,
0100
1000
0100
1000
,
1100
0000
0011
0000
,
0101
0000
1010
0000
,
1100
0000
1010
0000
,
1001
1100
1010
0000
,
0011
0000
0101
0000
,
1010
0000
1100
0000
,
0011
0000
0101
0000
,
1001
0101
0011
0000
,
0001
0010
0100
1000
,
0001
0100
0010
1000
,
1000
0010
0100
0011
,
1000
0100
0010
0001
,
1000
0000
0001
1000
0001
0000
1000
0000
,
0001
0000
1000
0001
1000
0000
0001
0000
,
1000
0001
1000
0000
0001
1000
0001
0000
,
0010
0100
0010
0100
0010
0000
0100
0000
,
0001
0001
1000
1000
,
0001
0001
1000
1000
,
0010
0010
0100
0100
,
0001
0001
1000
1000
,
0100
0010
0100
1000
,
0100
0010
0100
1000
,
0010
0100
0001
0100
,
0010
0100
0001
0100
,
1001
0000
0000
0000
;

//---------------dance-single - Renard----------------
#NOTES:
     dance-single:
     Renard:
     Easy:
     3:
     0.273,0.370,0.191,0.000,0.000:
0000
0000
0000
0000
,
0000
0000
0000
0000
,
0000
0000
0000
0000
,
0000
0000
0000
0000
,
0001
0000
1000
0000
,
0001
0000
1000
0000
,
0001
1000
0001
1000
,
0001
1000
0001
0000
,
1000
0000
0010
0000
,
0100
0000
0001
0000
,
1001
0000
1001
0000
,
1001
0000
0000
0000
,
0001
0000
1000
0000
,
0100
0000
1000
0000
,
0001
1000
0010
1000
,
0001
1000
1001
1001
,
1001
0000
0010
0000
,
1001
0000
0100
0100
,
1001
1000
0010
0000
,
0001
0000
0100
0000
,
0011
0001
1000
0000
,
0001
0000
0110
0000
,
1010
0000
0001
1000
,
1001
0000
0001
0100
,
0101
0000
0011
0000
,
1100
0000
1000
0001
,
1000
0000
0010
0000
,
0100
0001
0100
0000
,
0010
0000
1000
0000
,
0100
1000
0100
0000
,
1000
0000
0001
0000
,
0010
0001
1000
0010
,
1000
0000
0001
0000
,
0100
0001
1000
0100
,
1000
1000
0010
0010
,
0100
0100
0001
0001
,
0010
0100
1000
0010
,
1000
0100
0010
0100
,
0001
0010
0100
1000
,
0010
0000
0100
0000
,
0001
1000
0100
1000
,
0010
0010
0100
0000
,
0001
1000
0010
1000
,
0001
0100
1000
0100
,
0001
1000
0010
1000
,
0001
0010
1000
0001
,
0100
1000
0010
0001
,
1000
0100
0001
0010
,
0100
0000
1000
0001
,
1000
0000
1010
0000
,
0101
0000
0001
0100
,
0010
0000
0010
1000
,
0100
0000
0100
1000
,
0010
0000
0010
0100
,
0001
0000
0001
1000
,
0100
0000
0100
0010
,
0010
0000
0010
0001
,
0001
1000
0001
1000
,
1001
0000
0000
0000
;

//---------------dance-single - BlueChaos----------------
#NOTES:
     dance-single:
     BlueChaos:
     Challenge:
     11:
     0.725,0.893,0.032,0.096,0.526: // measure 1
0000
0000
0000
0000
,  // measure 2
0000
0000
0000
0000
,  // measure 3
1000
1000
1000
1000
,  // measure 4
0001
0001
0001
0001
,  // measure 5
0100
0100
0100
0100
,  // measure 6
0010
0010
0010
0010
,  // measure 7
0020
1000
0100
1030
,  // measure 8
2000
0100
0001
3100
,  // measure 9
0002
0010
0100
0013
,  // measure 10
0001
0100
0020
0000
1000
0000
0130
0000
,  // measure 11
1000
0100
0020
0000
0001
0000
0130
0000
,  // measure 12
0010
0001
0200
0000
0010
0000
0301
0000
,  // measure 13
0001
0010
0100
0010
0002
0000
1003
0000
,  // measure 14
0001
1000
0010
1000
0200
0000
0310
0000
,  // measure 15
0100
0010
0100
0010
0100
0000
0010
0000
0001
1000
0001
1000
0001
0000
0100
0000
,  // measure 16
0010
1000
0010
1000
0001
0100
0001
0100
0001
1000
0001
1000
0100
0010
0001
0100
,  // measure 17
0020
0000
0000
0000
0000
0000
0000
0000
1030
0000
0000
0000
0001
0000
0000
0100
,  // measure 18
0010
0000
0000
1000
0100
0000
0000
0010
0001
0010
0100
1000
0001
0100
0010
0100
,  // measure 19
0001
0000
0100
0000
0010
0000
0100
0000
0001
0000
0010
0000
0100
0000
1000
0100
,  // measure 20
1000
0000
0001
0000
0100
0000
0010
0000
1000
0000
0100
0000
0010
0001
0100
0001
,  // measure 21
1000
0000
0001
0000
0010
0000
0100
0000
0010
0000
0001
0000
1000
0000
0001
0100
,  // measure 22
0010
0000
0100
0000
0010
0000
1000
0000
0100
0000
0010
0000
0100
1000
0100
1000
,  // measure 23
0001
0100
0010
1000
0100
0010
0001
0100
,  // measure 24
1000
0100
0001
0100
0010
1000
0100
0001
,  // measure 25
0100
1000
0100
0010
0001
0100
0010
1000
,  // measure 26
0001
0100
1000
0100
0010
0100
0001
1000
,  // measure 27
0001
0000
0000
0100
0010
0000
0000
0010
1000
0000
0000
1000
0100
0000
0000
0100
,  // measure 28
0010
0000
0000
0010
0001
0000
0000
0001
1000
0000
0000
1000
0010
0000
0100
0000
,  // measure 29
0010
0000
0000
0100
1000
0000
0100
0000
0001
0000
0000
0010
0100
0000
0010
0000
,  // measure 30
1000
0000
0000
0010
0001
0000
0100
0000
0010
0000
1000
0000
0010
0000
1000
0000
,  // measure 31
1100
0100
1000
0001
0100
0010
1000
0001
,  // measure 32
0101
0100
0001
0010
0100
0010
0001
0100
,  // measure 33
0010
1000
0010
0000
0100
0001
0100
0000
0001
0010
0001
0000
1000
0100
1000
0000
,  // measure 34
0001
0100
0001
1000
0001
0100
0010
1000
0100
1000
0001
1000
0100
0010
0001
0100
,  // measure 35
0001
0010
0100
0000
1000
0010
0100
0000
0001
1000
0100
0000
1000
0010
0100
0000
,  // measure 36
0010
0100
0001
0000
0100
0001
0010
0000
0001
0010
0001
0000
0010
0100
1000
0000
,  // measure 37
0001
0100
0010
0000
1000
0010
1000
0000
0001
0100
0001
0000
0100
0010
1000
0000
,  // measure 38
0001
0010
0100
0000
0010
0001
0100
0000
0001
0100
0010
0000
0100
0010
1000
0000
,  // measure 39
0001
0100
0010
1000
0100
0010
0100
1000
,  // measure 40
0100
0001
0100
1000
0010
0100
0001
0100
,  // measure 41
1000
0100
0010
0100
0001
1000
0001
0010
,  // measure 42
0100
1000
0010
0001
0010
0100
0001
0010
,  // measure 43
0100
0000
0000
1000
0100
0000
0000
0100
1000
0000
0000
1000
0010
0000
0000
0010
,  // measure 44
0001
0000
0000
0001
0010
0000
0000
0010
1000
0000
0000
1000
0001
0000
0000
0001
,  // measure 45
0100
0000
0000
0100
0001
0000
0000
0001
0010
0000
0000
0010
0100
0000
0000
0100
,  // measure 46
0010
0000
0000
0010
1000
0000
0000
1000
0010
0000
0000
0010
0001
0000
0000
0001
,  // measure 47
0100
0000
0000
0100
1000
0000
0000
1000
0100
0000
0000
0100
0001
0000
0000
0001
,  // measure 48
0010
0000
0000
0010
0100
0000
0000
0100
0001
0000
0000
0001
0100
0000
0000
0100
,  // measure 49
1000
0000
0100
1000
0100
0000
1000
0010
1000
0000
0001
0100
0010
0000
1000
0001
,  // measure 50
1000
0100
0010
0001
0010
0100
1000
0001
0100
0010
0100
0001
1000
0100
1000
0010
,  // measure 51
0100
0100
0001
0001
1000
1000
0100
0100
,  // measure 52
0010
0010
0001
0001
0100
0100
0001
0001
,  // measure 53
1000
1000
0010
0010
0100
0100
0001
0001
,  // measure 54
0010
0010
0100
0100
1000
1000
0001
0001
,  // measure 55
0100
0010
1000
0010
0100
0001
0010
0100
,  // measure 56
1000
1000
0100
0010
0001
0100
0010
0100
,  // measure 57
0001
0001
0010
0100
0010
0001
0100
0010
,  // measure 58
0100
0100
0001
0010
0100
0010
0001
0100
,  // measure 59
1001
0000
0000
0000
;
