#TITLE:Inverse;
#SUBTITLE:;
#ARTIST:Emoticon feat. Sonitus Vir;
#GENRE:Trancepop;
#TITLETRANSLIT:;
#SUBTITLETRANSLIT:;
#ARTISTTRANSLIT:;
#CREDIT:;
#BANNER:inverse.png;
#BACKGROUND:inverse-bg.png;
#LYRICSPATH:;
#CDTITLE:;
#MUSIC:inverse.ogg;
#OFFSET:0.000;
#SAMPLESTART:69.460;
#SAMPLELENGTH:12.000;
#SELECTABLE:YES;
#BPMS:0.000=151.000,112.000=75.500,128.000=151.000;
#STOPS:;
#BGCHANGES:;

//---------------dance-single - ----------------
#NOTES:
     dance-single:
     :
     Challenge:
     11:
     0.765,0.937,0.274,0.233,0.888:
0000
0000
0000
0000
,
0000
0000
0000
0000
,
0000
0000
0000
0000
,
0000
0000
0000
0000
,
1000
0100
0010
0001
0010
0100
1000
0010
0100
0001
0100
0010
1000
0100
0010
0001
,
0010
0100
1000
0100
0010
0100
0010
0001
0010
0100
1000
0010
0100
0001
0100
0010
,
1000
0010
0100
0001
0100
0010
0100
0010
1000
0010
0100
0001
0010
0100
1000
0100
,
0010
0100
1000
0001
0010
0100
0010
0001
1000
0001
0100
0001
1000
0100
0010
0001
,
1000
0100
1000
0001
0010
0001
1000
0010
1000
0001
0010
0001
1000
0100
1000
0001
,
0100
0001
1000
0100
0010
0001
1000
0010
0100
0001
1000
0001
0100
0001
1000
0100
,
1000
0001
0010
0100
1000
0001
1000
0100
0010
0001
1000
0010
0100
0001
1000
0000
,
1100
0000
0000
0000
0000
0000
0000
0000
0000
1010
0000
0000
0000
0000
0000
0000
0000
0000
1001
0000
0000
0000
0000
0000
0001
0000
0000
0100
0000
0000
0001
0000
0000
0000
0000
0000
1001
0000
0000
0000
0000
0000
1000
0000
0100
0000
0010
0000
,
0002
0000
0000
0000
,
2003
0000
0200
3000
,
0020
0000
0000
0300
,
0002
0000
0000
0030
,
0200
0000
0000
0003
,
0020
0300
2000
0030
,
0200
0000
0000
3000
,
0310
0000
0010
0100
0000
0100
1000
0000
1000
0001
0000
0001
0100
0001
0100
0000
,
0010
0000
1000
0000
1010
0000
0010
0100
0000
0001
0100
0000
1001
0000
0100
0010
,
1000
0000
0010
0000
1010
0000
0100
0001
0000
0010
0100
0000
0110
0000
1100
0000
,
1000
0000
0010
0000
0101
0000
0100
0010
0000
1000
0010
0000
1010
0000
0100
0000
,
0001
0000
0010
0000
0110
0000
0100
1000
0000
0001
1000
0000
1001
0000
0000
0000
,
1000
0000
0100
0000
1100
0000
0010
0001
0000
0001
0010
0000
0011
0000
0010
0000
,
0100
0000
1000
0000
1100
0000
1000
0010
0000
0010
1000
0000
1010
0000
0101
0000
,
0001
0000
0010
0000
0011
0000
0001
0010
0000
0010
0001
0000
0001
0100
0000
0000
,
1010
0000
0000
0000
0000
0000
0000
0000
0000
0000
0000
0000
1000
0100
0010
0001
,
2000
0000
0200
3000
2000
0300
0020
3000
,
0002
0030
0200
0003
2000
0300
0020
3000
,
0230
0000
0002
0300
0200
0003
2000
0300
,
0200
0000
0000
0000
0000
0000
0000
0000
0000
0000
0000
0000
0000
0000
0000
0000
0000
0000
0000
0000
0000
0000
0000
0000
3000
0000
0000
0000
0000
0000
0000
0000
0000
0000
0000
0000
0000
0000
0000
0000
0000
0000
0000
0000
0000
0000
0000
0000
0020
0000
0000
0000
0000
0000
0000
0000
0000
0000
0000
0000
0000
0000
0000
0000
0000
0000
0000
0000
0000
0000
0000
0000
0300
0000
0000
0000
0000
0000
0000
0000
0000
0000
0000
0000
0000
0000
0000
0000
0000
0000
0000
0000
0000
0000
0000
0000
1030
0000
0000
0000
0000
0000
0000
0000
0000
0000
0000
0000
0000
0000
0000
0000
1000
0000
0001
0000
0000
0000
0000
0000
0000
0000
0000
0000
0000
0000
0000
0000
0001
0000
0000
0000
0100
0000
0000
0000
0000
0000
0000
0000
0000
0000
0000
0000
0000
0000
0000
0100
0000
0000
0010
0000
0000
0000
0000
0000
0000
0000
0000
0000
0010
0000
0000
0000
0000
0000
0000
0000
1000
0000
0000
0000
0000
0000
0000
0000
0001
0000
0000
0000
1000
0000
0000
0000
0000
0000
0000
0000
0000
0000
0000
0000
,
0001
0100
0010
1000
0100
0001
0100
0010
,
0001
0010
1000
0010
0100
1000
0001
0100
,
1000
0100
0010
1000
0010
0001
0010
0100
,
1000
0100
0001
0010
0100
1000
1001
0000
,
0110
1000
0010
0100
0001
0010
0100
1000
,
1100
0100
0010
0001
0100
0010
1000
0010
,
1010
0100
0001
0010
0011
0001
0100
0101
,
1001
0000
0000
0000
,
1000
0000
1000
0100
0000
0100
1000
0000
1000
0010
0000
0010
1000
0100
0010
0001
,
1000
0000
1000
0100
0000
0100
1000
0000
1000
0010
0000
0010
1000
0001
1000
0000
,
0001
0000
0001
0010
0000
0010
0001
0000
0001
0100
0000
0100
0001
0010
0100
1000
,
0001
0000
0001
0100
0000
0100
0001
0000
0001
1000
0000
1000
0001
1000
0001
0000
,
1000
0000
1000
0010
0000
0010
1000
0000
1000
0001
0000
0001
1000
0010
0100
0001
,
1000
0000
1000
0100
0000
0100
1000
0000
1000
0001
0000
0001
1000
0001
1000
0000
,
0001
0000
0001
0100
0000
0100
0001
0000
0001
0010
0000
0010
0001
0100
0010
1000
,
0001
0000
0001
0100
0000
0100
0001
0000
0001
1000
0000
1000
0100
1000
0100
0000
,
1000
0000
0100
1000
0010
0000
0100
0001
0010
0000
0001
0100
0010
1000
0001
0000
,
0100
0000
0100
0001
0000
0001
1000
0000
1000
0100
0000
0100
1000
0001
1000
0000
,
0001
0000
0100
0010
1000
0000
0100
0010
0001
0000
0100
0010
1000
0000
0001
1000
,
0100
0000
0100
1000
0000
1000
0001
0000
0001
0100
0000
0100
0001
1000
0001
0000
,
1000
0000
0100
1000
0001
0000
0100
0001
0010
0000
0100
1000
0010
0000
0100
0001
,
1000
0001
0100
0001
0000
0001
1000
0100
1000
0001
0000
0001
0100
0010
1000
0000
,
0100
0000
1000
0010
0100
0000
0001
0010
0001
0000
0100
0010
1000
0100
0010
0001
,
1000
0000
1000
0001
0000
0001
0100
0000
0100
0010
0000
0010
1000
0100
0010
0001
;

//---------------dance-single - Renard----------------
#NOTES:
     dance-single:
     Renard:
     Hard:
     8:
     0.458,0.482,0.041,0.193,0.167:
0000
0000
0000
0000
,
0000
0000
0000
0000
,
0000
0000
0000
0000
,
0000
0000
0000
0000
,
1000
0000
0000
0001
0000
0000
0100
0000
0000
0010
0000
0000
1000
0000
0100
0000
,
0010
0000
0000
0001
0000
0000
0010
0000
0000
0100
0000
0000
1000
0000
0000
0000
,
0010
0000
0000
0100
0000
0000
0001
0000
0000
0100
0000
0000
0010
0000
1000
0000
,
0100
0000
0000
0010
0000
0000
0001
0000
0000
0010
0000
0000
0100
0000
0000
0000
,
1000
0010
1000
0010
0100
0100
0100
0100
,
0001
0010
0001
0010
0100
0100
0100
0100
,
1000
0010
1010
0000
0001
0100
0101
0000
,
1000
0000
0000
0001
0000
0000
0100
0000
0001
1000
0001
0000
1000
0000
0000
0000
,
2000
0000
0000
0000
,
3200
0000
0320
0000
,
0032
0000
0000
0000
,
0203
0000
0000
0000
,
0320
0000
0000
0000
,
2030
0000
3200
0000
,
0320
0000
0000
0000
,
0031
0000
0000
0100
0000
0000
0010
0000
0000
1000
0000
0000
0100
1000
0000
0100
,
0000
1000
0010
0000
0100
0000
0001
0000
0100
0000
0010
0000
1000
0000
0100
0000
,
1000
0010
0100
0001
1000
0100
1000
0000
,
0001
0010
0001
1000
0010
1000
0001
0100
,
0001
1000
0100
1000
0001
0000
1001
0000
,
1000
0010
0100
0001
0010
0100
1000
0010
,
0100
0001
1000
0100
1000
0001
0010
0001
,
1000
0010
1000
0001
0100
0001
1000
0001
,
1000
0000
0000
0000
0000
0000
0001
0100
,
0020
0000
2030
0000
,
3020
0230
0302
2003
,
3200
0000
2300
0000
,
3020
0000
0000
0000
0230
0000
0000
0000
0301
0000
0001
0000
1000
0001
1000
0000
,
0001
0100
0010
1000
0100
1000
0100
1000
,
0010
0100
0001
1000
0001
1000
0001
1000
,
0100
0010
0001
1000
0010
1000
0010
1000
,
0001
0100
0001
1000
0100
1000
0100
0000
,
0010
0001
1000
0000
0010
1000
0001
0000
,
0010
0001
1000
0000
0010
1000
0001
0000
,
1000
0001
0100
0000
0100
0001
1000
0100
,
1001
0000
0000
0000
,
1000
0000
0000
0001
0000
0000
0100
0000
0000
0010
0000
0000
1000
0000
0100
0000
,
0010
0001
0010
0100
1000
0010
0100
0000
,
0001
0000
0000
0100
0000
0000
0010
0000
0000
1000
0000
0000
0100
0000
1000
0000
,
0010
0100
0001
0000
1000
0100
1000
0000
,
0001
0000
0000
0010
0000
0000
0100
0000
0000
1000
0000
0000
0010
0000
0100
0000
,
0001
1000
0100
0000
1000
0001
0100
0000
,
0001
0000
0000
1000
0000
0000
0010
0000
0000
0100
0000
0000
0001
1000
0000
0000
,
0100
1000
0001
0000
0100
0001
1000
0000
,
0100
0000
0000
0000
1000
0000
0000
0000
0010
0000
0100
0000
0001
0000
0000
0001
,
0100
0000
0010
0000
1000
0000
0000
1000
0100
0000
0010
0000
0001
0000
0000
0000
,
1000
0000
0000
0000
0010
0000
0000
0000
0100
0000
0100
0000
0001
0000
0000
0001
,
1000
0000
0100
0000
0100
0000
0000
0100
1000
0000
0010
0000
0100
0000
0000
0000
,
0001
0000
0100
0000
0010
0000
0000
0010
1000
0000
0100
0000
0010
0000
0000
0000
,
0001
0000
0100
0000
0010
0000
0000
0010
1000
0000
0100
0000
0010
0000
0000
0000
,
0001
0000
1000
0000
0100
0000
0000
0100
1000
0000
0010
0000
0100
0000
0001
1000
,
0001
0000
1000
0000
0010
0100
0001
0100
;

//---------------dance-single - Renard----------------
#NOTES:
     dance-single:
     Renard:
     Medium:
     5:
     0.322,0.369,0.030,0.142,0.000:
0000
0000
0000
0000
,
0000
0000
0000
0000
,
0000
0000
0000
0000
,
0000
0000
0000
0000
,
1000
0001
0100
0001
,
1000
0000
0100
0000
1000
0001
0010
0000
,
0001
1000
0010
1000
,
0001
0000
0100
0000
0001
1000
0100
0000
,
0010
0010
0001
0000
0100
0000
0010
0000
,
1000
1000
0100
0000
0010
0000
0001
0000
,
0100
0100
0001
0000
1000
1000
0100
0000
,
1000
0000
1000
0000
0001
0100
0001
0000
,
1002
0000
0000
0000
,
0203
0000
0000
0000
,
0320
0000
0000
0000
,
2030
0000
0000
0000
,
3002
0000
0000
0000
,
2003
0000
0000
0000
,
3200
0000
0000
0000
,
0320
0000
0000
0000
,
0031
0000
0100
0010
1000
0000
0010
0100
,
0001
0000
1000
0100
1000
0000
0001
0010
,
0001
0000
1000
0010
1000
0000
0001
0100
,
0001
1000
0100
0010
,
0001
0000
1000
0010
1000
0000
0001
0100
,
0001
0000
1000
0100
1000
0000
0001
0000
,
0010
0000
0001
1000
0010
0000
1000
0000
,
0001
0000
0000
0000
,
1002
0000
0203
0000
,
0320
1000
0001
0100
,
2030
0000
3200
0000
,
0320
0001
1000
0100
,
0031
0000
0010
0000
0100
0000
1000
0010
,
1000
0001
0100
0001
,
1000
0000
0100
0000
0010
0000
0001
1000
,
0001
0100
0010
1000
,
0100
0000
1000
0000
0001
0000
0010
0001
,
1000
0010
1000
0001
,
0100
0001
1000
0100
,
1001
0000
0000
0000
,
1000
0001
0100
1000
,
0100
0000
0001
0000
0010
1000
0010
0000
,
0001
0100
0010
1000
,
0001
0000
0100
0000
1000
0100
1000
0000
,
0100
0001
0010
1000
,
0010
0000
0001
0000
0100
0001
0100
0000
,
1000
0100
0001
0010
,
1000
0010
1000
0000
0010
0001
0010
0000
,
0001
0000
0100
0001
0100
0000
1000
0000
,
0100
0000
0010
0000
1000
0000
0010
0001
,
0010
1000
0100
0001
,
0100
0000
1000
0000
0010
0000
0001
0010
,
0001
0010
1000
0100
,
0001
0000
0100
0001
0100
0000
1000
0000
,
0100
0001
0010
1000
,
0010
0000
0001
0000
0100
0001
1000
0001
;

//---------------dance-single - Renard----------------
#NOTES:
     dance-single:
     Renard:
     Easy:
     3:
     0.320,0.368,0.335,0.142,0.000: // measure 1
0000
0000
0000
0000
,  // measure 2
0000
0000
0000
0000
,  // measure 3
0000
0000
0000
0000
,  // measure 4
0000
0000
0000
0000
,  // measure 5
0001
1000
0010
1000
,  // measure 6
0001
0010
0001
1100
,  // measure 7
1000
0001
0100
0001
,  // measure 8
1000
0010
1000
0011
,  // measure 9
0100
1100
0010
0100
,  // measure 10
0001
0011
0100
1000
,  // measure 11
0010
1010
0001
0011
,  // measure 12
0001
0001
1000
1010
,  // measure 13
2001
0000
0000
0000
,  // measure 14
3020
0000
0000
0000
,  // measure 15
0230
0000
0000
0000
,  // measure 16
0302
0000
0000
0000
,  // measure 17
2003
0000
0000
0000
,  // measure 18
3002
0000
0000
0000
,  // measure 19
0023
0000
0000
0000
,  // measure 20
0230
0000
0000
0000
,  // measure 21
1300
0010
0101
0100
,  // measure 22
1010
0001
0011
1000
,  // measure 23
1100
0001
0101
1000
,  // measure 24
1010
0001
0010
0100
,  // measure 25
1000
0001
0101
1000
,  // measure 26
1010
0001
0011
1000
,  // measure 27
0100
1000
0101
0001
,  // measure 28
1000
0000
0000
0000
,  // measure 29
2001
0000
3020
0000
,  // measure 30
0230
0001
1000
0010
,  // measure 31
0302
0000
0023
0000
,  // measure 32
0230
1000
0001
0010
,  // measure 33
1300
0100
0010
0001
,  // measure 34
0101
1000
0010
1000
,  // measure 35
0001
0010
0100
1000
,  // measure 36
1001
0010
0100
0001
,  // measure 37
0010
0001
1000
0100
,  // measure 38
1001
0100
0001
1000
,  // measure 39
0010
1000
0001
0010
,  // measure 40
1001
0000
0000
0000
,  // measure 41
0001
1000
0010
0001
,  // measure 42
0010
1000
0100
0101
,  // measure 43
1000
0010
0100
0001
,  // measure 44
1000
0010
0001
0011
,  // measure 45
0010
1000
0100
0001
,  // measure 46
0100
1000
0010
1010
,  // measure 47
0001
0010
1000
0100
,  // measure 48
0001
0101
0100
1100
,  // measure 49
1000
0010
1010
0001
,  // measure 50
0010
0100
0001
0100
,  // measure 51
1100
0001
0010
1000
,  // measure 52
0010
0001
0100
1000
,  // measure 53
1100
0100
0001
0010
,  // measure 54
1000
0010
1010
0001
,  // measure 55
0010
1000
0100
0001
,  // measure 56
0100
1000
0010
1001
;
