#TITLE:IM the Supervisor;
#SUBTITLE:;
#ARTIST:Infected Mushroom;
#GENRE:Psytrance;
#TITLETRANSLIT:;
#SUBTITLETRANSLIT:;
#ARTISTTRANSLIT:;
#CREDIT:;
#BANNER:super.png;
#BACKGROUND:super-bg.png;
#LYRICSPATH:;
#CDTITLE:;
#MUSIC:super.ogg;
#OFFSET:0.000;
#SAMPLESTART:42.827;
#SAMPLELENGTH:12.000;
#SELECTABLE:YES;
#BPMS:0.000=140.000,76.250=139.180,76.500=125.560,76.750=106.780,77.000=91.580,77.250=86.780,77.500=80.380,77.750=72.760,78.000=63.160,78.167=90.400,78.250=118.920,78.375=155.720,78.500=163.570,79.000=140.000;
#STOPS:;
#BGCHANGES:;

//---------------dance-single - Renard----------------
#NOTES:
     dance-single:
     Renard:
     Challenge:
     10:
     0.722,0.737,0.199,0.057,0.564:
0000
0000
0000
0000
,
0000
0000
0000
0000
,
1001
0000
0000
0000
1000
0000
0001
0000
0100
0000
0010
1000
0000
0000
1001
0000
,
0000
0000
0000
0000
1000
0100
0010
0001
0010
0000
0100
1000
0000
0000
0001
0000
,
1000
0100
0011
0100
1000
0110
1000
0001
,
1010
0100
0010
0101
0010
1000
0110
1000
,
0100
0011
0100
0010
1001
0100
0010
1001
,
0100
0000
0010
0000
0101
0000
0010
0000
1000
0001
0000
2000
0000
0000
3001
0000
,
1000
0000
0000
0001
0000
0100
0010
0000
1000
0000
0000
0001
0000
0100
0010
0000
,
1000
0000
0000
0001
0000
0100
0010
0000
1000
0100
0000
0010
0000
0000
0001
0000
,
0010
0000
0000
0100
0000
1000
0001
0000
0010
0000
0000
0100
0000
1000
0001
0000
,
0010
0000
0000
0100
0000
1000
0001
0000
0010
0001
0000
1000
0000
0000
0001
0000
,
1000
0100
1000
0010
1000
0001
1000
0010
,
0100
0001
0010
0001
0100
0001
1000
0100
,
0010
0001
0010
1000
0010
0100
0010
0001
,
1000
0100
1000
0010
0100
0001
0010
0001
,
1000
0000
0000
0001
0000
0000
0100
0000
0010
0000
1000
0000
0001
0000
1000
0000
,
0001
0000
0000
0100
0000
0000
0010
0000
1000
0000
0001
0000
1000
0000
0001
0000
,
1000
0000
0000
0100
0000
0000
0010
0000
0001
0000
1000
0000
0001
0000
1000
0000
,
2002
0000
0000
0000
0000
3003
1000
0001
,
0100
0000
0010
0000
1000
0000
0100
0000
0010
0000
0001
1000
0001
0000
1000
0000
,
0100
0000
1000
0000
0010
0000
0100
0000
0001
0000
1000
0001
1000
0000
0010
0000
,
0100
0000
0001
0000
1000
0000
0100
0000
1000
0000
0001
0100
0001
0000
0100
0000
,
0010
0000
1000
0000
0100
0000
0010
0000
0001
0000
1000
0001
1000
0000
0001
0000
,
0100
0000
0010
0000
1000
0000
0100
0010
0100
0000
0010
0001
0010
0000
0100
0000
,
1000
0000
0001
0000
0100
0000
0010
1000
0001
0000
0001
1000
0010
0000
0100
0000
,
0001
0000
1000
0000
0100
0000
0010
0001
0010
0000
0100
1000
0100
0000
1000
0100
,
1000
0000
0000
0100
0010
0000
0000
0001
1000
0001
1000
0001
2000
0000
0000
0000
,
3100
0000
1000
0000
0010
0100
0000
0001
0000
0000
1000
0000
0100
0000
0000
0000
,
1001
0000
0000
0000
1010
0000
0000
0101
0000
0000
0000
0000
0002
0000
0000
0000
,
0013
0000
0001
0000
0100
0010
0000
1000
0000
0000
0010
0000
0100
0000
0000
0000
,
1001
0000
0000
0000
1010
0000
0000
0101
0000
0000
0000
0000
1000
0000
0010
0000
,
0100
0000
0001
0000
1000
0100
0000
0010
0001
0000
0010
0000
0100
0000
1000
0000
,
0001
0000
0100
0000
0010
0000
1000
0100
1000
0000
0010
0000
0100
0000
0001
0000
,
1000
0000
0100
0000
0010
0001
0010
0000
0100
0000
1000
0000
0001
0000
0100
0000
,
0010
0000
1000
0000
0001
0000
0100
0000
0010
0000
1000
0001
1000
0100
0000
0100
,
1000
0000
0001
0010
0000
0010
0001
0000
1000
0010
0000
0010
1000
0000
0001
0100
,
0000
0100
0001
0000
1000
0001
0000
0001
1000
0000
0010
0100
0000
0100
0010
0000
,
1000
0010
0000
0010
0100
0000
0100
0001
0000
0001
1000
0000
1000
0100
0000
0100
,
0010
0000
0010
0001
0000
0001
1000
0000
1000
0001
1000
0001
1000
0000
0100
0000
,
1000
0000
0010
0100
0001
0000
1000
0000
0100
0010
0100
0000
1000
0000
0001
0000
,
0100
0000
0010
1000
0001
0000
1000
0000
0001
0100
0001
0100
0010
0000
0100
0000
,
0001
0000
1000
0000
0100
0000
0010
0000
0100
0010
0100
0000
0010
0000
0100
0000
,
1000
0000
0001
0000
0100
0000
0010
1000
0010
0100
0001
0000
1000
0000
0100
0000
,
1000
0000
0010
0100
0001
0000
1000
0000
0100
0010
0100
0000
1000
0000
0001
0000
,
0100
0000
0010
1000
0001
0000
1000
0000
0001
0100
0001
0100
0010
0000
0100
0000
,
0001
0000
1000
0000
0100
0000
0010
0000
0100
0010
0100
0000
0010
0100
0000
0110
,
0000
0000
0010
0000
0100
1000
0000
1010
0000
1001
0000
0000
0001
0000
0100
0000
,
0010
0000
1000
0001
1000
0000
0010
0000
0100
0000
0001
0000
1000
0000
0100
0000
,
0010
0000
0001
0010
0001
0000
0010
0000
0100
0000
1000
0000
0001
0000
0100
0000
,
0010
0000
1000
0001
1000
0000
0010
0000
0100
0000
0001
0000
1000
0000
1000
0100
,
0010
0000
0010
0001
0010
0000
0010
0100
1000
0000
1000
0001
0100
0000
0010
0000
,
1000
0000
0001
0100
0001
0000
0100
0000
0010
0000
1000
0000
0100
0000
0010
0000
,
0001
0000
0100
0001
0100
0000
0010
0000
1000
0000
0001
0000
0100
0000
0010
0000
,
1000
0000
0100
1000
0100
0000
1000
0000
0001
0000
0010
0000
0001
0010
0001
0001
,
0100
0001
0010
0010
0100
1000
0010
0010
0100
0001
1000
1000
0010
0000
0100
0000
,
0001
0000
1000
0000
0100
1000
0000
0010
0000
0000
0100
0000
0001
0000
0100
0000
,
0010
0000
1000
0000
0200
0000
0000
0310
0000
0000
0001
0000
0010
0000
0100
0000
,
1000
0000
0001
0000
0100
0010
0000
1000
0000
0000
0010
0000
0100
0000
0001
1000
,
0100
0000
0000
0000
0000
0000
0010
0000
0000
0000
0000
0000
0001
0000
0000
0000
0000
0000
0000
0000
0000
0010
0000
0000
0000
0000
0000
0000
0000
0000
0100
0000
1000
0000
0001
0000
0100
0000
0000
0000
0000
0000
0000
0000
0000
0000
0000
0000
;

//---------------dance-single - Renard----------------
#NOTES:
     dance-single:
     Renard:
     Hard:
     8:
     0.593,0.567,0.218,0.076,0.090:
0000
0000
0000
0000
,
0000
0000
0000
0000
,
1001
0000
0000
0000
,
0000
0000
0000
0000
0000
0000
0000
1000
,
0001
0100
0010
1000
0100
0010
0001
0010
,
0100
1000
0010
0100
0001
0100
1000
0100
,
0001
0010
0100
1000
0100
0010
0001
1000
,
0010
0000
0100
0000
0001
0000
1000
0000
0100
0000
0000
0010
0000
0000
0001
0000
,
1000
0001
0100
0001
1000
0100
1000
0001
,
0010
0001
1000
0010
0100
0000
1001
0000
,
1000
0100
0010
0001
0100
0010
1000
0010
,
0100
0001
0010
0100
1000
0000
1001
0000
,
1010
0000
0100
0000
0001
0010
0000
0011
,
0101
0000
0110
0000
1000
0010
0000
0101
,
1001
0000
1010
0000
1000
0100
0000
0011
,
1100
0000
1001
0000
0001
0100
0000
0100
,
0010
0100
0001
0010
1000
0010
0100
1000
,
0001
1000
0010
0001
0010
0100
0001
1000
,
0100
0010
1000
0010
0001
0100
1000
0000
,
0202
0000
0000
0000
0000
0303
0001
0100
,
0010
1000
0100
0001
0100
0001
0100
1000
,
0010
0100
0001
0010
0001
0010
0100
1000
,
0010
0100
1000
0100
1000
0100
0001
0010
,
0100
1000
0100
0001
0100
0001
0100
1000
,
0010
0001
0010
1000
0100
0001
0100
1000
,
0010
0100
0001
0100
0010
1000
0100
0001
,
0100
1000
0001
0010
1000
0010
0001
0100
,
0010
0000
1000
0000
0100
0000
0001
0000
0100
1000
0100
1000
0100
0000
1000
0000
,
0010
0100
0001
1000
0001
0100
0010
0000
,
1010
0000
0000
0000
0102
0000
0000
0013
0000
0000
0000
0000
0100
0000
0010
0000
,
1000
0100
0010
0001
0010
0000
2001
0000
,
3010
0000
0000
0000
0102
0000
0000
1003
0000
0000
0000
0000
0010
0000
0001
0000
,
0100
0010
1000
0001
1000
0010
0100
0000
,
0101
0000
0000
0000
2010
0000
0000
3100
0000
0000
0000
0000
0010
0000
0100
0000
,
0001
0010
0100
1000
0100
0000
1002
0000
,
0103
0000
0000
0000
2010
0000
0000
3001
0000
0000
0000
0000
1000
0000
0000
0000
,
1000
0100
0100
1000
,
1000
0000
0001
0000
0001
0000
0010
0001
,
0100
0010
1000
0100
0010
0001
1000
0010
,
0100
0000
0001
0000
1000
0000
0100
0000
0010
0001
0010
0001
1000
0000
0100
0000
,
1000
0010
0100
0001
0010
0100
0010
0100
,
1000
0001
0100
0010
1000
0100
1000
0001
,
0010
0001
0100
0010
1000
0100
0010
0001
,
0010
0100
1000
0010
0100
0001
1000
0100
,
1000
0001
0010
0001
0100
0010
1000
0001
,
0100
0010
0100
0001
1000
0100
0010
0001
,
0100
0001
1000
0100
1000
0010
0100
0001
,
1000
0000
0100
0000
0010
0001
0000
1000
0000
0100
0000
0000
0010
0000
0001
0000
,
1000
0010
0100
0001
0100
0010
1000
0100
,
1000
0010
0100
0001
0010
0001
0100
0010
,
1000
0100
0010
0100
1000
0001
0010
0100
,
0010
0001
1000
0010
0100
0001
1000
0100
,
1000
0001
0010
0001
0100
0010
0100
0010
,
1000
0100
1000
0010
0100
0001
0010
0001
,
0100
0000
0010
0000
0100
0000
0010
0000
1000
0000
0001
0000
0010
0000
0001
0010
,
0001
0000
0010
0100
0010
0000
0100
1000
0100
0000
1000
0000
0010
0000
0100
0000
,
0001
0000
1000
0000
0100
0000
0010
0001
0000
0000
0010
0000
0100
0000
1000
0000
,
0010
0000
0100
0000
0001
0000
1000
0001
0000
0000
1000
0000
0010
0000
0100
0000
,
0001
0000
0010
0000
0100
0000
1000
0001
0000
0000
0100
0000
0010
0000
1000
0000
,
0100
0000
0010
0000
0001
0000
0010
0100
0000
0000
0010
0000
1001
0000
0000
0000
;

//---------------dance-single - Renard----------------
#NOTES:
     dance-single:
     Renard:
     Medium:
     7:
     0.386,0.397,0.199,0.019,0.142:
0000
0000
0000
0000
,
0000
0000
0000
0000
,
0000
0000
0000
0000
,
0000
0000
0000
0000
,
0000
0000
1010
0000
0000
1100
0000
0000
,
0011
0000
0000
0101
0000
0000
1001
0000
,
0000
1100
0000
0000
1010
0000
0000
0101
,
0000
0000
0000
0000
0011
0000
0000
0000
0001
1000
0000
0001
0000
0000
1000
0000
,
0010
0000
0000
0100
0000
0000
0001
0000
1000
0000
0000
0100
0000
0000
1000
0000
,
0010
0000
0000
0100
0000
0000
0001
0000
1000
0000
0001
0000
1000
0000
0000
0000
,
0001
0000
0000
0010
0000
0000
0100
0000
1000
0000
0000
0001
0000
0000
0100
0000
,
0001
0000
0000
1000
0000
0000
0001
0000
1000
0000
0001
0000
1000
0000
0000
0000
,
1000
0000
0010
0000
0100
0001
0000
0100
,
0010
0000
1000
0000
0100
0010
0000
0001
,
0010
0000
0100
0000
1000
0001
0000
0100
,
0001
0000
1000
0000
0100
1000
0000
0010
,
0100
0100
0010
0010
,
1000
1000
0001
0001
,
1000
0000
0001
1000
0001
0000
1000
0000
,
2002
0000
0000
0000
0000
3003
1000
0010
,
0100
0001
0100
0000
0000
0000
0001
0000
,
1000
0000
0100
0000
0000
0000
1000
0100
,
0010
0001
1000
0000
0000
0000
0001
0000
,
1000
0000
1001
0000
1010
0000
0100
0001
,
0100
0000
0010
0000
0010
0000
1000
0100
,
1000
0010
0010
1000
,
0000
0010
0100
0000
0000
0100
0001
0000
,
1000
0000
0001
0000
1000
0001
1000
0000
,
0001
0000
0000
0000
0100
0000
0000
0010
0000
0000
1000
0000
0100
0000
0000
0000
,
1000
0000
0000
0000
0010
0000
0000
0100
0000
0000
0000
0000
0000
0000
0000
0000
,
0001
0000
1000
0000
0100
0000
0000
1000
0000
0000
0010
0000
0100
0000
0000
0000
,
0001
1000
0000
0000
,
0100
0000
0000
0000
1000
0000
0000
0010
0000
0000
0100
0000
0001
0000
0000
0000
,
1000
0000
0000
0000
0100
0000
0000
1000
0000
0000
0000
0000
0010
0000
0000
0000
,
0100
0000
0001
0000
1000
0000
0000
0100
0000
0000
1000
0000
0001
0000
0000
0000
,
0100
0000
0000
0000
0010
0000
0000
0000
1001
0000
0000
0000
1000
0000
0000
0100
,
0000
0000
0010
0000
0000
0001
0000
0000
0010
0000
0000
0100
0000
0000
1000
0000
,
0000
0010
0000
0000
0100
0000
0000
0001
0000
0000
0100
0000
0000
0010
0000
0000
,
1000
0000
0000
0010
0000
0000
0100
0000
0000
0001
0000
0000
0100
0000
0000
0000
,
0010
0000
1000
0001
1000
0001
1000
0000
,
0010
0100
0000
0100
0001
0000
1000
0000
,
0100
0000
0000
0000
0010
0000
0000
0001
0000
0000
0000
0000
0010
0000
0000
0000
,
0100
1000
0000
1000
0100
0000
1000
0000
,
0010
1001
1010
1000
,
1000
0010
0000
0010
0100
0000
0001
0000
,
1000
0001
0000
1000
0001
0000
1001
0000
,
1000
0010
0000
1000
0010
0000
1001
0000
,
1100
0000
0000
0000
0010
0001
0000
1000
0000
0001
0000
0000
1000
0000
0000
0000
,
0010
0100
0001
1000
,
1100
0000
0000
0000
0001
0000
0000
0010
0000
0000
0000
0000
0001
0000
0000
0000
,
0010
0100
1000
0000
0010
0000
0100
0000
,
0001
1001
1010
0100
,
0001
0010
0100
0000
1000
0000
0010
0000
,
0100
0000
0000
0000
0001
0000
0000
1000
0000
0000
0000
0000
0010
0000
0000
0000
,
0100
0001
1000
0000
0001
0000
1000
1000
,
0100
0100
0010
0010
0001
0000
1000
0000
,
0001
1000
0010
0000
0100
0000
0001
0000
,
0001
1000
1000
0100
,
1000
0000
0001
0000
0100
0000
0000
0001
0000
0000
1000
0000
0100
0000
0000
0000
,
1000
0000
0000
0000
0010
0000
0000
1000
0000
0000
0001
0000
1000
0000
0000
0000
;

//---------------dance-single - Renard----------------
#NOTES:
     dance-single:
     Renard:
     Easy:
     4:
     0.335,0.453,0.408,0.019,0.000: // measure 1
0000
0000
0000
0000
,  // measure 2
0000
0000
0000
0000
,  // measure 3
0000
0000
0000
0000
,  // measure 4
0000
0000
0000
0000
,  // measure 5
0000
0000
1001
0000
0000
1010
0000
0000
,  // measure 6
0101
0000
1000
0000
,  // measure 7
0000
0000
0101
0000
0000
1010
0000
0000
,  // measure 8
1100
0000
1000
0000
,  // measure 9
0001
0001
0100
0100
,  // measure 10
0001
0001
1000
1000
,  // measure 11
0100
0100
1000
1000
,  // measure 12
0010
0010
0100
0000
,  // measure 13
0000
1001
0000
1010
0000
0101
0000
1001
,  // measure 14
0000
1010
0000
1100
0000
0011
0000
0101
,  // measure 15
0000
1001
0000
1010
0000
1100
0000
0011
,  // measure 16
0000
0101
0000
1001
0000
1010
0000
1100
,  // measure 17
0000
1000
0001
0000
1000
0001
0000
1000
,  // measure 18
0000
0001
1000
0000
0001
1000
0000
0001
,  // measure 19
0000
1000
0001
0000
1000
0001
0000
1000
,  // measure 20
2002
0000
0000
0000
3003
0000
1000
0010
,  // measure 21
0100
0000
0100
0000
0100
0000
0001
0100
,  // measure 22
0010
0000
0010
0000
0000
0000
1000
0100
,  // measure 23
1000
0000
1000
0000
1000
0000
0001
0100
,  // measure 24
0001
0001
0000
1000
,  // measure 25
0000
0001
1000
0000
0000
0010
1000
0000
,  // measure 26
0001
0101
0000
0001
,  // measure 27
0000
0010
0100
0000
0000
1000
0001
0000
,  // measure 28
1000
1001
0000
1000
,  // measure 29
0001
0100
0011
0000
1000
0000
0001
0000
,  // measure 30
0100
0010
0010
1000
,  // measure 31
0001
0100
0001
0000
1000
0000
0100
0000
,  // measure 32
0100
1000
0000
0001
,  // measure 33
0100
0001
1000
0000
1100
0000
0001
0000
,  // measure 34
0010
0001
0010
0000
0011
0000
0100
0000
,  // measure 35
1000
0001
1001
1000
,  // measure 36
0010
1000
1001
1000
,  // measure 37
0000
0001
0000
0000
0100
0000
0000
0010
,  // measure 38
0000
0000
1000
0000
0000
0001
0000
0000
,  // measure 39
0100
0000
0000
0010
0000
0000
1000
0000
,  // measure 40
0001
0000
1000
0000
0001
1000
0001
0000
,  // measure 41
0001
1000
0000
0010
,  // measure 42
0100
0101
0000
0100
,  // measure 43
0010
1000
0000
0100
,  // measure 44
1000
1100
0000
0010
,  // measure 45
0001
0101
0000
0100
,  // measure 46
0010
1010
0000
1000
,  // measure 47
0100
0011
0000
0100
,  // measure 48
1000
0001
1000
0001
,  // measure 49
1000
1010
0000
0001
,  // measure 50
1000
0101
0000
1000
,  // measure 51
0001
0011
0000
0001
,  // measure 52
1000
1100
0000
1000
,  // measure 53
0001
1000
0001
1000
,  // measure 54
1000
0010
0010
0100
,  // measure 55
0001
1000
0001
0000
0001
0000
0100
0000
,  // measure 56
0100
0000
0010
1000
0010
0000
1000
0000
,  // measure 57
0001
0100
0000
0001
,  // measure 58
1000
0100
0000
1000
,  // measure 59
0000
0001
0000
0101
,  // measure 60
1010
1001
0000
0110
;
