#TITLE:I Like To Move It;
#SUBTITLE:;
#ARTIST:Reel 2 Real;
#GENRE:Dance;
#TITLETRANSLIT:;
#SUBTITLETRANSLIT:;
#ARTISTTRANSLIT:;
#CREDIT:;
#BANNER:move.png;
#BACKGROUND:move-bg.png;
#LYRICSPATH:;
#CDTITLE:;
#MUSIC:move.mp3;
#OFFSET:-4.003;
#SAMPLESTART:66.420;
#SAMPLELENGTH:12.000;
#SELECTABLE:YES;
#BPMS:0.000=123.010;
#STOPS:;
#BGCHANGES:;

//---------------dance-single - Renard----------------
#NOTES:
     dance-single:
     Renard:
     Hard:
     9:
     0.552,0.558,0.451,0.409,0.063:
2200
0001
0010
3001
,
0020
1000
0001
1030
,
0002
1000
0010
1003
,
0310
0110
1010
1001
,
1000
0100
1000
0010
1000
0001
1000
0010
,
0100
0001
0100
0010
0100
0001
0010
0001
,
0100
0001
0100
0010
0100
1000
0100
0010
,
1000
0100
1000
0010
0100
0000
0110
0000
,
2000
0000
0200
0000
3310
0000
0001
0010
,
0200
0000
2000
0000
0010
0010
3301
0000
,
0002
0000
0200
0000
0313
0000
1000
0010
,
0200
0000
0002
0000
1000
1000
0313
0000
,
2000
0000
0200
0000
3310
0000
0001
0010
,
0200
0000
2000
0000
0010
0010
3301
0000
,
0002
0000
0200
0000
0313
0000
1000
0010
,
0100
0001
1000
0010
,
1111
0000
1000
0010
0100
0001
1000
0000
,
0010
0100
0001
1000
0100
0000
1000
0000
,
1111
0000
0001
0100
0010
1000
0100
0000
,
1000
0000
0010
0100
0001
0010
0001
0000
,
1110
1000
0111
0001
,
0022
1000
0133
1001
,
1110
0001
0111
1000
,
1000
0010
0100
0001
1000
0000
1001
0000
,
1000
0010
0100
0001
1000
0100
0010
0100
,
1000
0001
0010
0100
0020
0000
1031
0000
,
0001
1000
0100
1000
0010
0100
0001
1000
,
0010
0100
0001
1000
0200
0000
1301
0000
,
1000
0010
0100
0001
1000
0100
0010
0100
,
1000
0001
0010
0100
0020
0000
1031
0000
,
0001
1000
0100
1000
0010
0100
0001
1000
,
1100
0011
2002
3113
,
1000
0100
0010
0001
1000
0001
0101
1010
,
0000
1000
0100
0010
0001
0100
1010
0101
,
0000
1000
0100
0010
0001
0010
1100
0011
,
0000
1000
0010
0100
0001
0000
1111
0000
,
0001
0010
0100
1000
0001
1000
1010
0101
,
0000
0001
0010
0100
1000
0010
0101
1010
,
0000
0001
0010
0100
1000
0100
0011
1100
,
0000
0001
0100
0010
1000
0000
1111
0000
,
1000
0000
0001
0000
0110
0000
0000
1000
0000
0100
0000
2200
0000
0000
3301
0000
,
1000
0000
0001
0000
0110
0000
0000
1000
0000
0100
0000
2200
0000
0000
3301
0000
,
0001
0000
1000
0000
0110
0000
0000
0001
0000
0010
0000
0022
0000
0000
1033
0000
,
0001
0000
1000
0000
0110
0000
0000
0001
0000
0010
0000
0022
0000
0000
1033
0000
,
0002
0000
0200
0000
0313
0000
0010
1000
,
0100
0000
1000
0000
0020
0200
0002
2000
,
0000
3333
0000
0000
;

//---------------dance-single - Renard----------------
#NOTES:
     dance-single:
     Renard:
     Medium:
     6:
     0.355,0.337,0.157,0.000,0.000:
1000
0000
1000
0000
1000
0000
1000
0001
,
0100
0000
0100
0000
0100
0001
1000
0001
,
1000
0000
1000
0000
1000
0000
1000
0100
,
0010
0000
0010
0001
1000
0000
1000
0001
,
0100
0001
1000
0001
1000
0000
0001
0000
,
1000
0100
1001
1001
,
0100
0000
0001
1000
0100
0000
1000
0000
,
0001
1000
0001
1000
,
0011
0000
0000
0000
1100
0000
0000
1000
,
0010
0000
0100
0001
,
0011
0000
0000
0000
1100
0000
0000
1000
,
0010
0100
0001
1000
,
0100
0000
1100
0000
,
0011
0000
0000
0000
0101
0000
0000
0001
,
0100
0000
0000
0100
0010
0000
0000
0010
,
1000
0001
1000
0001
1000
0001
1000
0000
,
0001
0000
0100
0000
0001
1000
0100
0000
,
1000
0000
0001
0000
0100
0001
0100
0000
,
0001
0000
1000
0000
0100
1000
0100
0000
,
1000
0000
0001
0000
0100
0000
0001
1000
,
0001
0001
1000
1000
,
0001
1000
0001
1000
0001
0000
1000
0000
,
0010
0010
0100
0100
,
0010
0100
0010
0100
0010
1000
0001
1000
,
0001
0000
1001
0000
1000
0010
1010
0000
,
0010
0100
0001
0100
0001
0000
1000
0000
,
0100
0000
1100
0000
0010
0001
0011
0000
,
0001
0000
1000
0000
0100
1000
0001
0000
,
0100
0000
0001
0000
1000
0100
1000
0000
,
0001
0100
0001
1000
,
0100
0000
1000
0000
0001
0100
0001
0000
,
1000
0001
1001
1001
,
1000
0000
0010
0000
0100
0000
0001
0010
,
0001
0000
0010
0000
0100
0000
1000
0100
,
1000
0000
0001
0000
0100
0000
0001
1000
,
0001
0000
1000
0010
1000
0000
0001
0010
,
0001
0000
1000
0000
0001
0000
0100
0001
,
0100
0000
0001
0000
1000
0000
0100
1000
,
0100
0000
1000
0000
0010
0000
0100
0001
,
0100
0000
0001
0000
1000
0001
1000
0000
,
0001
0001
1000
1000
,
0010
0000
0010
0000
0100
0010
0100
0010
,
1000
1000
0001
0001
,
0100
0000
0100
0000
0001
1000
0001
1000
,
0001
0001
1000
1000
,
0010
0000
0010
0000
0100
0001
1000
0001
;

//---------------dance-single - Renard----------------
#NOTES:
     dance-single:
     Renard:
     Easy:
     3:
     0.253,0.240,0.000,0.000,0.000: // measure 1
1000
0000
0000
1000
0001
0000
0000
0001
,  // measure 2
0100
0100
0001
1000
,  // measure 3
0100
0000
0000
0100
1000
0000
0000
1000
,  // measure 4
0010
0000
0100
0000
0001
0000
1000
0001
,  // measure 5
1000
0000
0000
1000
0001
0000
0000
0001
,  // measure 6
0100
0001
1000
0000
,  // measure 7
0100
0000
0000
0100
1000
0000
0000
1000
,  // measure 8
0001
1000
0001
0000
,  // measure 9
0100
0000
0000
0000
0100
0000
0000
0010
,  // measure 10
1000
0000
0000
0000
1000
0000
0000
0100
,  // measure 11
0010
0000
0000
0000
0010
0000
0000
0010
,  // measure 12
0001
0000
0000
0000
0001
0000
0000
0100
,  // measure 13
0010
0000
0000
0010
1000
0000
0000
1000
,  // measure 14
0001
0000
0100
0000
0010
0000
0000
0010
,  // measure 15
1000
0000
0000
1000
0100
0000
0000
0100
,  // measure 16
0010
0001
1000
0010
,  // measure 17
0100
0100
0001
0001
,  // measure 18
1000
0100
1000
0001
,  // measure 19
0100
0000
0001
1000
,  // measure 20
0100
1000
0010
0100
,  // measure 21
0001
0000
1000
0100
,  // measure 22
1000
0000
0010
0100
,  // measure 23
0001
1000
0001
1000
,  // measure 24
0010
1000
0100
1000
,  // measure 25
0001
0000
0100
0000
0001
1000
0001
0000
,  // measure 26
1000
0010
0100
0001
,  // measure 27
1000
0000
0100
0000
1000
0100
1000
0000
,  // measure 28
0001
0000
0100
0000
,  // measure 29
0001
0000
0001
0000
1000
0100
1000
0000
,  // measure 30
0001
0000
0010
0000
,  // measure 31
0001
0000
0100
0000
0001
1000
0001
0000
,  // measure 32
0100
0010
1000
0000
,  // measure 33
0001
0001
0100
0100
,  // measure 34
0001
1000
0100
0000
,  // measure 35
1000
1000
0010
0010
,  // measure 36
0100
0001
1000
0001
,  // measure 37
0100
0001
1000
0100
,  // measure 38
1000
0000
0010
0000
,  // measure 39
0100
0001
1000
0100
,  // measure 40
1000
0001
0100
0010
,  // measure 41
1000
1000
0010
0010
,  // measure 42
0100
0001
1000
0001
,  // measure 43
0100
0001
1000
0100
,  // measure 44
1000
1000
0001
0001
,  // measure 45
0100
0000
0010
0000
,  // measure 46
1000
0000
0001
1000
;
