#TITLE:Hyperactif;
#SUBTITLE:;
#ARTIST:Hecate;
#TITLETRANSLIT:;
#SUBTITLETRANSLIT:;
#ARTISTTRANSLIT:;
#GENRE:Samplepop;
#CREDIT:;
#BANNER:hyperactif.png;
#BACKGROUND:hyperactif-bg.png;
#LYRICSPATH:;
#CDTITLE:;
#MUSIC:Hyperactif.ogg;
#OFFSET:-9.290;
#SAMPLESTART:21.740;
#SAMPLELENGTH:12.000;
#SELECTABLE:YES;
#DISPLAYBPM:155.000;
#BPMS:0.000=1245.000,236.000=155.000;
#STOPS:0.000=0.339
,1.000=0.339
,2.000=0.339
,3.000=0.339
,4.000=0.339
,5.000=0.339
,6.000=0.339
,7.000=0.339
,8.000=0.339
,9.000=0.339
,10.000=0.339
,11.000=0.339
,12.000=0.339
,13.000=0.339
,14.000=0.339
,15.000=0.339
,16.000=0.339
,17.000=0.339
,18.000=0.339
,19.000=0.339
,20.000=0.339
,21.000=0.339
,22.000=0.339
,23.000=0.339
,24.000=0.339
,25.000=0.339
,26.000=0.339
,27.000=0.339
,28.000=0.339
,29.000=0.339
,30.000=0.339
,31.000=0.339
,32.000=0.339
,33.000=0.339
,34.000=0.339
,35.000=0.339
,36.000=0.339
,37.000=0.339
,38.000=0.169
,38.500=0.169
,39.000=0.340
,40.000=0.339
,41.000=0.339
,42.000=0.339
,43.000=0.339
,44.000=0.339
,45.000=0.339
,46.000=0.339
,47.000=0.339
,48.000=0.339
,49.000=0.339
,50.000=0.339
,51.000=0.339
,52.000=0.339
,53.000=0.339
,54.000=0.339
,55.000=0.339
,56.000=0.339
,57.000=0.339
,58.000=0.339
,59.000=0.339
,60.000=0.339
,61.000=0.339
,62.000=0.339
,63.000=0.339
,64.000=0.339
,65.000=0.339
,66.000=0.339
,67.000=0.339
,68.000=0.339
,69.000=0.339
,70.000=0.339
,71.000=0.339
,72.000=0.339
,73.000=0.339
,74.000=0.339
,75.000=0.339
,76.000=0.339
,77.000=0.339
,78.000=0.339
,79.000=0.339
,80.000=0.339
,81.000=0.339
,82.000=0.339
,83.000=0.339
,84.000=0.339
,85.000=0.339
,86.000=0.339
,87.000=0.339
,88.000=0.339
,89.000=0.339
,90.000=0.339
,91.000=0.339
,92.000=0.339
,93.000=0.339
,94.000=0.339
,95.000=0.339
,96.000=0.339
,97.000=0.339
,98.000=0.339
,99.000=0.339
,100.000=0.339
,101.000=0.339
,102.000=0.339
,103.000=0.339
,104.000=0.339
,105.000=0.339
,106.000=0.339
,107.000=0.339
,108.000=0.339
,109.000=0.339
,110.000=0.339
,111.000=0.339
,112.000=0.339
,113.000=0.339
,114.000=0.339
,115.000=0.339
,116.000=0.339
,117.000=0.339
,118.000=0.339
,119.000=0.339
,120.000=0.339
,121.000=0.339
,122.000=0.339
,123.000=0.339
,124.000=0.339
,125.000=0.339
,126.000=0.339
,127.000=0.339
,128.000=0.339
,129.000=0.339
,130.000=0.339
,131.000=0.339
,132.000=0.339
,133.000=0.339
,134.000=0.339
,135.000=0.339
,136.000=0.339
,137.000=0.339
,138.000=0.339
,139.000=0.339
,140.000=0.339
,141.000=0.339
,142.000=0.339
,143.000=0.339
,144.000=0.339
,145.000=0.339
,146.000=0.339
,147.000=0.339
,148.000=0.339
,149.000=0.339
,150.000=0.339
,151.000=0.339
,152.000=0.339
,153.000=0.339
,154.000=0.339
,155.000=0.339
,156.000=0.339
,157.000=0.339
,158.000=0.339
,159.000=0.339
,160.000=0.339
,161.000=0.339
,162.000=0.339
,163.000=0.339
,164.000=0.339
,165.000=0.339
,166.000=0.339
,167.000=0.339
,168.000=0.339
,169.000=0.339
,170.000=0.339
,171.000=0.339
,172.000=0.339
,173.000=0.339
,174.000=0.339
,175.000=0.339
,176.000=0.339
,177.000=0.339
,178.000=0.339
,179.000=0.339
,180.000=0.339
,181.000=0.339
,182.000=0.339
,183.000=0.339
,184.000=0.339
,185.000=0.339
,186.000=0.339
,187.000=0.339
,188.000=0.339
,189.000=0.339
,190.000=0.339
,191.000=0.339
,192.000=0.339
,193.000=0.339
,194.000=0.339
,195.000=0.339
,196.000=0.339
,197.000=0.339
,198.000=0.339
,199.000=0.339
,200.000=0.339
,201.000=0.339
,202.000=0.339
,203.000=0.339
,204.000=0.339
,205.000=0.339
,206.000=0.339
,207.000=0.339
,208.000=0.339
,209.000=0.339
,210.000=0.339
,211.000=0.339
,212.000=0.339
,213.000=0.339
,214.000=0.339
,215.000=0.339
,216.000=0.339
,217.000=0.339
,218.000=0.339
,219.000=0.339
,220.000=0.339
,221.000=0.339
,222.000=0.339
,223.000=0.339
,224.000=0.339
,225.000=0.339
,226.000=0.339
,227.000=0.339
,228.000=0.339
,229.000=0.339
,230.000=0.339
,231.000=0.339
,232.000=0.339
,233.000=0.339
,234.000=0.339
,235.000=0.339
;
#BGCHANGES:;
#KEYSOUNDS:;

//---------------dance-single - Renard----------------
#NOTES:
     dance-single:
     Renard:
     Hard:
     8:
     0.452,0.000,0.671,0.700,0.019:
0000
0000
0000
0000
,
0000
0000
0000
0000
,
0100
1001
0100
0011
,
0100
1010
0100
1001
,
0100
0011
0100
1001
,
2200
0011
0000
3311
,
0200
0311
0000
1010
,
0200
1310
0000
0011
,
0200
0311
0000
1010
,
0101
0000
1001
0000
1000
0001
0100
0000
,
2000
0000
3200
0302
,
0023
0000
2030
0000
,
3200
2300
3020
0000
,
0032
0203
2300
0000
,
3020
0000
0230
0302
,
0023
0000
2030
0000
,
3200
0302
0023
2030
,
3200
0000
2300
0000
,
3010
0100
0001
1000
,
0100
1001
0000
1001
,
0001
0010
0100
1000
,
0010
1001
0000
1001
,
0100
0001
1000
0100
,
0010
1001
0000
1001
,
0010
0100
1000
0010
,
0100
1001
0000
1001
,
2000
0000
0000
0000
,
3200
0000
0000
0000
,
0320
0000
0002
0030
,
0020
0003
2000
0030
,
0200
3000
0002
0300
,
0020
0000
0000
0030
,
0200
0003
0020
0300
,
2000
0030
3001
0000
,
0100
1010
0000
1001
,
0100
0011
0000
1001
,
0100
1001
0000
0011
,
0100
0011
0000
1001
,
2000
0100
0010
3001
,
0002
0010
0100
1003
,
2000
3010
0002
0103
,
2000
0000
0000
0000
0000
0000
0000
0000
0000
0000
0000
0000
0000
0000
0000
0000
3100
0000
0000
0000
0000
0000
0000
0000
0000
0000
0000
0000
0000
0000
0000
0000
0002
0000
0000
0000
0000
0000
0000
0000
0000
0000
0000
0000
0000
0000
0000
0000
0013
0000
0000
0000
0000
0000
0000
0000
0000
0000
0000
0000
0000
0000
0000
0001
,
0000
0000
0000
0000
0000
0000
0000
0000
0000
0000
0000
0000
0000
0000
0000
0000
0000
0000
0000
0000
0000
0000
0000
0000
0000
0000
0000
0000
0000
0000
0000
0000
0000
0000
0000
0000
0000
0000
0000
0000
0000
0000
1000
0000
0000
0000
0000
0000
0000
0000
0000
0000
0000
0000
0000
0000
0000
0000
0000
0000
0000
0000
0000
0000
0000
0000
0000
0000
0000
0000
0000
0000
0000
0000
0000
0000
0000
0000
0000
0000
0000
0000
0000
0000
0000
0000
0000
0000
0001
0000
0000
0000
0000
0000
0000
0000
0000
0000
0000
0000
0000
0000
0000
0000
0000
0000
0000
0000
0000
0000
0000
0000
0000
0000
0000
0000
0000
0000
0000
0000
0000
0000
0000
0000
0000
0000
0000
0000
0000
0000
0000
0000
1001
0000
0000
0000
0000
0000
0000
0000
0000
0000
0000
0000
0000
0000
0000
0000
0000
0000
0000
0000
0000
0000
0000
0000
0000
0000
0000
0000
0000
0000
0000
0000
0000
0000
0000
0000
0000
0000
0000
0000
0000
0000
0000
0000
0000
0000
0000
0000
0000
0000
0000
0000
0000
0000
0000
0000
0000
0000
0000
0000
,
2000
3011
0002
1013
,
0200
1001
0000
1301
,
2000
3011
0002
1013
,
0200
1001
0000
1310
,
0100
1010
0100
1001
,
0010
0101
0010
1001
,
2000
0100
0010
3001
,
0220
1331
2002
3113
,
2200
3311
0202
1313
,
0100
1001
0010
1001
,
2200
3311
0202
1313
,
1000
0110
0001
0110
,
1000
0101
0010
1001
,
0100
2020
0000
3031
,
0100
0022
0000
1033
,
0002
1013
1001
0110
,
2222
0000
0000
0000
,
0000
0000
0000
0000
,
3333
0000
0000
0000
;

//---------------dance-single - Renard----------------
#NOTES:
     dance-single:
     Renard:
     Medium:
     4:
     0.275,0.000,0.144,0.096,0.000:
0000
0000
0000
0000
,
0000
0000
0000
0000
,
0001
1000
0100
0010
,
0001
1000
0100
0000
,
1000
0010
0100
0001
,
1000
0100
1000
0000
,
0001
0010
0001
0100
,
0010
1000
0001
0000
,
0100
0001
1000
0000
,
0100
1000
0001
0000
,
0100
0001
1000
0100
,
0010
0001
0010
0000
,
0100
1000
0001
0100
,
0001
0000
1000
0000
,
0100
1000
0001
0100
,
0010
1000
0001
0100
,
0001
0000
1001
0000
,
0110
0000
0000
1010
,
0101
0000
1000
0000
,
0001
0000
0100
0000
,
0020
0000
0000
0000
,
2030
0000
0000
0000
,
3100
0000
0010
0000
,
0001
0000
0010
0000
,
0200
0000
0000
0000
,
2300
0000
0000
0000
,
3010
0010
0010
0010
,
0100
0100
0100
0100
,
0001
0001
0001
0001
,
1000
1000
1000
0000
,
0100
0100
0100
0100
,
0010
0010
0010
0010
,
0001
0001
0001
0001
,
1000
1000
1000
0000
,
0010
0110
0000
1001
,
0001
1001
0000
0110
,
1000
1100
0000
0011
,
0100
1010
0101
1001
,
2000
0100
0010
0001
,
0001
0010
3100
0000
,
0002
1000
0100
0010
,
0010
0100
1003
0000
,
2000
0200
0000
3311
,
1000
1000
1000
1000
,
0100
1000
0100
0000
,
0010
0010
0010
0010
,
0001
0010
0001
0000
,
0100
0100
0100
0100
,
0001
0100
0001
0000
,
1000
1000
1000
0000
,
0001
0001
0001
0000
,
1000
0100
0010
0000
,
0001
0010
0100
0000
,
1000
0010
0100
0000
,
0001
0100
0010
0000
,
1000
0100
1000
0000
,
0001
0010
0001
0000
,
1000
0010
1000
0001
,
0100
0000
0001
0000
,
2002
0000
0000
0000
,
0000
0000
0000
0000
,
3003
0000
0000
0000
;

//---------------dance-single - Renard----------------
#NOTES:
     dance-single:
     Renard:
     Easy:
     2:
     0.218,0.000,0.316,0.019,0.000:
0000
0000
0000
0000
,
0000
0000
0000
0000
,
0000
1001
0000
0110
,
0000
1010
0000
0101
,
0000
1100
0000
0011
,
0000
1010
0000
0101
,
0000
1100
0000
0011
,
0000
1001
0000
1010
,
0000
0101
0000
1001
,
0000
1100
0000
0011
,
1000
0000
0000
0000
,
0100
0000
0000
0000
,
0010
0000
0000
0000
,
0001
0000
0000
0000
,
0100
0000
0000
0000
,
0010
0000
0000
0000
,
1000
0000
0000
0000
,
0000
0000
0000
0000
,
0010
0000
0000
0000
,
0100
0000
0000
0000
,
0001
0000
0000
0000
,
1000
0000
0000
0000
,
0100
0000
0000
0000
,
0010
0000
0000
0000
,
0001
0000
1000
0000
,
0001
0100
0010
1000
,
0001
0000
0001
0001
,
0001
0000
0001
0001
,
1000
0000
1000
1000
,
0010
0000
0000
0000
,
0100
0000
0100
0100
,
0001
0000
0001
0001
,
1000
0000
1000
1000
,
0100
0000
0010
0010
,
0001
0110
0000
0110
,
1000
0110
0000
0110
,
0001
0110
0000
0110
,
1000
0110
0000
0000
,
0100
1001
0000
1001
,
0010
1001
0000
1001
,
0100
1001
0000
1001
,
0010
1001
0000
1001
,
2002
0000
0000
3013
,
1000
1000
0001
0000
,
0001
0001
1000
0000
,
0010
0010
0100
0000
,
0100
0100
0010
0000
,
1000
0000
0010
0000
,
0100
0000
0001
0000
,
0010
0000
0100
0000
,
1000
0001
1000
0000
,
0001
0000
0100
0000
,
0001
0000
1000
0000
,
0100
0000
0010
0000
,
0001
0010
0100
1000
,
0010
0000
0100
0000
,
0001
0000
1000
0000
,
0100
0000
0010
0000
,
0001
1000
0001
0100
,
1010
0000
0000
0000
;

//---------------dance-single - Blank----------------
#NOTES:
     dance-single:
     Alezay:
     Challenge:
     10:
     0.483,0.000,0.556,0.287,0.000: // measure 1
0000
0000
0000
0000
,  // measure 2
0000
0000
0000
0000
,  // measure 3
1001
0101
1010
0101
,  // measure 4
0001
1000
0100
0000
0010
0001
0100
0000
,  // measure 5
1010
0101
1100
0011
,  // measure 6
1000
0010
0100
0000
0010
0100
0001
0000
,  // measure 7
0110
1001
0101
1010
,  // measure 8
1000
0001
1000
0000
0001
1000
0001
0000
,  // measure 9
1010
0110
0011
1001
,  // measure 10
1000
0010
0100
0000
1001
0110
1001
0000
,  // measure 11
0001
0100
0100
0010
,  // measure 12
0010
1000
1000
0001
,  // measure 13
0001
1000
0100
0010
,  // measure 14
0001
0010
0100
1000
,  // measure 15
0110
1001
0110
1001
,  // measure 16
0002
2000
0010
3013
,  // measure 17
1100
0011
1100
0011
,  // measure 18
0002
0200
0010
0313
,  // measure 19
0101
1010
0101
1010
,  // measure 20
0020
0200
1000
0331
,  // measure 21
1001
0110
1001
0110
,  // measure 22
0010
1000
0001
0000
2002
0000
0110
3003
,  // measure 23
0101
0011
0110
1100
,  // measure 24
2000
0020
0001
3031
,  // measure 25
0101
0110
1010
0011
,  // measure 26
0200
2000
0010
3310
,  // measure 27
0202
0000
0000
0303
,  // measure 28
2020
0000
0000
3030
,  // measure 29
0022
0000
0000
0033
,  // measure 30
2200
0000
0000
3300
,  // measure 31
0220
0000
0000
0330
,  // measure 32
2002
0000
0000
3003
,  // measure 33
2200
0000
0000
3300
,  // measure 34
0202
0000
0000
0303
,  // measure 35
0010
1000
0100
0000
0010
0001
0100
0000
,  // measure 36
0010
1000
0001
0000
1000
0100
0010
0000
,  // measure 37
0010
0001
0100
0000
0100
0001
0010
0000
,  // measure 38
0100
1000
0010
0000
0010
1000
0001
0000
,  // measure 39
0010
0001
1000
0000
0001
1000
0001
0000
,  // measure 40
1000
0100
1000
0000
0001
0100
0001
0000
,  // measure 41
1000
0010
1000
0000
0001
0010
0001
0000
,  // measure 42
1000
0100
0010
0000
0100
0010
0001
0000
,  // measure 43
1010
0110
0110
0101
,  // measure 44
1000
0010
0100
0000
0010
0100
0001
0000
,  // measure 45
1000
0100
1000
0000
0001
0010
0001
0000
,  // measure 46
1000
0100
1000
0000
0001
0100
0001
0000
,  // measure 47
0010
1000
0100
0000
0010
0001
0100
0000
,  // measure 48
0010
0100
0010
0000
0100
0010
0100
0000
,  // measure 49
0010
1000
0001
0000
0010
0001
1000
0000
,  // measure 50
1000
0001
0100
0000
0001
1000
0100
0000
,  // measure 51
1000
0001
0100
0000
1000
0001
0100
0000
,  // measure 52
0010
1000
0100
0000
0010
1000
0100
0000
,  // measure 53
0010
0001
0100
0000
0010
0001
0100
0000
,  // measure 54
0001
1000
0100
0000
0001
1000
0100
0000
,  // measure 55
0010
1000
0001
0000
0010
1000
0001
0000
,  // measure 56
0010
0100
0010
0000
0010
0100
0010
0000
,  // measure 57
0100
1000
0010
0000
0100
1000
0010
0000
,  // measure 58
0010
1000
0100
0010
0100
1000
0010
0100
,  // measure 59
0001
1000
0100
0010
0100
1000
0010
0000
,  // measure 60
2002
0000
0000
0000
,  // measure 61
3003
0000
0000
0000
;
