#TITLE:Hit That;
#SUBTITLE:;
#ARTIST:The Offspring;
#GENRE:Rock;
#TITLETRANSLIT:;
#SUBTITLETRANSLIT:;
#ARTISTTRANSLIT:;
#CREDIT:;
#BANNER:hit.png;
#BACKGROUND:hit-bg.png;
#LYRICSPATH:;
#CDTITLE:;
#MUSIC:hit.ogg;
#OFFSET:0.000;
#SAMPLESTART:32.730;
#SAMPLELENGTH:12.000;
#SELECTABLE:YES;
#BPMS:0.000=131.910;
#STOPS:;
#BGCHANGES:;

//---------------dance-single - Renard----------------
#NOTES:
     dance-single:
     Renard:
     Hard:
     8:
     0.771,0.857,0.484,1.000,0.000:
0000
0000
0000
0000
,
0111
0000
1101
0000
1011
0000
1000
0001
,
0100
0020
0000
2000
0030
0010
3010
0100
,
0002
0020
0003
0002
0030
0013
0001
0100
,
0020
2000
0030
3010
1010
0000
1100
0000
,
1000
0001
0100
0000
0001
0010
0100
1000
,
0002
0200
0003
0002
0300
0103
0001
0100
,
0020
2000
0030
0020
3000
1030
0100
1000
,
0010
0200
0000
0302
0200
0003
0002
0300
,
0103
0001
0010
0001
1000
0010
0100
0001
,
0100
0010
1000
0010
0100
0001
0001
0001
,
0001
0010
0100
1000
0010
0100
0100
0100
,
0100
0010
1000
0100
0010
0001
0001
0001
,
0001
0010
0100
1000
0110
0010
1010
1000
,
1010
0100
0001
0010
0001
0100
0100
0100
,
0100
0010
1000
0001
0010
0001
0001
0001
,
0101
0010
1000
0100
1000
0010
0100
0010
,
1001
0010
0100
0001
1000
1001
1001
1001
,
0002
0103
0020
2030
3200
1300
0010
0200
,
0302
0023
0230
2300
3020
0130
0001
0100
,
0010
2000
3200
0320
0032
0023
0130
1000
,
0010
0200
0302
0203
0320
2030
3200
0320
,
0230
1300
0020
0230
0302
0103
0010
2000
,
3200
0320
0032
0023
0230
1300
0010
0100
,
0001
0002
0100
0200
1010
1313
0000
1000
,
0001
0010
0200
2000
0011
0011
3311
0000
,
1010
0100
0001
0010
0100
1000
0010
0100
,
1001
0100
1000
0010
0100
0001
0010
0000
,
1100
0010
0100
0001
1000
0010
0100
0001
,
1010
0100
0001
0010
0100
1000
0010
0000
,
0101
0010
1000
0100
1000
0010
0100
0010
,
0101
0010
1000
0100
1000
0010
0100
0001
,
0110
1010
1001
0000
1001
0101
0110
0000
,
1110
0000
1101
0000
0111
0000
1000
0100
,
0002
0000
0020
0003
0002
0000
0000
0030
0203
0000
0020
0300
2000
0000
0000
0030
,
0200
3000
0020
0300
0002
0030
0020
0003
0200
0030
2000
0300
0002
3000
0200
0003
,
0020
0000
0000
0300
2000
0000
0030
0000
0020
3000
0200
0030
0002
0000
0000
0300
,
2000
0003
0200
3000
0020
0300
0002
0030
0020
0003
0200
0030
2000
0300
0020
3000
,
0200
0000
0000
0030
0002
0300
0200
0003
0020
0000
0000
0300
2000
0030
0020
3000
,
0200
0030
0002
0300
0020
0003
0200
0030
2000
0300
0020
3000
0200
0000
0000
0030
,
0002
0300
0200
0003
0020
0300
2000
0030
0200
3000
0020
0300
0002
0030
0020
0003
,
0200
0030
2000
0300
0020
3000
0200
0030
0301
0000
1001
0000
1001
0000
1001
0000
,
0100
0001
0010
0001
0100
1000
0010
1000
,
0100
0001
0010
0001
0100
1000
0010
1000
,
0100
0010
0001
0010
0100
1000
0100
0010
,
0001
0100
0010
1000
0010
0100
0001
0000
,
1000
0100
0001
0010
0001
0100
1000
0010
,
1000
0100
0001
0010
0001
0100
1000
0000
,
0010
1000
0200
2000
0011
3311
0000
1000
,
0001
0100
0002
0200
1010
1010
1313
0000
,
0001
0100
0010
1000
0100
1000
0010
0100
,
1001
0100
1001
0010
1001
0000
0010
0000
,
1000
0100
0010
0001
0010
0100
1000
0010
,
1001
0100
1001
0010
1001
0010
0100
0001
,
1000
0100
0010
0001
0010
0100
1000
0010
,
0100
0001
1000
0100
0010
0001
0010
0100
,
1001
0010
0100
0001
1010
0100
0001
0000
,
1101
1110
1011
0000
;

//---------------dance-single - Renard----------------
#NOTES:
     dance-single:
     Renard:
     Medium:
     6:
     0.435,0.509,0.587,0.140,0.000:
0000
0000
0000
0000
,
1001
0000
1100
0000
1010
0000
1000
0010
,
0100
0001
0000
1001
0000
0000
0001
0100
,
0010
1000
0000
1001
0000
0000
1000
0100
,
1000
0001
0000
0001
1000
0000
1001
0000
,
1010
0000
0100
0000
0001
1000
0001
0000
,
1001
1000
0000
0100
0000
0000
0000
0000
,
1001
0001
0000
0100
0000
0000
0001
0000
,
1000
0001
0000
0001
1000
0000
0001
0000
,
1001
0000
1000
0000
0001
0010
0100
1000
,
1000
0000
0010
0000
0100
0000
0001
0100
,
0001
0100
0001
0000
0001
0000
1000
0000
,
1000
0000
0100
1000
0100
0000
0100
0000
,
1000
0000
1000
0000
0010
1000
0010
0000
,
0100
0000
0001
0000
1000
0001
1000
0000
,
0001
0000
0100
0000
0001
0010
0001
0000
,
2002
0000
0000
0000
,
0020
0000
3033
0000
,
1000
1010
0100
0101
,
0010
0011
0010
0110
,
1000
1100
1000
1010
,
0100
0000
0101
0000
0000
0001
1000
0000
,
1001
0000
1000
0100
0010
0000
0000
0001
,
0010
0000
0100
1000
0001
0000
0000
0000
,
2200
0000
0000
0000
0011
3311
0000
0000
,
0202
0000
0000
0000
1010
1010
1313
0000
,
0001
0000
0100
0001
0100
0000
0001
1000
,
0001
0000
1000
0100
1000
0000
1001
0000
,
0101
0000
0010
1000
0010
0000
1000
0100
,
1000
0011
1001
0000
,
1000
0000
0001
0100
0001
0000
1000
0000
,
1001
0000
1000
0100
1000
0000
0010
0000
,
1001
0000
0220
0000
,
1001
1001
1331
1000
,
0001
0000
0100
0000
0001
1000
0001
0000
,
1000
1000
0001
0001
,
1001
0000
1001
0000
1000
0100
1000
0000
,
0001
0010
0001
0000
1000
0000
1000
0000
,
0001
0000
0100
0000
0010
1000
0010
0000
,
1000
0100
1000
0000
0100
0000
0010
0000
,
1001
0000
0000
0000
1001
0000
0010
1000
,
1010
0000
0000
0000
0101
0000
1000
0001
,
1000
0000
1000
0100
0010
0000
0000
0000
,
0001
0000
0001
0010
0100
0000
0000
0000
,
1001
0000
1010
0000
,
0100
0001
0011
1100
,
1001
0010
1001
0100
,
1001
0010
1001
0000
,
2200
0000
0000
0000
0011
3311
0000
0000
,
0202
0000
0000
0000
1010
1010
1313
0000
,
0001
0100
0001
0100
0010
0100
0010
0100
,
0001
0100
0001
0000
0001
0000
0000
0000
,
1000
0100
1000
0100
0010
0100
0010
0100
,
1000
0100
1000
0000
1001
0000
0000
0000
,
1000
0100
0010
0000
0001
0010
0100
0000
,
1000
0010
0100
0000
0001
0100
0010
0000
,
1100
0000
0011
0000
,
2002
0110
3113
0000
;

//---------------dance-single - Renard----------------
#NOTES:
     dance-single:
     Renard:
     Easy:
     4:
     0.334,0.402,0.615,0.093,0.000: // measure 1
0000
0000
0000
0000
,  // measure 2
1001
1001
1001
0000
,  // measure 3
0001
1000
0000
0001
0000
0000
0000
0000
,  // measure 4
1000
0001
0000
1000
0000
0000
0001
0000
,  // measure 5
1000
0100
0011
0011
,  // measure 6
0011
0000
1000
1000
,  // measure 7
0001
1000
0000
0001
0000
0000
0000
0000
,  // measure 8
1000
0001
0000
1000
0000
0000
0000
0000
,  // measure 9
0011
0000
1100
1100
,  // measure 10
1010
0000
1000
1000
,  // measure 11
0000
0001
0100
0000
0001
0000
0000
0000
,  // measure 12
0000
1000
0100
0000
1000
0000
0000
0000
,  // measure 13
0000
0001
0100
0000
0001
0000
0000
0000
,  // measure 14
0000
1000
0010
0000
1000
0000
1000
0000
,  // measure 15
1001
0000
0000
0001
0010
0000
0100
0000
,  // measure 16
1000
0000
0000
0100
1000
0000
0010
0000
,  // measure 17
1001
0000
0000
0000
,  // measure 18
1001
0000
0000
1001
,  // measure 19
1010
0100
0001
0000
,  // measure 20
0011
0100
1000
0000
,  // measure 21
1001
1000
1010
1000
,  // measure 22
1100
0000
1100
0000
,  // measure 23
1100
0000
0010
0001
,  // measure 24
1100
0000
0010
0000
,  // measure 25
2200
0000
3311
0000
,  // measure 26
0202
0000
1010
1313
,  // measure 27
0001
0100
0001
1000
,  // measure 28
0100
1100
0011
0000
,  // measure 29
1000
0010
0100
0001
,  // measure 30
1010
1000
1100
1000
,  // measure 31
1001
0000
0100
0000
,  // measure 32
1001
0000
0010
0000
,  // measure 33
1001
0000
2002
0000
,  // measure 34
0010
0000
3013
0000
,  // measure 35
1000
1000
0001
0001
,  // measure 36
0100
0010
0110
0000
,  // measure 37
1000
1000
0100
0100
,  // measure 38
0010
0001
0011
0000
,  // measure 39
1000
1000
0001
0001
,  // measure 40
1000
0000
0001
1000
0001
0000
0001
0000
,  // measure 41
1000
0000
0000
0000
,  // measure 42
0001
0000
1001
1001
,  // measure 43
1010
1000
1100
0000
,  // measure 44
1001
1010
1100
0000
,  // measure 45
1000
1000
0100
0100
,  // measure 46
0010
0001
0010
0001
,  // measure 47
0011
0000
1001
0000
,  // measure 48
0101
0011
1001
0000
,  // measure 49
0202
0000
1313
0000
,  // measure 50
2200
0000
0011
3311
,  // measure 51
1000
1000
0001
0001
,  // measure 52
1000
0001
1001
0000
,  // measure 53
1001
0000
1010
0000
,  // measure 54
0101
0000
1001
0000
,  // measure 55
1100
0000
0010
0001
0010
0000
0001
0000
,  // measure 56
1100
0000
0010
0001
0010
0000
0001
0000
,  // measure 57
1100
0000
0011
0000
,  // measure 58
0101
1001
1001
0000
;
