#TITLE:Hide and Seek (Renard's Remix);
#SUBTITLE:;
#ARTIST:Imogen Heap;
#TITLETRANSLIT:;
#SUBTITLETRANSLIT:;
#ARTISTTRANSLIT:;
#CREDIT:;
#BANNER:hide.png;
#BACKGROUND:hide-bg.png;
#LYRICSPATH:;
#CDTITLE:;
#MUSIC:hide.ogg;
#OFFSET:-0.010;
#SAMPLESTART:54.837;
#SAMPLELENGTH:12.000;
#SELECTABLE:YES;
#BPMS:0.000=175.000;
#STOPS:;
#BGCHANGES:;
#GENRE:Trancecore;

//---------------dance-single - Renard----------------
#NOTES:
     dance-single:
     Renard:
     Hard:
     9:
     0.621,0.648,0.243,0.036,0.081:
0000
0000
0000
0000
,
0000
0000
0000
0000
,
0000
0000
0000
0000
,
0000
0000
0000
0000
,
2000
0000
0000
0000
,
3020
0000
0000
0000
,
0230
0000
0000
0000
,
0302
0000
0000
0000
,
0013
0000
0100
1000
0010
0000
0100
0001
,
0100
0000
0010
1000
0100
0000
0010
0001
,
0010
0000
0001
0100
0010
0000
0100
0001
,
0010
0000
0001
0100
0001
1000
0100
0010
,
0001
0000
0001
1000
0010
0000
0010
1000
,
0001
0000
0001
0010
0001
0000
0001
0100
,
0001
0000
1000
0100
1000
0001
0010
0001
,
1000
0000
0010
0000
1000
0000
0001
0000
1000
0001
1000
0000
1001
0000
0000
0000
,
1000
0010
0100
0001
0100
0010
1000
0100
,
0010
0000
0001
0010
0100
0000
1000
0010
,
0100
0001
0100
0010
1000
0100
0010
0001
,
1000
0000
0001
1000
0001
0000
1000
0000
0010
0000
0100
0000
0001
0000
0010
0000
,
0100
0000
0100
0010
0001
0000
0001
0100
,
0010
0000
0010
1000
0100
0010
0001
1000
,
0010
0000
0000
0100
0000
0000
0001
0000
0100
0000
0000
0000
0010
0000
1000
0000
,
0100
0000
0010
0001
0010
0100
1000
0010
,
0100
0000
0000
0100
0001
0000
0100
0000
0010
0000
1000
0000
0100
0000
0010
0000
,
0001
0000
0000
0001
1000
0000
0010
0000
0100
0000
0000
0000
0001
0000
0000
0000
,
1000
0000
0000
1000
0100
0000
0010
0000
0001
0000
0010
0000
0100
0000
1000
0000
,
0010
0000
0100
0001
0100
0010
1000
0100
,
0010
0000
0000
0010
0001
0000
0100
0000
0010
0000
1000
0000
0100
0000
0010
0000
,
0001
0000
0000
0001
1000
0000
0010
0000
0100
0000
0000
0000
1001
0000
0000
0000
,
1000
0000
1100
0000
0000
0010
0001
0000
,
0100
0000
0000
0000
0110
0000
0000
0000
1010
0000
0000
0110
0000
0000
0001
0000
,
0010
0000
0000
0000
0011
0000
0000
0000
0010
0000
0100
1000
0100
0000
0000
0000
,
1000
0000
0000
0000
0010
0000
0100
0000
0001
0000
0100
0001
0100
0000
0001
0000
,
0100
0000
0000
0000
0010
0000
1000
0000
0100
0000
0010
0100
0010
0000
0100
0000
,
0010
0001
0100
0010
1000
0001
1000
0001
,
1000
0000
0100
0010
0001
1000
0010
0100
,
0001
0000
0001
0100
0010
0000
0010
1000
,
0100
0000
0100
0000
0100
0000
1000
0010
,
0100
0000
0100
0000
0100
0000
0100
0001
,
0010
0000
0010
0100
1000
0000
1010
0000
,
0101
0000
0001
0010
0100
0000
0100
0010
,
0001
0000
0100
0000
0010
0000
0000
0000
1010
0000
0000
0100
0001
0000
0000
0000
,
0100
0010
1000
0100
0010
0010
0001
0000
,
0110
0000
0001
1000
0010
0000
0101
0000
,
0110
0000
1000
0010
0100
0001
0010
0100
,
1000
1010
1001
1100
,
1000
0100
0010
0001
1000
1000
0001
0000
,
0110
0000
0001
1000
0010
0000
0101
0000
,
0011
0000
0100
1000
0010
0100
0001
0100
,
0010
0000
1000
0000
0001
0000
0000
1000
0001
0000
0000
1000
0100
0000
0000
0000
,
0010
0001
1000
0010
0100
0001
1000
0000
,
1100
0000
0010
0001
0100
0000
1010
0000
,
0101
0000
0001
1000
0100
0010
0001
0010
,
0100
0000
0000
1000
0010
0000
0000
0100
0001
0000
0000
0000
1001
0000
0000
0000
,
1000
0100
0010
0001
1000
0010
0100
0000
,
0001
0001
0100
0100
,
0010
1000
0100
0010
0001
0000
0000
0000
,
0001
0001
0010
0010
,
0100
1000
0010
0100
0100
0000
0100
0000
,
0001
0001
0100
0100
,
0010
1000
0100
0010
0010
0000
0010
0000
,
0001
0001
0100
0100
,
0010
1000
0001
0100
0001
0000
1001
0000
,
1000
0000
0100
0000
0010
0001
0100
0010
,
1000
0000
0101
0000
0010
1000
0100
0000
,
0010
0000
0001
0000
1000
0010
0100
0001
,
1000
0100
1000
0000
0001
0010
0001
0000
,
1000
0000
0010
0000
0100
0001
1000
0100
,
0010
0000
0011
0000
0001
0010
0100
1000
,
0010
0000
0100
0000
0001
0100
0010
0000
,
1000
0000
0010
0000
0100
0000
0001
0000
1000
0000
0100
1000
0100
0000
1000
0000
,
0001
0000
0100
0010
0000
0010
1000
0000
,
0100
0010
0001
0010
0100
0000
1000
0000
,
0010
0000
0010
0100
0000
0100
0001
0000
,
1000
0100
0010
0001
1000
0000
0001
0000
,
0010
0000
0010
0100
0000
0100
1000
0000
,
0010
0100
0001
1000
0100
0000
0010
0000
,
0001
1000
0000
0001
1000
0000
0001
1000
,
0010
0010
0100
0100
0001
1000
0100
0100
,
1001
0000
0000
0000
;

//---------------dance-single - Renard----------------
#NOTES:
     dance-single:
     Renard:
     Medium:
     7:
     0.468,0.504,0.324,0.135,0.000:
0000
0000
0000
0000
,
0000
0000
0000
0000
,
0000
0000
0000
0000
,
0000
0000
0000
0000
,
2000
0000
0000
0000
,
3020
0000
0000
0000
,
0230
0000
0000
0000
,
0302
0000
0000
0000
,
0013
0000
0100
0000
1000
0000
0010
0100
,
0010
0100
0001
0000
,
1000
0000
0100
0000
0010
0000
0001
1000
,
0001
0100
0010
0000
,
1000
0000
0100
0000
1000
0000
0001
0010
,
0001
1000
0010
1000
,
0001
0000
0100
0001
1000
0000
0100
1000
,
0001
0000
1000
0001
1000
0001
1000
0000
,
1000
0000
0001
0000
0100
0000
0010
1000
,
0002
0000
0000
0000
,
0103
0000
0001
0000
1000
0000
0100
0010
,
0001
0000
0000
0001
0010
0000
0000
0010
,
0100
0000
1000
0000
0010
0000
0100
0001
,
2000
0000
3020
0000
,
0130
0000
0100
0000
0001
0000
0001
0010
,
0001
0000
1000
0100
1000
0000
0001
0000
,
2000
0010
0100
0001
,
3002
0100
0010
1000
,
2003
0010
0100
0010
,
3020
0100
1000
0100
,
0230
0001
0010
0001
,
0302
0010
0100
0010
,
0023
0100
1000
0100
,
0230
1000
1000
1300
,
1010
0000
1000
0000
0100
0010
0001
0000
,
1000
1001
0010
1001
,
0100
0000
0001
0000
1000
0100
1000
0000
,
0100
1001
0010
1001
,
0001
0000
0100
0000
0001
0010
0001
0000
,
0010
1001
0100
1001
,
1000
0000
0010
0000
1000
0100
1000
0000
,
0010
1001
0100
1001
,
1000
0010
0100
0001
,
1000
0000
0001
0000
1000
0000
0001
0100
,
0001
1000
0100
0010
,
0001
0000
1000
1000
0100
0100
1000
0000
,
0001
0000
0100
0001
0100
0000
0010
0000
,
1000
0000
0100
0000
0010
0000
0001
1000
,
0001
1010
1001
0101
,
0000
0000
0000
1000
0001
0100
0010
0000
,
1000
0000
0010
0100
0010
0000
0100
0000
,
0001
1000
0100
1000
,
0001
1000
0001
0100
,
0010
0000
1000
0100
1000
0100
1000
0000
,
0001
0000
0010
0001
0010
0000
0001
0000
,
0101
0010
1000
0100
,
0010
0001
1000
1001
,
0000
0000
0000
1000
0010
0100
0001
0010
,
0100
0100
1000
1000
,
0001
0100
0110
0000
,
0010
0010
1000
1000
,
0100
0010
0110
0000
,
0010
0001
0100
0010
,
1000
0010
0110
0000
,
0010
0100
0001
0010
,
0100
0010
0110
0000
,
0100
0110
0100
0110
,
0010
0011
0010
0011
,
0001
0101
0100
0101
,
0100
0110
0010
0110
,
0010
1010
1000
1100
,
1000
1010
1000
1100
,
0010
0011
0001
0101
,
0001
0011
1001
0110
,
1000
1000
0001
0001
,
1000
0001
1000
0001
1000
0000
0000
0000
,
0010
0010
0100
0100
,
0010
0100
0010
0100
0010
0000
0000
0000
,
1000
1000
0100
0100
,
0010
0001
0010
0001
0010
0000
0000
0000
,
0100
0100
1000
1000
,
0001
1000
0001
1000
0001
0000
0100
0000
,
1001
0000
0000
0000
;

//---------------dance-single - Renard----------------
#NOTES:
     dance-single:
     Renard:
     Easy:
     3:
     0.237,0.324,0.027,0.135,0.000: // measure 1
0000
0000
0000
0000
,  // measure 2
0000
0000
0000
0000
,  // measure 3
0000
0000
0000
0000
,  // measure 4
0000
0000
0000
0000
,  // measure 5
0000
0000
0000
0000
,  // measure 6
0000
0000
0000
0000
,  // measure 7
0000
0000
0000
0000
,  // measure 8
0000
0000
0000
0000
,  // measure 9
1000
1000
1000
0000
,  // measure 10
0010
0010
0010
0000
,  // measure 11
0100
0000
0100
0000
,  // measure 12
0001
0001
0001
0000
,  // measure 13
0010
0000
0010
0000
,  // measure 14
0100
0100
0100
0000
,  // measure 15
1000
0000
1000
0000
,  // measure 16
0010
0100
0010
1001
,  // measure 17
1000
0000
0001
0000
,  // measure 18
0200
0000
0000
0000
,  // measure 19
0320
0000
1000
0000
,  // measure 20
0100
0000
0001
0000
,  // measure 21
0130
0000
0010
0000
,  // measure 22
1000
0000
0000
0000
,  // measure 23
0200
0000
0010
0000
,  // measure 24
0001
0000
1000
0000
,  // measure 25
0320
0000
0000
0000
,  // measure 26
0032
0000
0000
0000
,  // measure 27
0203
0000
0000
0000
,  // measure 28
0302
0000
0000
0000
,  // measure 29
2003
0000
0000
0000
,  // measure 30
3200
0000
0000
0000
,  // measure 31
2300
0000
0000
0000
,  // measure 32
3020
0000
0100
0100
,  // measure 33
0130
0000
0000
0001
,  // measure 34
1000
0000
0000
0100
,  // measure 35
0010
0000
0000
0000
,  // measure 36
0001
1000
0010
0100
,  // measure 37
0001
0000
0000
1000
,  // measure 38
0010
0000
0010
0000
,  // measure 39
0100
0000
0100
0000
,  // measure 40
0001
0000
0001
0000
,  // measure 41
1000
1000
1000
0000
,  // measure 42
0001
0000
0100
0010
,  // measure 43
0100
0010
0010
0000
,  // measure 44
0100
0000
0100
0000
,  // measure 45
0001
0001
1000
0000
,  // measure 46
0001
0000
0010
0100
,  // measure 47
0010
0010
0100
0100
,  // measure 48
0000
0000
1000
0000
,  // measure 49
0010
0100
0001
0000
,  // measure 50
0001
0000
0100
0010
,  // measure 51
1000
1000
0010
0010
,  // measure 52
0100
0001
1000
0100
,  // measure 53
0010
0001
0001
0000
,  // measure 54
1000
0000
0010
0100
,  // measure 55
0001
1000
0100
0110
,  // measure 56
0000
0100
1000
0010
,  // measure 57
0100
0000
0100
0000
,  // measure 58
0001
1000
0001
0000
,  // measure 59
0100
0000
0100
0000
,  // measure 60
0001
1000
0001
0000
,  // measure 61
0010
0000
0010
0000
,  // measure 62
0001
1000
0001
0000
,  // measure 63
0010
0000
0010
0000
,  // measure 64
0001
1000
0001
0000
,  // measure 65
1000
0000
1000
0000
,  // measure 66
0010
0000
0010
0000
,  // measure 67
0200
0000
0001
0000
,  // measure 68
0010
0000
1000
0000
,  // measure 69
0310
0000
0010
0000
,  // measure 70
0100
0000
0100
0000
,  // measure 71
0002
0000
0010
0000
,  // measure 72
0100
0000
1000
0000
,  // measure 73
1003
0000
1000
0000
,  // measure 74
0001
0000
0001
0000
,  // measure 75
0200
0000
0010
0000
,  // measure 76
1000
0000
0001
0000
,  // measure 77
0320
0000
1000
0000
,  // measure 78
1000
0000
1000
0000
,  // measure 79
0100
0000
0100
0000
,  // measure 80
1000
0100
0130
0000
,  // measure 81
1001
0000
0000
0000
;
