#TITLE:Heut Ist Mein Tag;
#SUBTITLE:;
#ARTIST:Blümchen;
#TITLETRANSLIT:;
#SUBTITLETRANSLIT:;
#ARTISTTRANSLIT:;
#CREDIT:;
#BANNER:heut ist mein tag.png;
#BACKGROUND:heut ist mein tag-bg.png;
#LYRICSPATH:;
#CDTITLE:;
#MUSIC:heut ist mein tag.ogg;
#OFFSET:0.000;
#SAMPLESTART:46.380;
#SAMPLELENGTH:17.564;
#SELECTABLE:YES;
#BPMS:0.000=165.000;
#STOPS:;
#BGCHANGES:;
#GENRE:Dance Pop;

//---------------dance-single - Shorty----------------
#NOTES:
     dance-single:
     Shorty:
     Hard:
     7:
     0.585,0.591,0.364,0.344,0.000:
0000
0000
0000
0000
,
0000
0000
0000
0000
,
0000
0000
0000
0000
,
0000
0000
0000
0000
,
2000
0000
3001
0100
0001
1000
0100
0010
,
0200
0000
1300
0001
0010
0100
1000
0001
,
0200
0000
0301
1000
0010
0100
0001
1000
,
0100
0100
1002
0013
,
0100
1000
0000
1000
0000
0010
0000
0101
,
0000
0010
1000
0100
0000
0010
0000
1100
,
0000
0010
0000
0001
0000
0001
0000
1010
,
0000
0100
0001
0010
0000
0010
0000
1001
,
0000
0100
0000
0100
0001
0100
0000
1100
,
0000
0100
0001
0100
0000
1200
0000
0301
,
0000
0010
0000
0010
1000
0010
0000
0011
,
0000
0010
1000
0010
0000
1020
0000
0031
,
0010
0100
1000
0100
0010
0000
1001
0000
,
0100
0001
0100
0002
0000
0000
1003
0000
,
0010
0001
1000
0001
0100
0000
0010
2000
,
0000
0001
0100
3001
,
1001
0000
0100
0000
0100
0010
1000
0100
,
0010
0000
0001
2000
0000
0000
3010
0000
,
1000
0001
1000
0020
0000
0000
0130
0000
,
0101
2010
3100
0011
,
0001
1000
0001
0100
0010
1000
0001
1000
,
0100
0000
1000
0001
0000
0000
0110
0000
,
1000
0010
0100
0010
0001
0010
1000
0002
,
0000
1000
0010
1003
,
0001
0000
0001
0100
0001
0000
0011
0000
,
1001
0000
1000
0100
0000
0100
1000
0000
,
1010
0000
1100
0000
1000
0000
1000
0010
,
0100
0001
1000
0000
0100
1000
0001
0000
,
0020
0000
0001
0031
0010
0100
1000
0010
,
1000
0001
0000
0200
0000
0000
0310
0100
,
0000
1001
0000
0020
0000
0000
0130
0000
,
1000
0000
0010
1000
0010
0000
0100
0000
,
1001
0001
1000
0001
0010
0001
1000
0100
,
0000
1002
0000
0010
0000
1000
1003
0001
,
0000
2100
0000
3002
0000
0100
0103
0001
,
1000
0000
1000
0010
0100
0000
1001
0000
,
0010
0000
0001
0010
0001
0010
0002
0010
,
0013
0000
1000
0100
1000
0001
2000
0100
,
3100
0000
1000
0010
1000
0001
2000
0010
,
3010
0000
1011
0000
,
1001
0000
0010
0100
1000
0010
0200
0001
,
0301
0000
1000
0010
0100
0001
2000
0100
,
3001
0000
0010
0100
1000
0010
0200
0001
,
0310
1010
2010
3001
,
0001
0100
0001
0000
0001
1000
0001
0000
,
1000
0001
1000
0000
1000
0100
1000
0000
,
1000
0001
1000
0000
0001
1000
0001
0000
,
0001
0010
0001
0000
1000
0001
1000
0000
,
0010
0200
0010
0300
0001
0200
0001
0300
,
0010
2000
0010
3000
0100
2000
0100
3000
,
0001
0020
0100
0030
1000
0020
0100
0030
,
1000
0002
0100
0003
0100
0002
0010
0003
,
0110
0000
0000
0000
,
1000
0100
0010
0100
1000
0010
0100
0101
,
0000
0011
0000
0101
0000
0000
0010
1000
,
0001
0010
0100
0010
0001
0100
0010
0000
,
1000
0000
0001
1000
0000
0010
0001
0000
,
0010
1000
0001
1000
0100
0010
0001
0011
,
0000
1001
0000
1100
0000
0000
0010
0001
,
1000
0000
1000
0100
0020
0000
0031
0100
,
0010
0000
0100
0000
,
1101
0000
0000
0000
;

//---------------dance-single - Shorty----------------
#NOTES:
     dance-single:
     Shorty:
     Easy:
     4:
     0.303,0.361,0.121,0.212,0.000:
0000
0000
0000
0000
,
0000
0000
0000
0000
,
0000
0000
0000
0000
,
0000
0000
0000
0000
,
0200
0300
1000
0001
,
2000
3000
0001
0100
,
0002
0003
1000
0010
,
0200
0300
0001
1000
,
0001
0010
0001
0000
,
1000
1000
0100
0000
,
1000
0000
0001
0000
,
0100
0010
0110
0000
,
0100
0000
0001
0000
,
1000
0100
0010
0000
,
0001
0000
1000
0000
,
0010
1000
0100
0000
,
1000
0010
0010
1000
,
0010
0010
0010
0000
,
0100
0001
0100
0100
,
0001
0100
0100
0000
,
0001
1000
1000
1000
,
0001
1000
1001
0000
,
0001
0010
0010
0001
,
0010
0001
0010
0000
,
0100
1000
0100
0000
,
0010
0000
0100
0000
,
0010
0001
0100
0000
,
0010
0000
1001
0000
,
1000
0100
1000
0000
,
0001
0010
0100
0000
,
1000
0000
0010
0000
,
0100
0001
1000
0000
,
0020
0030
1000
0001
,
0100
0001
1000
0000
,
0200
0300
0010
0100
,
1000
0010
0100
0000
,
0002
0003
0010
0001
,
0010
0000
1001
0000
,
0200
0300
1000
0100
,
1000
0000
0011
0000
,
0001
0100
0010
2000
,
3001
1000
0010
0200
,
0301
0010
0002
1003
,
0100
0010
0011
0000
,
2000
3001
0100
0001
,
2000
3001
0010
0001
,
2000
3100
1000
0010
,
2000
3001
0110
0000
,
0200
0000
0300
0000
,
0002
0000
0003
0000
,
2000
0000
3000
0000
,
0020
0000
0030
0000
,
1000
0000
0001
0000
,
1000
0000
1001
0000
,
0002
0003
2000
3000
,
0001
1000
0001
1001
,
0110
0000
0000
0000
,
0100
0001
1000
0100
,
1000
0001
1001
0000
,
1000
0010
1000
0001
,
0010
0001
1001
0000
,
0010
0100
0001
0010
,
0001
0100
0010
0000
,
0010
1000
0100
0010
,
1000
0000
0010
0000
,
0001
0000
0000
0000
;

//---------------dance-single - Shorty----------------
#NOTES:
     dance-single:
     Shorty:
     Medium:
     6:
     0.400,0.427,0.192,0.212,0.000:
0000
0000
0000
0000
,
0000
0000
0000
0000
,
0000
0000
0000
0000
,
0000
0000
0000
0000
,
0200
0000
0300
0000
0001
0000
0010
0100
,
2000
0000
3000
0000
0010
0000
1000
0001
,
0020
0000
0030
0000
0100
0000
1000
0100
,
0020
0030
0001
1000
,
0001
0010
0000
0010
0000
0001
0000
1000
,
0000
0100
0000
0100
0000
0010
0000
0001
,
0000
0100
0000
0001
0000
0001
0000
0010
,
0000
0100
0000
0100
0000
1000
0000
0010
,
0000
1000
0000
1000
0001
0100
0000
0001
,
0000
0010
0000
0010
0001
1000
0000
0100
,
0000
1000
0000
1000
0001
0010
0000
0100
,
0000
1000
0000
0001
0010
0100
0000
1000
,
0010
0100
0001
1001
,
1000
0000
0100
0010
0000
0000
0001
0010
,
0001
0000
1000
0000
0010
0000
1000
0001
,
0100
0010
1000
0001
,
2100
0001
3100
1000
,
0010
0000
1000
0001
0000
0000
0100
0010
,
1000
0000
0001
0010
0000
0000
0100
0000
,
1001
0010
0010
0100
,
1000
0000
0010
0000
1000
0010
0100
0000
,
0002
1003
2000
3001
,
0010
0000
0001
0000
0010
0001
1000
0000
,
0200
1300
2000
3100
,
1000
0000
1000
0000
1000
0100
0010
0000
,
0002
0103
0101
1001
,
0001
0000
0010
0000
0010
0100
1000
0000
,
0020
0130
0101
1001
,
2000
0000
3000
0000
0001
0010
0001
0010
,
0000
0100
0000
1000
0000
0000
0010
1000
,
0000
0001
0000
0100
0000
0000
0010
0000
,
1000
0000
0001
0010
0000
0000
0100
0000
,
1000
0000
0001
0100
0001
0000
0100
0010
,
0000
1000
0000
0100
0000
0000
0010
0001
,
0000
1000
0000
0010
0000
0000
0100
0000
,
0001
0010
0001
1000
,
0100
0100
0010
0001
,
0100
0010
1001
1001
,
0010
0100
1000
0001
,
0200
0300
2002
3003
,
0010
0100
1000
0001
,
0100
0001
1100
1100
,
0010
0001
1000
0010
,
0200
0300
2020
3030
,
0001
0000
1000
0000
,
0110
0000
0001
0000
,
1000
0000
0110
0000
,
1000
0000
0001
1000
,
0110
0000
0001
0000
,
1000
0100
1000
0000
,
0010
0000
1001
0000
,
0100
0001
0010
0001
,
0100
0000
0000
0000
,
1000
0000
0010
0000
1000
0000
0001
0100
,
0000
0001
0000
1000
0000
0000
0100
1000
,
0000
0001
0000
0010
0001
0000
1000
0000
,
0010
0000
0200
0002
0000
0000
0303
0000
,
1000
0000
0100
0000
0010
0000
0001
0100
,
0000
0100
0000
1001
0000
0000
0010
1000
,
0001
1000
0200
1300
,
0001
0000
1000
0000
,
0110
0000
0000
0000
;

//---------------dance-single - BlueChaos----------------
#NOTES:
     dance-single:
     BlueChaos:
     Challenge:
     10:
     0.856,0.957,0.212,0.455,0.470: // measure 1
0000
0000
0000
0000
,  // measure 2
2000
0000
0000
0000
,  // measure 3
3002
0000
0000
0000
0000
0000
0103
0010
,  // measure 4
0000
1000
0000
0200
0000
0000
0300
0000
,  // measure 5
1100
0000
1000
0100
0001
0100
1000
0001
,  // measure 6
0101
0000
0001
0100
1000
0100
0001
0100
,  // measure 7
0110
0000
0010
1000
0010
0001
0010
1000
,  // measure 8
1010
0000
1100
0000
0110
0010
0001
0000
,  // measure 9
0000
1000
0100
0000
0000
0100
0010
0000
0000
0010
0001
0000
0000
0001
0100
0000
,  // measure 10
0000
0100
1000
0000
0000
1000
0100
0000
0000
0100
0001
0000
0000
0001
0010
0000
,  // measure 11
0000
0010
0100
0000
0000
0100
0010
0000
0000
0010
1000
0000
0000
1000
0010
0000
,  // measure 12
0000
0010
0001
0000
0000
0001
0100
0000
0000
0100
0010
0000
0000
0100
0001
0000
,  // measure 13
0000
1000
0100
0000
0000
0010
0001
0000
0000
1000
0010
0000
0000
0100
0010
0000
,  // measure 14
0000
1000
0001
0000
0000
1000
0100
0000
0000
0010
0100
0000
0000
0010
0001
0000
,  // measure 15
0000
0100
0010
0000
0000
0100
1000
0000
0000
0100
0001
0000
0000
0010
0100
0000
,  // measure 16
0000
0010
1000
0000
0000
0010
0001
0000
0000
0010
0100
0000
0010
0000
0001
0000
,  // measure 17
0010
0001
0010
0001
0010
0001
1000
0001
,  // measure 18
1000
0001
1000
0001
1000
0001
0100
0001
,  // measure 19
0100
0001
0100
0001
1000
0100
1000
0100
,  // measure 20
1000
0100
1000
0010
1000
0010
1000
0010
,  // measure 21
1000
0010
0100
0010
0100
0010
0100
0010
,  // measure 22
0100
0001
1000
0001
1000
0001
1000
0001
,  // measure 23
1000
0001
0010
0001
0010
0001
0010
0100
,  // measure 24
1001
0000
0010
0000
1001
0000
0100
0000
1001
0000
0010
0100
0010
0000
0100
0000
,  // measure 25
1001
0001
0100
0010
1000
0100
0001
0100
,  // measure 26
1000
0010
0100
0001
0100
1000
0100
0010
,  // measure 27
0100
0001
1000
0001
0010
0100
0010
0001
,  // measure 28
1000
0000
0001
0100
0010
0000
0100
0000
0001
1000
0001
0010
0100
0000
1000
0000
,  // measure 29
1100
1000
0010
0100
0010
0001
0010
0100
,  // measure 30
0010
1000
0100
0001
0100
0010
0100
1000
,  // measure 31
0001
0100
1000
0100
0001
0010
0100
1000
,  // measure 32
1001
0000
0000
0000
0101
0000
0000
0000
0100
0010
1000
0001
0010
0100
1000
0000
,  // measure 33
0100
1000
0100
0000
1000
0001
1000
0000
0001
0100
0001
0000
0100
0010
0100
0000
,  // measure 34
0010
1000
0010
0000
1000
0001
1000
0000
0001
0010
0001
0000
0010
0100
0010
0000
,  // measure 35
0100
1000
0100
0000
1000
0010
1000
0000
0001
0100
0001
0000
0100
0010
0100
0000
,  // measure 36
0020
1000
1030
1001
0000
1000
0010
0000
,  // measure 37
1000
0100
0010
0000
0100
0010
0001
0000
0010
0001
1000
0000
0001
0100
0010
0000
,  // measure 38
0100
0010
1000
0000
0010
0100
0001
0000
1000
0100
0010
0000
0100
1000
0001
0000
,  // measure 39
0100
0001
1000
0000
0001
0100
0010
0000
0100
0010
1000
0000
0100
0010
0001
0000
,  // measure 40
1001
1000
1100
0000
0011
0000
0101
0000
,  // measure 41
2000
0000
3001
0100
1000
0100
0001
0100
,  // measure 42
0020
0000
1030
0100
0001
0100
1000
0010
,  // measure 43
0200
0000
0301
0010
1000
0010
0001
1000
,  // measure 44
0200
1000
0001
0310
,  // measure 45
0020
0000
0031
0100
1000
0100
0001
0010
,  // measure 46
0200
0000
0310
0001
0010
1000
0010
0001
,  // measure 47
0200
0000
0310
1000
0010
0001
0010
1000
,  // measure 48
0001
0100
0001
0100
0010
1000
0010
1000
0001
1000
0001
0000
1001
0000
0001
0000
,  // measure 49
2000
3002
0203
0010
0320
2030
3200
0010
,  // measure 50
0320
0032
2003
0010
3020
0230
0302
0010
,  // measure 51
0023
0230
2300
0001
3002
0203
0320
1000
,  // measure 52
2030
3200
0320
0100
0230
2300
3002
0100
,  // measure 53
0203
0000
0320
0000
2030
0000
3001
0010
0001
0010
0001
0000
1000
0000
0001
0000
,  // measure 54
0100
0000
0010
0000
1000
0000
0100
1000
0100
1000
0100
0000
1000
0000
0001
0000
,  // measure 55
0100
0000
0010
0000
1000
0000
0001
0100
0001
0100
0001
0000
1000
0000
0100
0000
,  // measure 56
0010
0001
1000
0100
0010
0001
1000
0100
0010
0100
1000
0001
0100
0010
1000
0001
,  // measure 57
0100
0100
0010
0010
1000
1000
0001
0001
,  // measure 58
1000
0100
0010
0000
0100
0010
0100
0000
0010
0001
1000
0000
0001
0100
0001
0000
,  // measure 59
0100
0010
1000
0000
0001
0100
0001
0000
1000
0100
0010
0000
0100
1000
0100
0000
,  // measure 60
1000
0010
0100
0000
0010
0100
0010
0000
0100
0001
1000
0000
0001
1000
0001
0000
,  // measure 61
2000
0010
3010
1001
0001
1000
0100
0010
,  // measure 62
0002
0000
0013
0001
0100
0001
1000
0001
,  // measure 63
0020
0000
0130
1000
0010
1000
0001
1000
,  // measure 64
0200
0000
0310
0001
0100
0010
1000
0010
,  // measure 65
0200
0000
0000
0000
0301
0100
0010
0000
,  // measure 66
2002
3003
0000
0000
;
