#TITLE:Here I Am (Ham Remix);
#SUBTITLE:;
#ARTIST:Triple J;
#GENRE:Happy Hardcore;
#TITLETRANSLIT:;
#SUBTITLETRANSLIT:;
#ARTISTTRANSLIT:;
#CREDIT:;
#BANNER:here.png;
#BACKGROUND:here-bg.png;
#LYRICSPATH:;
#CDTITLE:;
#MUSIC:here.ogg;
#OFFSET:-0.007;
#SAMPLESTART:19.592;
#SAMPLELENGTH:12.000;
#SELECTABLE:YES;
#BPMS:0.000=180.000,158.000=90.000,173.000=180.000;
#STOPS:92.000=0.667
;
#BGCHANGES:;

//---------------dance-single - ----------------
#NOTES:
     dance-single:
     :
     Hard:
     9:
     0.636,0.582,0.245,0.127,0.018:
0000
0000
0000
0000
,
0000
0000
0000
0000
,
0000
0000
0000
0000
,
0000
0000
0000
0000
,
0000
0000
0000
0000
,
0000
0000
0000
0000
,
0000
0000
0000
0000
,
0000
0000
0000
1001
,
1000
0100
0010
0100
1000
0010
0100
0001
,
0100
0010
0100
0001
1000
0100
0010
0100
,
1000
0010
0100
0010
1000
0100
0010
0001
,
1000
0010
0100
0001
1000
0001
0100
0010
,
1000
0100
0010
0100
1000
0010
0100
0001
,
0100
0010
0100
0001
1000
0100
0010
0100
,
1000
0010
0100
0010
1000
0100
0010
0001
,
1000
0010
0100
0001
1000
0001
0100
0000
,
0001
0010
0100
0010
0001
0100
0010
1000
,
0010
0100
0010
1000
0001
0010
0100
0010
,
0001
0100
0010
0100
0001
0010
0100
1000
,
0001
0100
0010
1000
0001
1000
0010
0100
,
0001
0010
0100
0010
0001
0100
0010
1000
,
0010
0100
0010
1000
0001
0010
0100
0010
,
0001
0100
0010
0100
0001
0010
0100
1000
,
0000
0000
0000
0000
1000
0100
1000
0010
,
0100
0000
0001
0000
0010
0000
0001
0000
1000
0000
0000
1010
0000
0000
0101
0000
,
0000
1000
0001
0100
0001
0010
0001
0100
,
0010
0000
1000
0000
0100
0000
1000
0000
0001
0000
0000
0101
0000
0000
1000
0000
,
0001
0100
0010
0000
1000
0100
1000
0010
,
0100
0000
0001
0000
0010
0000
0001
0000
1000
0000
0000
1010
0000
0000
0101
0000
,
0000
1000
0001
0100
0001
0010
0001
0100
,
0010
0000
1000
0000
0100
0000
1000
0000
0001
0000
0000
0101
0000
0000
1000
0000
,
0001
0000
0110
0000
1000
0001
0100
0010
,
1000
0100
0010
0001
1000
0001
0100
0010
,
1000
0100
0010
0000
0001
0010
0100
1000
,
0001
1000
0010
0100
0001
0010
0100
1000
,
0001
1000
0010
0100
0001
0010
0100
1000
,
0001
1000
0010
0100
0001
0000
1000
0000
,
0001
0010
0100
0010
0001
1000
0100
0010
,
0100
1000
0001
0010
0100
0010
0001
1000
,
0100
0010
0100
0000
2000
0000
3200
0000
,
2300
0000
0020
3000
0200
0030
0002
0300
,
0023
0031
2000
3200
,
2300
0000
0200
3000
0020
0300
0002
0030
,
0203
0310
0000
1000
,
1010
0000
0101
0001
,
0011
0000
1100
1000
,
1010
0100
0011
0100
,
1010
0100
0011
1000
,
1001
0000
1001
0001
,
1001
0000
0010
1100
,
0010
0101
0010
1100
,
0101
1100
0101
1000
,
0001
0100
0000
0100
0010
0000
1000
0000
,
0001
0100
0000
0100
0010
0000
1000
0000
,
0001
0100
0000
0100
0010
0000
1000
0100
,
0010
0001
0100
0010
0010
0000
1000
0000
,
0100
0010
0000
0010
0001
0000
0100
0000
,
0001
0010
0000
0010
0001
0000
1000
0001
,
0100
0001
1000
0001
0100
0001
1000
0100
,
0010
0001
1000
0000
1001
0000
1000
0100
,
0010
0100
1000
0010
0100
0001
0100
0010
,
0100
0001
1000
0100
0010
0100
1000
0010
,
0100
0010
1000
0100
0010
0001
1000
0010
,
0100
0001
1000
0001
0100
0010
1000
0100
,
0010
0100
1000
0010
0100
0001
0100
0010
,
0100
0001
1000
0100
0010
0100
1000
0010
,
0100
0010
1000
0100
0010
0001
1000
0010
,
0100
0001
1000
0001
0100
0000
0001
0010
,
0100
0010
0001
0100
0010
1000
0010
0100
,
0010
1000
0001
0010
0100
0010
0001
0100
,
0010
0100
0001
0010
0100
1000
0001
0100
,
0010
1000
0001
1000
0010
0100
0001
0010
,
0100
0010
0001
0100
0010
1000
0010
0100
,
0010
1000
0001
0010
0100
0010
0001
0100
,
0010
0100
0001
0010
0100
1000
0001
1000
,
0100
0010
0001
0000
1010
0000
0000
0000
;

//---------------dance-single - ----------------
#NOTES:
     dance-single:
     Renard:
     Medium:
     6:
     0.435,0.479,0.109,0.009,0.000:
0000
0000
0000
0000
,
0000
0000
0000
0000
,
0000
0000
0000
0000
,
0000
0000
0000
0000
,
1000
0000
1000
0000
0001
0000
1000
0001
,
0000
1000
0000
0001
0000
1000
0000
0001
,
1000
0000
0001
0000
1000
0000
0001
1000
,
0001
1000
0001
1000
0001
0000
0000
0000
,
0100
0000
0010
0000
1000
0000
0001
0100
,
0000
0001
0000
1000
0000
0100
0000
0000
,
0010
0000
0001
0000
0010
0000
0100
1000
,
0000
0001
0000
0100
0000
0001
0000
0000
,
1000
0000
0010
0000
1000
0000
0001
0100
,
0000
0001
0000
0010
0000
0100
0000
0000
,
1000
0000
0010
0000
0100
0000
0001
1000
,
0000
0100
0000
1000
0000
0001
0000
0000
,
0100
0000
0001
0000
1000
0000
0100
1000
,
0000
0001
0000
0100
0001
0000
1000
0000
,
0100
0000
1000
0000
0001
0000
0100
0001
,
0000
0010
0000
0001
1000
0000
0010
0000
,
1000
0000
0001
0000
0100
0000
0001
1000
,
0000
0001
0000
1000
0100
0000
1000
0000
,
0010
0000
0100
0000
0001
0000
1000
0001
,
2000
3000
0000
0000
0001
0000
1000
0000
,
0001
0100
0010
0010
,
1000
0100
0010
0001
,
0100
0010
1000
1000
,
0100
1000
0010
0100
,
0001
0010
0100
0100
,
1000
0010
0100
0001
,
1000
0100
1000
0001
,
0000
0000
1001
0000
1000
0100
0010
0001
,
1000
0100
0010
0001
0001
0000
0001
0000
,
0001
0000
0000
0000
0001
0010
0100
1000
,
0001
0010
0100
1000
1000
0000
1000
0000
,
1000
0000
0000
0000
1000
0010
0100
0001
,
1000
0010
0100
0001
0001
0000
0001
0000
,
0001
0000
0000
0000
0001
0100
0010
1000
,
0001
0100
0010
1000
0001
0000
0001
0000
,
0001
0000
1000
0010
,
0100
0001
0010
0100
,
1000
1000
0100
0010
,
0001
0010
0100
1000
,
0010
0100
0001
0100
,
0010
1000
0000
1000
0010
0000
0100
0000
,
0001
0100
0000
0100
0001
0000
0010
0000
,
0100
1000
0000
1000
0100
0000
0010
0000
,
0001
0010
0000
0010
0001
0000
0010
0000
,
0100
1000
0010
0100
,
0001
0100
0010
1000
,
0001
1000
0001
0000
1000
0001
1000
0000
,
1000
0001
0001
0100
,
0001
1000
0100
0010
,
0001
0000
0010
0000
0100
1000
0100
0000
,
1000
0010
0100
0001
,
0100
0000
0001
0000
1000
0001
1000
0000
,
0001
0100
0001
1000
,
0001
0000
1000
0000
0010
0000
1000
0001
,
1000
0001
1000
0001
1000
0001
1000
0001
,
1000
0001
1000
0000
1000
0000
0001
0000
,
0100
0000
0001
1000
0100
0010
0000
0001
,
0000
0010
0000
0100
0000
0000
1000
0000
,
0001
0000
0100
0010
1000
0001
0000
0100
,
0000
0001
0000
1000
0000
0000
0100
0000
,
1000
0000
0001
0000
0010
0001
0000
1000
,
0000
0010
0000
1000
0000
0000
0001
0000
,
0100
0000
0001
0000
0010
0001
0000
1000
,
0000
0010
0000
1000
0000
0000
0001
0000
,
0100
0000
0001
0000
1000
0100
0000
1000
,
0000
1010
0000
0101
0000
0000
0001
0000
,
0010
0000
0100
0000
1000
0001
0000
0101
,
0000
1010
0000
1010
0000
0000
1100
0000
,
1010
0000
1000
0000
0001
0100
0000
0011
,
0000
0101
0000
1001
0000
1000
0010
0000
,
0100
0000
0001
0010
0100
1000
0000
0001
,
0000
1000
0001
0000
1001
0000
0000
0000
;

//---------------dance-single - ----------------
#NOTES:
     dance-single:
     Renard:
     Easy:
     4:
     0.375,0.342,0.027,0.000,0.000: // measure 1
0000
0000
0000
0000
,  // measure 2
0000
0000
0000
0000
,  // measure 3
0000
0000
0000
0000
,  // measure 4
0000
0000
0000
0000
,  // measure 5
1000
0000
1000
0000
0001
0000
1000
0001
,  // measure 6
0000
0000
1000
0001
,  // measure 7
1000
0000
0001
0000
1000
0000
1000
0001
,  // measure 8
0000
1000
0001
0000
,  // measure 9
1000
0000
0001
0000
1000
0000
1000
0001
,  // measure 10
0000
1000
0000
0001
1000
0000
0001
0000
,  // measure 11
1000
0000
1000
0000
0001
0000
1000
0001
,  // measure 12
0000
1000
1000
0000
,  // measure 13
0010
0000
0100
0000
0010
0000
0100
0010
,  // measure 14
0000
0010
0000
0100
0000
0100
0000
0000
,  // measure 15
0010
1000
0001
0100
,  // measure 16
0001
0010
0100
1000
,  // measure 17
0010
0010
1000
1000
,  // measure 18
0001
0000
0001
0000
0100
0001
0100
0000
,  // measure 19
0001
0001
1000
1000
,  // measure 20
0010
1000
0100
0010
,  // measure 21
0001
0001
0010
0100
,  // measure 22
1000
1000
0001
0100
,  // measure 23
0001
1000
0001
0000
1000
0000
0001
0000
,  // measure 24
1010
0000
1000
0010
,  // measure 25
0100
0001
0010
0010
,  // measure 26
0001
0100
0010
0010
,  // measure 27
1000
0000
0100
1000
,  // measure 28
0010
0000
0100
0100
,  // measure 29
0001
0010
0100
0100
,  // measure 30
1000
0010
0100
0100
,  // measure 31
0001
0000
0010
0001
,  // measure 32
0010
0011
0001
0010
,  // measure 33
0100
0000
1000
0000
0001
1000
0001
0000
,  // measure 34
1000
0000
0001
0100
,  // measure 35
0010
0000
1000
0000
0001
1000
0001
0000
,  // measure 36
1000
0000
0001
0100
,  // measure 37
0010
0000
1000
0000
0100
1000
0100
0000
,  // measure 38
1000
0000
0001
0010
,  // measure 39
0100
0000
1000
0000
0001
1000
0001
0000
,  // measure 40
1000
0000
0001
0100
,  // measure 41
0010
0000
0010
1000
,  // measure 42
0100
0000
0010
0001
,  // measure 43
0100
0000
0010
1000
,  // measure 44
0100
1000
0001
1000
,  // measure 45
0001
1000
0000
0000
0001
0000
1000
0000
,  // measure 46
0010
0100
0000
0001
,  // measure 47
1000
0001
0000
0000
1000
0000
0001
0000
,  // measure 48
0001
0100
0010
1000
,  // measure 49
0100
1000
0000
0001
0010
0000
0001
0000
,  // measure 50
1000
0010
0100
0001
,  // measure 51
1000
0001
0000
1000
0001
0000
1000
0000
,  // measure 52
1000
0001
0000
0100
,  // measure 53
0001
1000
0100
0010
,  // measure 54
0001
0010
0100
1000
,  // measure 55
0001
0100
0010
1000
,  // measure 56
0001
0000
1000
0000
0001
0000
0100
0100
,  // measure 57
0001
0000
0100
0000
0001
0000
1000
1000
,  // measure 58
0100
1000
0100
1000
,  // measure 59
0001
1000
0001
0000
1000
0000
0001
0000
,  // measure 60
0001
1000
0000
0001
,  // measure 61
1000
0001
1000
0001
,  // measure 62
0100
0001
1000
0100
,  // measure 63
0100
0000
0010
0000
0001
0010
0000
0100
,  // measure 64
0000
1000
0000
0010
0000
0100
0001
0000
,  // measure 65
0100
0010
1000
0100
,  // measure 66
0010
0100
0100
1000
,  // measure 67
0001
0000
0100
0000
0010
1000
0000
0010
,  // measure 68
0000
0100
0000
0001
0000
0010
0001
0000
,  // measure 69
0001
0010
0010
0100
,  // measure 70
0100
0000
1000
0001
1000
0000
0001
0000
,  // measure 71
0001
0100
0100
0010
,  // measure 72
0010
0000
1000
0001
1000
0000
0010
0000
,  // measure 73
0010
1000
0001
0100
,  // measure 74
0001
0000
1000
0100
1000
0000
0001
0000
,  // measure 75
0100
0001
1000
0001
,  // measure 76
0100
0010
1001
0000
;
