#TITLE:Heaven and Earth;
#SUBTITLE:;
#ARTIST:Sonitus Vir;
#TITLETRANSLIT:;
#SUBTITLETRANSLIT:;
#ARTISTTRANSLIT:;
#CREDIT:;
#BANNER:kismet.png;
#BACKGROUND:kismet-bg.png;
#LYRICSPATH:;
#CDTITLE:;
#MUSIC:kismet.ogg;
#OFFSET:-0.003;
#SAMPLESTART:80.960;
#SAMPLELENGTH:12.000;
#SELECTABLE:YES;
#BPMS:0.000=160.002;
#STOPS:;
#BGCHANGES:;
#GENRE:Electronic Orchestra;

//---------------dance-single - Renard----------------
#NOTES:
     dance-single:
     Renard:
     Hard:
     8:
     0.598,0.648,0.460,0.129,0.005:
0000
0000
0000
0000
,
0000
0000
0000
0000
,
0000
0000
0000
0000
,
0000
0000
0000
0000
,
0000
0000
0000
0000
,
0000
0000
0000
0000
,
0000
0000
0000
0000
,
0000
0000
0000
0000
,
0001
1000
0010
1000
0100
1000
0001
1000
,
0010
1000
0100
1000
1000
0100
1000
0010
,
0100
0001
0010
0001
1000
0001
0010
0001
,
0100
0001
1000
0001
0001
0010
0100
1000
,
0010
0100
0001
0100
1000
0100
0010
0100
,
0001
0100
0010
0100
0100
0010
1000
0100
,
0010
0001
0010
0100
0010
1000
0010
0001
,
0010
0100
0010
0001
0001
0010
0100
1000
,
0020
0000
0200
0030
,
0002
0300
2000
3003
,
1001
0000
1010
0000
0100
0001
0010
0100
,
1000
0010
1010
0000
1001
0000
0101
0000
,
0011
0000
0001
0010
0100
1000
0010
0100
,
0001
1000
1001
0000
1010
0000
0101
0000
,
1001
0000
1000
0100
1000
0010
0100
0010
,
0100
0001
0101
0000
0011
0000
1001
0000
,
1010
0000
0100
0001
0010
0100
1000
0010
,
0100
0000
0010
0000
0100
0000
0001
0000
1000
0000
0001
0000
1000
0100
0010
0000
,
0001
0010
0100
0000
2100
0000
3010
0000
,
1000
0100
0010
0000
0012
0000
0103
0000
,
1000
0001
0100
0000
0102
0000
1003
0000
,
0001
1000
0100
0000
2100
0000
3001
0000
,
0100
0001
0010
0100
0210
0000
0301
0000
,
0100
1000
0010
0100
0120
0000
1030
0000
,
1010
1100
1001
0101
,
0001
0010
0100
1000
1100
1000
1010
0000
,
1001
0000
0001
0100
0001
0010
0001
0100
,
0010
1000
0100
1000
0010
1000
0001
0100
,
0010
1000
0100
0010
0001
0010
0100
1000
,
0001
0100
0001
1000
0100
1000
1001
0000
,
1010
0000
0100
0001
0010
0100
0010
0001
,
1000
0100
0010
0100
1000
0001
0100
0010
,
1000
0100
1000
0001
0010
0001
1000
0100
,
0010
0001
0011
0001
0101
0100
0110
0000
,
1001
0000
1000
0010
1000
0001
0010
0001
,
1000
0100
1000
0001
0010
0001
1000
0100
,
0010
0001
0010
0100
1000
0010
0100
0001
,
1000
0100
0010
0001
0010
0001
0011
0000
,
0101
0000
0100
0010
1000
0010
0100
0000
,
0110
0000
1000
0010
0100
0001
0010
0000
,
0011
0000
0001
0100
0010
1000
0100
0000
,
1100
0000
1000
0010
1010
0000
1001
0000
,
0202
0000
0000
0000
,
0000
0000
0000
0000
,
0303
0000
0000
0000
,
0000
0000
0000
0000
1000
1000
0001
0001
,
1000
0100
0001
0100
1000
0010
0001
0010
,
1000
0100
0010
1000
0010
0100
1000
0000
,
0001
0100
1000
0100
0001
0010
1000
0010
,
0001
0010
0100
0001
0100
0010
0001
0000
,
1000
0100
0010
0000
0010
0100
1000
0000
,
0001
0010
0100
0000
0100
0010
0001
0000
,
1000
0001
0100
0001
1000
0100
1000
0010
,
0100
0001
0100
0000
0100
0010
1000
0000
,
1001
0000
0101
0000
0100
0010
1000
0100
,
0010
0001
0010
0100
1000
0010
0100
0010
,
0110
0000
1010
0000
0001
0100
0010
1000
,
0100
0010
0100
1000
0001
0010
0001
0000
,
0011
0000
1100
0000
0010
0001
0010
1000
,
0010
0100
1000
0100
0001
0100
1000
0000
,
1100
0000
0011
0000
1000
0001
0100
0010
,
1000
0100
1000
0010
0100
0001
0010
0100
,
2002
0000
3003
0000
;

//---------------dance-single - Renard----------------
#NOTES:
     dance-single:
     Renard:
     Medium:
     6:
     0.369,0.418,0.120,0.101,0.000:
0000
0000
0000
0000
,
0000
0000
0000
0000
,
0000
0000
0000
0000
,
0000
0000
0000
0000
,
2000
0000
0000
0000
,
0000
0000
0000
0000
,
3002
0000
0000
0000
,
0203
0000
0000
0000
,
0310
1000
0001
0100
,
0001
1000
0100
0000
,
1000
0001
0100
0001
,
1000
0100
1000
0000
,
0010
1000
0001
0001
,
0100
0100
0010
0010
,
1000
0000
0100
0000
1000
0000
0001
0100
,
0001
0100
0001
1000
,
0200
0000
2300
0000
,
3020
0000
0230
0000
,
0301
1000
0001
0100
,
0000
1010
0101
0011
,
0001
1000
0100
1000
,
0000
1010
0101
0011
,
1000
0001
1000
0001
1000
0001
1000
0001
,
1000
0001
0100
0000
,
0001
1000
0001
1000
0001
1000
0001
0000
,
1000
0000
0100
0000
1000
0001
0100
0000
,
0001
0000
1000
0000
0100
0000
1000
0001
,
0100
0001
0010
0010
,
0001
0000
1000
0000
0010
0000
1000
0100
,
0010
0000
0001
0010
0100
0000
1000
0010
,
0100
0000
0001
0000
0100
0000
0001
1000
,
0001
0100
0001
1000
,
0100
0100
1000
1000
,
0001
0100
0001
0100
0001
0100
0001
0000
,
0001
1000
0100
1000
,
0001
0000
0100
0000
0001
0000
0010
0001
,
0010
0001
1000
0100
,
1010
0100
1001
0100
,
1001
0000
1000
0000
0010
0000
0100
0001
,
0100
0001
1000
0100
,
1000
0000
0010
1000
0010
0000
0100
0000
,
1001
0100
1010
0100
,
1001
0100
1000
0010
,
0100
0001
0100
0010
,
1000
0000
0100
1000
0100
0000
1000
0000
,
0010
0000
0100
0000
0001
0000
0100
0001
,
1000
0000
1000
0001
0100
0000
0001
0000
,
1000
0000
0100
1000
0001
0000
0100
0000
,
0001
1000
0001
1000
0001
0000
1000
0000
,
0001
1000
0001
0000
1000
0001
1000
0000
,
0002
0000
0000
0000
,
0000
0000
0000
0000
,
0003
0000
0000
0000
,
0000
0000
0000
0000
0000
0000
0100
0100
,
0010
0010
0010
1000
,
1000
1000
0001
0001
,
0100
0100
0100
0001
,
0001
0001
0010
0010
,
0100
0100
0100
1000
,
1000
1000
0010
0010
,
0100
0001
1000
0001
,
0100
0001
1000
0100
,
1000
0000
0001
0100
0001
0000
1000
0000
,
0100
1000
0001
0000
,
1000
0000
0010
1000
0010
0000
0100
0000
,
0001
0010
0010
0001
,
0100
0100
0010
0020
,
1000
1000
1000
0030
,
0100
0001
0100
0002
,
0010
0010
0010
0003
,
1002
0003
0000
0000
0000
0000
0000
0000
0000
0000
0000
0000
0000
0000
0000
0000
0000
0000
0000
0000
0000
0000
0000
0000
0000
0000
0000
0000
0000
0000
0000
0000
0000
0000
0000
0000
0000
0000
0000
0000
0000
0000
0000
0000
0000
0000
0000
0000
0000
0000
0000
0000
0000
0000
0000
0000
0000
0000
0000
0000
0000
0000
0000
0000
0000
0000
0000
0000
0000
0000
0000
0000
0000
0000
0000
0000
0000
0000
0000
0000
0000
0000
0000
0000
0000
0000
0000
0000
0000
0000
0000
0000
0000
0000
0000
0000
0000
0000
0000
0000
0000
0000
0000
0000
0000
0000
0000
0000
0000
0000
0000
0000
0000
0000
0000
0000
0000
0000
0000
0000
0000
0000
0000
0000
0000
0000
0000
0000
0000
0000
0000
0000
0000
0000
0000
0000
0000
0000
0000
0000
0000
0000
0000
0000
0000
0000
0000
0000
0000
0000
0000
0000
0000
0000
0000
0000
0000
0000
0000
0000
0000
0000
0000
0000
0000
0000
0000
0000
0000
0000
0000
0000
0000
0000
0000
0000
0000
0000
0000
0000
0000
0000
0000
0000
0000
0000
0000
0000
0000
0000
0000
0000
;

//---------------dance-single - Renard----------------
#NOTES:
     dance-single:
     Renard:
     Easy:
     3:
     0.298,0.290,0.009,0.000,0.000:
0000
0000
0000
0000
,
0000
0000
0000
0000
,
0000
0000
0000
0000
,
0000
0000
0000
0000
,
0100
0000
0000
0000
,
0000
0000
0000
0000
,
0010
0000
0000
0000
,
1000
0000
0000
0000
,
0001
0100
0010
1000
,
0010
0100
0001
0000
,
0100
0010
1000
0010
,
0100
0001
0100
0000
,
0001
0100
0010
0010
,
1000
1000
0001
0001
,
0100
1000
0100
0010
,
0010
1000
0010
0100
,
1000
0000
0100
0000
,
0001
0000
1000
0000
,
0010
0100
0010
1000
,
0000
0001
0010
0001
,
0010
0100
1000
0001
,
0000
0001
0010
0001
,
0100
0010
0100
0010
,
0001
0010
1000
0000
,
0010
0001
0010
1000
,
0100
0001
0100
0010
,
1000
0100
0001
0100
,
0010
1000
0001
0001
,
0010
0100
1000
0100
,
0010
0001
0100
0010
,
1000
0010
1000
0010
,
0100
0001
0010
0100
,
1000
0100
0010
0001
,
0010
0100
1000
0100
,
0010
0100
1000
0100
,
0010
0001
0010
0001
,
1000
0010
0100
0001
,
1000
0100
0010
0001
,
0010
0100
1000
0001
,
0010
0001
0100
1000
,
0100
0001
0001
1000
,
0010
1000
0001
1000
,
0010
1000
0100
0001
,
0100
0010
1000
0001
,
0100
1000
0100
0001
,
0100
1000
0010
1000
,
0010
0100
0010
1000
,
0100
1000
0010
1000
,
0010
0100
0010
0001
,
0010
0100
0001
0010
,
0100
0000
0000
0000
,
0000
0000
0000
0000
,
0000
0000
0000
0000
,
0000
0000
0000
1000
,
0001
1000
0001
0100
,
0010
0100
0010
0010
,
1000
0001
1000
0010
,
0100
0010
1000
0001
,
1000
0001
1000
0100
,
1000
0100
0010
0001
,
1000
0010
0100
0010
,
1000
0001
0010
0100
,
1000
0010
0100
0001
,
1000
0100
0010
0000
,
0100
1000
0001
1000
,
0001
0100
0001
0010
,
0001
1000
0001
0100
,
0010
1000
0001
0000
,
1000
0010
1000
0010
,
0100
0001
0100
0000
,
0110
0000
0000
0000
;

//---------------dance-single - BlueChaos----------------
#NOTES:
     dance-single:
     BlueChaos:
     Challenge:
     11:
     0.896,0.843,0.552,0.175,0.579: // measure 1
0000
0000
0000
0000
,  // measure 2
0000
0000
0000
0000
,  // measure 3
0101
1001
1100
0011
,  // measure 4
0101
1010
0110
1001
,  // measure 5
1100
0011
0110
1100
,  // measure 6
1001
0101
0110
1010
,  // measure 7
1001
0001
0001
0000
0101
0000
1010
0000
,  // measure 8
1100
0000
1000
0000
1000
0100
0010
0001
1000
0100
0010
0100
1000
0001
0100
0010
,  // measure 9
1000
0000
0001
0000
0100
0000
0010
0000
0100
0000
0001
0100
0010
0000
1000
0000
,  // measure 10
0100
0000
0010
0000
0100
0000
1000
0000
0001
0100
0001
0100
0010
0000
0100
0000
,  // measure 11
0001
0000
0010
0000
0100
0000
0010
0000
0001
0000
1000
0001
0100
0000
0010
0000
,  // measure 12
1000
0000
0100
0000
0010
0000
0001
0000
1000
0001
1000
0010
1000
0000
0100
0000
,  // measure 13
0001
0000
0100
0000
1000
0000
0001
0000
0100
0000
0010
0100
0001
0000
0100
0000
,  // measure 14
1000
0000
0100
0000
0001
0000
1000
0000
0010
0100
0001
0100
0010
0000
0100
0000
,  // measure 15
0101
0000
0001
0000
0010
0000
0100
0000
1100
0000
1000
0001
0100
0000
0010
0000
,  // measure 16
0100
0001
0010
0100
1000
0000
0100
0000
1000
0000
0100
0010
0001
0000
2000
0000
,  // measure 17
0002
0000
0000
0000
,  // measure 18
0000
0000
3003
0000
0001
0100
0010
0100
0001
1000
0001
0010
0100
1000
0100
0010
,  // measure 19
0001
0000
0010
0000
0011
0000
0010
0000
0001
0000
1000
0000
1001
0000
1000
0010
,  // measure 20
0100
0100
0101
0001
1001
1000
1100
0100
,  // measure 21
0010
0000
0001
0000
1001
0000
1000
0000
0010
0000
0100
0000
0110
0000
0010
0100
,  // measure 22
0001
0001
1001
1000
1010
0010
0110
0100
,  // measure 23
0001
0010
1000
0010
0001
0100
1000
0100
,  // measure 24
0001
0010
1000
0010
0011
0001
0101
0100
,  // measure 25
1000
0100
0001
0010
1000
0010
0001
0100
,  // measure 26
1000
0100
0101
0010
1001
0100
0110
0010
,  // measure 27
2010
0100
0001
3010
0201
0010
0001
0310
,  // measure 28
0210
1000
0010
0301
1002
0100
1000
0013
,  // measure 29
0120
1000
0100
0031
0210
1000
0010
0301
,  // measure 30
0201
0010
0001
0310
2010
0001
0100
3010
,  // measure 31
1200
0010
0001
0310
0120
1000
0100
0031
,  // measure 32
0012
1000
0010
0103
2001
0010
0001
3100
,  // measure 33
1020
0100
0001
0130
0201
0010
1000
0310
,  // measure 34
0210
0000
0001
0000
0010
0000
1000
0000
0010
0000
0301
0000
0100
0001
1000
0001
,  // measure 35
0010
0000
0100
0000
1000
0100
0010
0000
0001
0000
0010
0000
0001
0100
0010
0000
,  // measure 36
0100
0000
0001
0000
0100
0001
0010
0000
0001
0010
0001
0010
0100
1000
0100
0000
,  // measure 37
1000
0010
0100
0000
0001
0000
1000
0000
0001
0010
0100
0000
0010
0000
0100
0000
,  // measure 38
0010
0001
0100
0000
0001
0000
0100
0000
0010
1000
0010
0100
0001
0100
0001
0000
,  // measure 39
0100
0001
1000
0000
0001
0000
0010
0000
0100
0010
0001
0000
0010
0000
0100
0000
,  // measure 40
1000
0001
0100
0000
0010
0000
0100
0000
0010
0100
0010
0100
0001
1000
0001
0000
,  // measure 41
1000
0100
0010
0000
0001
0000
0100
0000
0010
0100
0001
0000
0010
0000
0100
0000
,  // measure 42
1000
0010
0100
0000
0001
0000
0010
0000
0001
0010
0100
1000
0001
0010
0100
1000
,  // measure 43
1001
0000
0000
1000
0010
0000
0000
0010
0100
0000
0000
0100
0001
0000
0000
0001
,  // measure 44
0010
0000
0000
0010
0100
0000
0000
0100
1000
0000
0000
1000
0100
1000
0001
1000
,  // measure 45
0010
0000
0000
0010
0100
0000
0000
0100
1000
0000
0000
1000
0100
0000
0000
0100
,  // measure 46
0001
0000
0000
0001
0010
0000
0001
0000
1000
0000
0100
0010
0001
0100
0010
1000
,  // measure 47
0100
0000
0000
1000
0010
0000
1000
0000
0001
0000
0000
0100
0010
0000
0100
0000
,  // measure 48
1001
0000
0000
0001
0100
0000
0001
0000
0010
0000
0000
0100
1000
0000
0001
0000
,  // measure 49
1001
0000
0001
0000
0010
0000
0001
0000
0100
0000
0010
1000
0010
0000
1000
0000
,  // measure 50
1100
0000
0100
0000
1000
0000
0010
0000
0100
0001
1000
0100
0010
0001
0100
0010
,  // measure 51
2000
0000
0000
0000
,  // measure 52
0000
0000
0000
0000
,  // measure 53
3000
0000
0000
0000
,  // measure 54
0000
0000
0001
0100
0010
0100
0001
1000
0100
0010
0100
1000
0001
1000
0100
0010
,  // measure 55
0001
0000
0100
0000
0010
0000
1000
0000
0001
0010
0100
0000
0010
0000
0001
0000
,  // measure 56
0100
0010
1000
0000
0010
0000
0100
0000
0001
0010
0100
1000
0001
0000
1000
0000
,  // measure 57
0010
0100
0001
0000
0100
0000
0010
0000
0100
0010
1000
0000
0100
0000
0010
0000
,  // measure 58
0100
1000
0001
0000
1000
0000
0010
0000
0100
0010
1000
0100
0010
0000
0100
0010
,  // measure 59
0001
0000
1000
0000
0010
0000
1000
0000
0100
0010
0001
1000
0010
0000
1000
0000
,  // measure 60
0100
0000
0001
0000
0100
0000
1000
0000
0100
1000
0001
0100
0010
0000
0100
0010
,  // measure 61
1000
0000
0001
0000
0100
0000
0010
0000
0100
0001
1000
0001
0010
0000
0100
0000
,  // measure 62
1000
0010
0100
0000
0010
0000
0100
0000
0001
0010
0100
1000
0001
0100
0010
1000
,  // measure 63
0001
0100
1001
0010
1000
0100
1001
0100
,  // measure 64
0001
0000
1000
0000
0001
0000
0010
0000
0100
1000
0010
0100
0001
0000
0100
0000
,  // measure 65
0010
1000
0101
0010
1000
0010
0101
1000
,  // measure 66
0001
0000
0010
0000
0100
0000
1000
0000
0100
0010
0001
1000
0010
0000
0100
0000
,  // measure 67
0010
0000
1000
0000
0001
0000
0010
0000
0100
0010
0100
1000
0001
0000
1000
0000
,  // measure 68
0010
0000
1000
0000
0001
0010
0100
0000
0010
0000
0001
0000
1000
0010
0100
0000
,  // measure 69
0001
0000
0010
0000
0100
1000
0100
0000
1000
0001
1000
0000
0001
0100
0001
0000
,  // measure 70
0100
0010
0100
0000
0010
1000
0010
0000
1000
0100
0010
0100
1000
0001
0100
0010
,  // measure 71
2000
0000
3000
0000
;
