#TITLE:Heard That Sound;
#SUBTITLE:;
#ARTIST:MxPx;
#TITLETRANSLIT:;
#SUBTITLETRANSLIT:;
#ARTISTTRANSLIT:;
#CREDIT:;
#BANNER:heard that sound.png;
#BACKGROUND:heard that sound-bg.png;
#LYRICSPATH:;
#CDTITLE:;
#MUSIC:heard that sound.ogg;
#OFFSET:0.000;
#SAMPLESTART:49.145;
#SAMPLELENGTH:12.000;
#SELECTABLE:YES;
#BPMS:0.000=191.600;
#STOPS:;
#BGCHANGES:;
#GENRE:Pop Punk;

//---------------dance-single - Renard----------------
#NOTES:
     dance-single:
     Renard:
     Hard:
     8:
     0.630,0.687,0.355,0.089,0.000:
0000
0000
0000
0000
,
0000
0000
0000
0000
,
0000
0000
0000
0000
,
0000
0000
0000
0000
,
0000
0000
0000
0000
,
0000
0000
0000
0000
,
0000
0000
0000
0000
,
0000
0000
0000
0000
,
2001
0001
0001
0001
,
0001
0001
0001
3001
,
1002
1000
1000
1000
,
1000
1000
1000
1003
,
0210
0010
0010
0310
,
0120
0100
0100
0130
,
2010
3010
0102
0103
,
1001
0100
0100
1001
0100
0100
1001
0000
,
1000
0100
0010
0001
0000
0110
0000
1100
,
0000
1000
0010
0100
0001
1000
0001
0000
,
0001
0100
0010
1000
0000
0110
0000
0101
,
0000
0001
0100
0010
1000
0100
0010
0001
,
1000
0100
1000
0010
0000
1010
0000
0101
,
0000
0001
0100
0010
1000
0100
1000
0000
,
0001
0010
0001
0100
0000
0100
0001
1000
,
0100
1000
0100
0010
0000
0010
0001
0000
,
1000
0100
1000
0100
1000
0100
1000
0100
,
0010
0001
0010
0000
0001
0010
0001
0000
,
1000
0010
1000
0010
1000
0010
1000
0010
,
0100
0001
0100
0000
0001
0100
0001
0000
,
1000
0001
1000
0001
1000
0001
1000
0001
,
0100
0010
0100
0000
0010
0100
0010
0000
,
1000
0010
1000
0010
0100
0001
0100
0001
,
1000
0100
1000
0000
0001
0010
0001
0000
,
1100
0000
0100
1000
0010
0100
0001
0010
,
0100
1000
0010
0100
0001
0010
0100
0000
,
0110
0000
0100
0010
0001
1000
0010
0100
,
0001
0010
0100
1000
0100
0010
0001
0000
,
0011
0000
0001
0010
0100
1000
0010
0100
,
0001
0100
0010
1000
0100
0010
0001
1000
,
1001
0000
1010
0000
0100
0001
0011
0000
,
0101
0000
1010
0000
1000
0100
0010
0001
,
0001
0010
0100
0000
1000
0100
0010
0000
,
0001
0100
0010
0000
1000
0010
0100
0001
,
0001
0010
0100
0000
1000
0100
0010
0000
,
0010
0100
1000
0000
0001
0010
0100
1000
,
1000
0010
0100
0000
0001
0100
0010
0000
,
1000
0100
1000
0001
0010
0001
0100
0010
,
0010
0100
1000
0000
1000
0100
0001
0000
,
0001
0010
0100
1000
0100
0010
0001
0010
,
0011
0011
0101
0110
,
0010
0000
1000
1100
0000
0011
0000
0001
,
1000
0100
1000
0000
0001
0010
0001
0000
,
1000
0010
0100
0001
0010
0100
0100
0000
,
1100
0000
0010
0001
0100
0010
1000
0010
,
0100
0001
0010
0001
0100
0000
0100
0001
,
0000
0001
0100
0010
1000
0100
1000
0010
,
0100
0000
0100
0001
0000
0001
1001
0000
,
1000
0100
0010
0001
0010
0100
1000
0010
,
0100
0001
0100
0010
1000
0100
0010
0001
,
0100
0010
1000
0010
0100
0001
0010
0100
,
1000
0001
1000
0001
0010
0100
1000
0010
,
0100
0001
1000
0100
0010
0001
0100
0010
,
1000
0001
1000
0100
0010
0001
0100
0010
,
1000
0010
0100
0000
0001
0100
0010
0000
,
1000
0000
1000
0010
0000
0010
0100
0001
,
0022
0000
0000
0000
,
0000
0033
0000
0000
;

//---------------dance-single - Renard----------------
#NOTES:
     dance-single:
     Renard:
     Medium:
     6:
     0.415,0.497,0.078,0.000,0.000:
0000
0000
0000
0000
,
0000
0000
0000
0000
,
0000
0000
0000
0000
,
0000
0000
0000
0000
,
0000
0000
0000
0000
,
0000
0000
0000
0000
,
0000
0000
0000
0000
,
0000
0000
0000
0000
0000
0000
1000
0001
,
1000
1000
1000
0001
,
0100
0100
0100
0010
,
1000
1000
1000
0100
,
0010
0010
0010
0001
,
0100
0001
0100
0010
,
1000
0100
0010
0001
,
1000
0001
1000
0000
0001
1000
0001
0000
,
1000
1000
0001
0001
1000
1000
0001
0000
,
0100
0000
0010
0000
1000
0100
0010
0000
,
0001
0010
0100
1000
,
0001
0000
0100
0000
0010
1000
0010
0000
,
0100
0001
0010
0100
,
1000
0000
0001
0000
0100
0001
0100
0000
,
0001
0001
1000
1000
,
0100
0000
1000
0000
0010
1000
0010
0000
,
1000
0001
0100
0001
,
0010
0100
1000
0001
,
0100
0001
1000
0010
,
1000
0000
0001
0000
0010
0000
0001
1000
,
0001
0000
1000
0001
1000
0000
0001
1000
,
0001
0100
0010
1000
,
0100
0010
0001
1000
,
0010
0000
1000
0010
1000
0000
0001
0100
,
0001
0000
1000
0100
1000
0000
0001
0000
,
0100
0100
0001
0001
,
0010
0010
0001
0001
,
0010
0010
0100
0100
,
1000
1000
0010
0010
,
0100
0000
0001
0100
0001
0000
1000
0000
,
0010
0000
1000
0100
1000
0000
0001
0000
,
0100
0000
0001
0000
,
1000
0000
0100
1000
0001
0000
1000
0000
,
1010
0100
0001
0010
,
0100
0000
1000
0001
0100
0000
0100
0001
,
0000
1000
0100
0010
,
0001
0000
1000
0000
0010
0000
0100
0001
,
0000
0001
1000
0000
0100
0000
1000
0000
,
0001
0000
0010
0000
0001
0000
1000
0010
,
0000
0010
1000
0000
0001
0000
0100
0000
,
0001
0010
0001
1000
,
0100
0100
1100
1000
,
0010
0100
0101
0001
,
0010
0100
1100
1000
,
0010
0100
0101
0001
,
0010
0100
0110
0100
,
1000
0010
1010
0010
,
0100
0000
0001
0000
0100
0001
0100
0000
,
0001
0100
0000
0001
0100
0000
0001
0100
,
0001
0000
1000
0000
0100
1000
0100
0000
,
1000
0000
0001
0000
0010
0001
0010
0000
,
0001
1000
0010
1000
,
0001
0100
0001
1000
,
0100
0000
1000
0001
1000
0000
0001
0000
,
0100
0000
0001
1000
0001
0000
0010
0000
,
0001
1000
0010
1000
,
0001
0000
0100
0001
1000
0100
0010
0000
,
0001
0000
0000
0000
;

//---------------dance-single - Renard----------------
#NOTES:
     dance-single:
     Renard:
     Easy:
     4:
     0.312,0.355,0.055,0.000,0.000:
0000
0000
0000
0000
,
0000
0000
0000
0000
,
0000
0000
0000
0000
,
0000
0000
0000
0000
,
0000
0000
0000
0000
,
0000
0000
0000
0000
,
0000
0000
0000
0000
,
0000
0000
0000
0000
,
1001
0000
1000
0000
,
1000
0000
1000
0001
,
1001
0000
0001
0000
,
0001
0000
0001
1000
,
1001
0000
1000
0000
,
1000
0000
1000
0001
,
1001
0000
1001
0000
,
1000
0000
0001
1000
0000
0001
1000
0000
,
1000
0100
0010
0001
,
0010
0000
0100
0000
0000
1000
0001
0000
,
0100
0010
1000
0010
,
0100
0000
0001
0000
0000
1000
0001
0000
,
0100
0010
1000
0100
,
0010
0000
0001
0000
0000
0010
0001
0000
,
0010
0100
1000
0001
,
0100
0000
0001
0000
0000
1000
0001
0000
,
1000
0000
0010
0000
,
0100
0001
0010
0100
,
1000
0000
0001
0000
,
0010
0001
0100
0000
,
0001
0000
1000
0000
,
0010
0100
0001
0000
,
0010
0000
0100
0000
,
1000
0001
1000
0000
,
0001
1000
0001
0100
,
0001
0010
0001
1000
,
0100
1000
0010
1000
,
0001
1000
0100
0010
,
0001
1000
0001
0000
,
0100
0010
0100
0000
,
0001
1000
0001
0000
,
0010
0100
1000
0010
,
0100
0000
0100
0001
,
0100
0000
0010
1000
,
0010
0000
1000
0100
,
1000
0000
0001
0010
,
0001
0000
1000
0000
,
0010
0000
0100
0001
,
0100
0000
0010
0000
,
1000
0000
0100
0000
,
0010
0001
0010
0100
,
1000
0000
0001
1000
0000
0000
0001
0000
,
1000
0010
0100
0001
,
1000
0000
0001
1000
0000
0000
0010
0000
,
0100
0001
0010
0100
,
1000
0000
0001
1000
0000
0000
0001
0000
,
0100
0010
1000
0001
,
0100
0000
0100
0010
0000
0010
1000
0000
,
0001
0001
0100
0001
,
1000
1000
0010
0100
,
0001
0001
1000
0100
,
0010
0010
0001
0010
,
0100
0100
1000
0001
,
0100
0100
0001
1000
,
0001
0001
1000
1000
,
0001
0000
0001
1000
0000
1000
0001
0000
,
1000
0000
0000
0000
;

//---------------dance-single - BlueChaos----------------
#NOTES:
     dance-single:
     BlueChaos:
     Challenge:
     9:
     0.768,0.901,0.355,0.310,0.094: // measure 1
0000
0000
0000
0000
,  // measure 2
0000
0000
0000
0000
,  // measure 3
0000
0000
0000
0000
,  // measure 4
0000
0000
0000
0000
,  // measure 5
0000
0000
0000
0000
,  // measure 6
0000
0000
0000
0000
,  // measure 7
0000
0000
0000
0000
,  // measure 8
0000
0000
0000
0000
,  // measure 9
2001
0010
0100
0001
,  // measure 10
0010
0001
0100
3010
,  // measure 11
0102
0010
1000
0100
,  // measure 12
0010
1000
0010
0103
,  // measure 13
0120
1000
0100
0001
,  // measure 14
0100
1000
0100
1030
,  // measure 15
0201
0010
1000
0310
,  // measure 16
0101
0000
0001
1000
0001
0000
1001
0000
1000
0000
0100
0000
1001
0000
0000
0000
,  // measure 17
0001
0100
0001
0000
0100
0000
0010
0000
1000
0000
0100
0000
0010
0000
0100
0000
,  // measure 18
1000
0001
0100
0010
1000
0100
0010
0001
,  // measure 19
1000
0001
1000
0000
0001
0000
0100
0000
0010
0000
0100
0000
0001
0000
0010
0000
,  // measure 20
0100
1000
0100
0001
0100
1000
0001
0100
,  // measure 21
0010
1000
0010
0000
1000
0000
0001
0000
0100
0000
0010
0000
1000
0000
0100
0000
,  // measure 22
0010
0001
0010
1000
0010
0001
0010
0100
,  // measure 23
1000
0100
1000
0000
0001
0000
0100
0000
0000
0000
0100
0000
0010
0000
1000
0000
,  // measure 24
0100
1000
0100
0000
1000
0000
0010
0000
0100
0001
1000
0001
0010
0100
1000
0000
,  // measure 25
1001
0001
0100
0010
1000
0010
0100
0001
,  // measure 26
1000
0010
0100
0001
0010
0100
1000
0100
,  // measure 27
0010
0100
1000
0100
0001
0100
1000
0100
,  // measure 28
0010
0001
0100
0010
1000
0001
0010
0100
,  // measure 29
0010
0001
0100
0010
1000
0010
0100
0010
,  // measure 30
1000
0001
1000
0001
0010
0100
0010
0001
,  // measure 31
1000
1000
0010
0100
0001
0001
0010
0100
,  // measure 32
1000
1000
0100
0010
0100
0100
1000
0010
,  // measure 33
0101
0001
1000
0100
1000
0010
0001
0010
,  // measure 34
1000
0100
1000
0001
1000
0100
0001
0100
,  // measure 35
1000
0010
1000
0010
0100
0001
0010
0100
,  // measure 36
0010
0001
1000
0001
0100
0001
0010
0100
,  // measure 37
1000
0001
0100
0010
0100
0001
0010
0100
,  // measure 38
1000
0100
0001
0100
0010
0001
0011
0010
,  // measure 39
1001
1000
0001
0100
1010
1000
0001
0010
,  // measure 40
1100
0000
0000
0000
1000
0100
1000
0100
0010
0001
0010
0001
1000
0001
1000
0000
,  // measure 41
1001
0001
0200
0010
0010
0310
1000
0100
,  // measure 42
0020
0001
0001
0031
0010
0100
0010
0001
,  // measure 43
1001
1000
0020
0100
0100
0130
0001
0010
,  // measure 44
0200
1000
1000
1300
0100
0010
0001
1000
,  // measure 45
1010
0010
0200
0001
0001
0301
1000
0100
,  // measure 46
2000
0010
0010
3010
0100
0001
0010
0001
,  // measure 47
0101
0100
0020
1000
1000
1030
0010
1000
,  // measure 48
1001
0000
0101
0000
0000
0000
0110
0000
1010
0000
1000
0010
1000
0100
0010
0001
,  // measure 49
1000
0100
1000
0010
0110
0100
0001
0010
,  // measure 50
0011
0001
1000
0010
1010
1000
0001
0100
,  // measure 51
0101
0001
1000
0100
0010
0100
1000
0001
,  // measure 52
0100
0010
1000
0100
0010
0001
0100
0001
,  // measure 53
1001
1000
0010
0010
0100
0001
0010
0010
,  // measure 54
0100
1000
0001
0001
0100
0010
1000
1000
,  // measure 55
1100
0100
0010
0001
1000
0100
0010
0001
,  // measure 56
0010
0010
0001
0100
0110
0010
1000
0001
,  // measure 57
1001
1000
0100
0001
0100
2000
0000
3100
,  // measure 58
0010
0001
0100
2000
0000
3200
0000
0301
,  // measure 59
1000
0010
0100
0002
0000
2003
0000
3200
,  // measure 60
0010
0000
0320
0000
0001
0000
0032
0000
2000
0003
0000
0000
3001
0000
0100
0000
,  // measure 61
0010
1000
0100
0020
0000
0032
0000
0203
,  // measure 62
0000
0310
1000
0100
1000
0010
1000
0001
,  // measure 63
0100
0020
1000
2030
0001
3002
0010
0013
,  // measure 64
0100
1000
1001
0001
0100
0110
0010
1000
,  // measure 65
2002
0000
0000
0000
,  // measure 66
3003
0000
0000
0000
;
