#TITLE:He Loves Me;
#SUBTITLE:;
#ARTIST:Blümchen;
#GENRE:Dancepop;
#TITLETRANSLIT:;
#SUBTITLETRANSLIT:;
#ARTISTTRANSLIT:;
#CREDIT:;
#BANNER:lovesme.png;
#BACKGROUND:lovesme-bg.png;
#LYRICSPATH:;
#CDTITLE:;
#MUSIC:lovesme.ogg;
#OFFSET:0.000;
#SAMPLESTART:17.616;
#SAMPLELENGTH:12.000;
#SELECTABLE:YES;
#BPMS:0.000=161.330;
#STOPS:;
#BGCHANGES:;

//---------------dance-single - Renard----------------
#NOTES:
     dance-single:
     Renard:
     Challenge:
     12:
     0.904,1.000,0.514,0.435,0.672:
0000
0000
0000
0000
,
0000
0000
0000
0000
,
0000
0000
0000
0000
,
0000
0000
0000
0000
,
1100
0000
1100
1010
0000
1010
1001
0000
,
0101
0000
0101
0011
0000
0011
0101
0000
,
1000
0100
1000
0100
0010
0001
0010
0001
1000
0010
1000
0010
0100
0001
0100
0001
,
1000
0000
1100
1010
0000
1001
0101
0000
,
0001
0100
0001
0100
0010
1000
0010
1000
0100
1000
0100
1000
0001
0010
0001
0010
,
0001
0100
0010
1000
0100
1000
1100
0000
,
1000
0100
1000
0100
1000
0010
1000
0010
0100
0001
0100
0001
0010
0001
0010
0001
,
1000
0100
1000
0010
0100
0000
0001
0000
2002
0000
0000
0000
3113
0000
0000
0000
,
2000
0000
0200
3000
0000
1300
0100
0002
,
0020
0003
0030
0020
0002
0030
0200
0000
,
0003
0000
2300
3200
0020
0300
0000
0230
,
0002
0000
0300
0000
0203
0000
0000
2300
,
0020
3000
0000
0032
0000
0013
1000
0200
,
0020
0000
0300
0031
0020
0000
0200
0000
,
0030
1300
0100
0002
2000
0003
0010
3000
,
0001
0010
0100
1000
0002
0000
0103
0000
,
1000
0100
0010
0002
1000
0003
2000
0000
,
3101
0111
1010
1110
,
0001
0100
0001
0000
0100
0001
0100
0000
0001
0100
0001
0000
0100
0001
0100
0001
,
0100
0010
1000
0100
1000
0010
0100
0001
,
1000
0100
1000
0000
0100
1000
0100
0000
1000
0100
1000
0000
0100
1000
0100
1000
,
0010
0100
0001
1000
0100
0001
0200
0000
,
1300
0010
1000
0000
0010
0100
0010
0000
0100
0001
0100
0000
0001
0010
0001
0010
,
0001
0010
0100
1000
0100
0001
0200
0000
,
0310
1000
0010
0000
0100
0001
0100
0000
0010
1000
0100
1000
0010
1000
0100
0000
,
1000
0010
0001
0010
0100
0001
0100
0010
,
0110
0000
1010
0100
1100
0000
1100
0010
,
0101
0000
0010
0010
0010
0010
0010
0010
,
1100
0000
0010
0100
0011
0000
0100
1000
,
1010
0000
0100
0001
0010
0001
0100
0010
,
1100
0000
0010
0100
0011
0000
0100
0010
,
1100
0000
0010
0100
0001
1000
0100
0000
,
1000
0100
0010
0001
1000
0100
0010
0001
1000
0100
0010
0001
1000
0100
0010
0001
,
1000
0010
0100
0001
1000
0010
0100
0001
1000
0010
0100
0001
1000
0010
0100
0001
,
1000
0000
0100
1000
0100
0000
0010
0001
0010
0000
0001
0000
0010
0000
0100
0000
,
1000
0000
0010
0100
0010
0000
0100
0010
1000
0000
0001
0000
0100
0000
0010
0000
,
1000
0000
0100
0010
0001
0000
0010
0100
1000
0000
0010
0000
0100
0000
0001
0000
,
1000
0000
0100
0010
0001
0000
0010
0100
1000
0001
0100
0010
0110
0000
1000
0000
,
0001
0000
0010
0001
0010
0000
0100
1000
0100
0000
1000
0000
0100
0000
0010
0000
,
0001
0000
0100
0010
0100
0000
0010
0100
0001
0000
1000
0000
0010
0000
0100
0000
,
0001
0010
0100
1000
0100
0010
0001
1000
0010
0100
0001
0100
0010
1000
0010
0100
,
0001
0100
0001
1000
0100
1000
0010
0000
0100
0000
0001
1000
0001
0000
1000
0000
,
0001
0100
0010
0100
0001
0100
0010
0000
0100
1000
0100
0010
0100
0000
0001
0100
,
0010
0100
1000
0100
0010
0100
1000
0000
0100
0010
1000
0100
0010
0000
0100
0010
,
0001
0010
0100
0010
0100
0010
1000
0000
0010
0100
0001
0100
0010
0000
1000
0010
,
1000
0010
0100
0001
1000
0000
0100
1000
0010
0100
0001
1000
0100
0010
0001
0100
,
0010
0100
0010
0100
1000
0100
0010
0000
0100
0001
0100
0010
1000
0000
0100
1000
,
0010
0000
0100
0001
1000
0000
0100
0010
0100
0010
0001
0010
0100
0010
0100
0000
,
0010
0100
1000
0001
0010
0100
0010
0000
0001
1000
0100
0010
0100
0000
1000
0001
,
0100
0010
1000
0001
0100
0010
1000
0000
0001
0100
0010
1000
0100
0000
1000
0100
,
2200
0000
3301
0000
0000
0002
0200
0010
,
1313
0000
0000
2000
0200
0000
3311
0000
,
0000
0002
0200
0010
1303
0000
0000
1000
,
0002
0000
0000
0000
1013
0000
0000
0001
,
2000
0000
0000
3011
0000
0200
0010
0010
,
1301
0000
0000
1000
0202
0000
1313
0000
,
0000
1000
0100
0010
0001
0000
1000
0000
,
0100
0000
1000
0010
0100
0000
0001
0100
,
0010
1000
0100
1000
0010
0100
0001
1000
,
0010
0100
0001
0100
0010
1000
0100
1000
,
1100
0000
1010
1001
0000
0101
0011
0000
,
1001
0000
1010
0110
0000
0101
0022
0000
,
1100
0033
0000
0000
0000
0000
0000
0000
;

//---------------dance-single - Renard----------------
#NOTES:
     dance-single:
     Renard:
     Hard:
     8:
     0.580,0.620,0.465,0.030,0.000:
0000
0000
0000
0000
,
0000
0000
0000
0000
,
0000
0000
0000
0000
,
0000
0000
0000
0000
,
1000
0000
0001
0000
0100
0000
0001
1000
,
0100
1000
0100
0000
0010
0000
0001
1000
,
0001
0000
0100
0000
0010
0000
1000
0100
,
1000
0100
0010
0000
0001
0000
1000
0001
,
1001
0000
1010
0000
0101
0000
0001
0010
,
0100
0000
1100
0000
0110
0010
0011
0000
,
1001
0000
1010
0000
0110
0100
0101
0000
,
0101
1001
1001
1010
,
0101
0000
0001
0000
0000
0100
1000
0100
,
0001
0000
0000
0001
0010
0000
1010
0000
,
0000
1000
0010
0001
0100
0000
0000
0001
,
0100
0000
0000
0000
1100
0000
0000
1000
,
0100
0000
0100
0001
0000
0001
0010
1000
,
0010
0100
1000
0100
0001
0100
1000
0000
,
1000
0100
0001
0100
1000
0000
1000
0100
,
0010
0001
0010
0000
0010
0001
0010
1000
,
0010
0100
0010
0100
1000
0000
1000
0100
,
1000
1010
0101
0011
,
0001
1000
0100
0000
1100
0010
0100
0000
,
0001
0000
0101
0000
0001
1000
1010
0000
,
1000
0100
1000
0010
0100
0001
0010
0000
,
0001
1000
0100
1000
0010
0000
1001
0000
,
1001
0000
0100
1000
0010
0000
0010
0100
,
0001
0011
1001
1100
,
1001
0000
1000
0100
0010
0001
0010
0100
,
1000
0010
0100
0001
1000
0100
1000
0001
,
1000
0000
1000
0001
0100
0000
0100
1000
,
0100
0000
0100
0010
1000
0010
0001
0010
,
1000
0000
1000
0010
0100
0000
0100
0001
,
0100
0000
0100
1000
0100
0010
0100
1000
,
0100
0000
0100
0001
0010
0000
0010
0100
,
0010
1000
0010
0001
0010
0100
0010
1000
,
0020
0000
0032
0000
,
2003
0000
0010
3010
,
0010
1000
0001
1000
0100
0010
0001
0010
,
0100
0100
1000
0100
0010
0010
1001
0000
,
0001
0001
0010
0010
0001
0100
0001
0010
,
0001
1000
0001
0100
0001
0010
0100
1000
,
0010
0000
0010
1000
0100
0000
0100
0010
,
0001
0000
0001
0100
1000
0100
0001
0010
,
1000
0000
1000
0010
0100
1000
0100
0001
,
0100
0000
1000
0000
0010
0100
0001
0100
,
0110
1010
0110
0101
,
0001
0100
1000
0100
0001
0000
0010
0100
,
1000
0100
0001
0000
1100
0000
0101
0000
,
0100
1000
0010
0001
0010
1000
0010
0000
,
0101
0000
1100
0000
1000
0100
0001
0010
,
1000
0010
1000
0000
1010
0000
0011
0000
,
0110
0000
0100
1000
0100
0001
0100
0000
,
0100
1000
0010
0000
0010
0001
0010
1000
,
0010
0000
1010
0000
0000
1000
0010
0001
,
0010
0000
0000
0010
0100
0000
1100
0000
,
0000
1000
0100
0001
0100
0000
0000
0100
,
0001
0000
0000
0000
0110
0000
0000
0010
,
1000
0010
0001
0010
1000
0010
0100
0001
,
0100
0000
0000
0001
0100
0000
1100
0000
,
0000
1000
0100
0010
1000
0000
1010
0000
,
1000
0100
0010
0001
0010
0000
0001
0010
,
0100
1000
0100
0000
0100
1000
0010
0100
,
0001
0000
0001
1000
0000
1000
0100
1000
,
0010
0000
0010
0100
0000
0100
0001
0010
,
0100
0000
0100
1000
0000
1000
0010
0100
,
1001
0000
0000
0000
;

//---------------dance-single - Renard----------------
#NOTES:
     dance-single:
     Renard:
     Medium:
     6:
     0.344,0.489,0.099,0.069,0.000:
0000
0000
0000
0000
,
0000
0000
0000
0000
,
0000
0000
0000
0000
,
1000
0000
0000
0000
,
1000
0000
0000
0001
0000
0000
0100
0000
,
0010
0000
0000
1000
0000
0000
0100
0000
,
0010
0000
0000
0001
0000
0000
0100
0000
,
0010
0000
0000
1000
0000
0000
0100
0000
,
1000
1000
1000
1000
,
0001
0001
0001
0001
,
0100
0000
0100
0000
0010
0100
0010
0000
,
1000
0010
1000
0001
1000
0000
1001
0000
,
1000
0000
0001
0000
0000
0000
0100
0010
,
1000
0000
0100
0010
,
0000
0000
0001
1000
0001
0000
0000
0000
,
0100
0200
0000
0000
0320
0000
0000
0000
,
1030
0000
0000
0010
0000
0000
0100
0000
,
0001
0000
1000
0100
,
0000
0010
0001
0000
,
0100
0000
0010
0000
,
1000
0100
0010
0001
,
1000
0000
0001
0100
0001
0000
1000
0100
,
1000
0000
0000
0001
0000
0000
0100
0000
,
0010
0010
1000
0000
,
0100
0000
0000
0010
0000
0000
0001
0000
,
1000
0000
0000
0010
0000
0000
0100
0000
,
0001
0000
0001
1000
0000
1000
0001
0000
,
0100
0000
0100
0010
0000
0010
1000
0000
,
0001
0000
0100
0001
,
1000
0000
0000
0000
0100
0000
0010
0001
,
1000
0000
0001
0000
,
0100
0000
0010
0010
0010
0000
0000
0000
,
1000
0000
0001
0000
,
1000
0000
0100
0100
0100
0000
0000
0000
,
0010
0000
0001
0000
,
1000
0000
0010
0010
0010
0000
0000
0000
,
0100
0200
0000
0000
0302
0000
0000
0000
,
2003
0000
0000
0000
,
3100
0100
0010
0010
,
0001
0000
1000
1000
1000
0000
0000
0000
,
0001
0001
0100
0100
,
0010
0000
0010
0000
1000
1000
1000
0000
,
0100
1000
0010
0100
,
0001
0000
1000
0000
0001
0001
0001
0000
,
0100
0000
0010
0000
,
2000
0000
0002
3003
,
1000
0001
1000
0001
1000
0000
0000
0000
,
0001
0000
1000
0001
1000
0000
1001
0000
,
0001
0000
1000
0001
1000
0000
1001
0000
,
1000
0000
0001
1000
0001
1000
0001
0000
,
0100
0000
0010
0100
0010
0000
0110
0000
,
0100
0000
0010
0100
0010
0100
0010
0000
,
0100
0000
0010
0100
0010
0000
0110
0000
,
1010
1001
0101
1001
,
1000
0000
0100
0000
0000
0010
0001
0010
,
0100
0000
1000
0010
,
0000
0000
0100
0001
0100
0000
0000
0010
,
1000
0000
0100
0000
,
0010
0000
0000
0001
0000
0000
0100
0000
,
0010
0000
1000
0100
,
0000
0000
0010
0001
0010
0000
0100
0000
,
1000
0000
0010
0000
,
0100
0001
0100
0010
,
1000
0000
0000
0001
0000
0000
0100
0000
,
0010
0000
0000
1000
0000
0000
0100
0000
,
0010
0000
0000
0001
0000
0000
1000
0000
,
1001
0000
0000
0000
;

//---------------dance-single - Renard----------------
#NOTES:
     dance-single:
     Renard:
     Easy:
     4:
     0.336,0.489,0.346,0.069,0.000: // measure 1
0000
0000
0000
0000
,  // measure 2
0000
0000
0000
0000
,  // measure 3
0000
0000
0000
0000
,  // measure 4
0001
0000
0000
0000
,  // measure 5
0001
0000
1000
0010
,  // measure 6
0100
0000
0001
0010
,  // measure 7
0100
0000
1000
0010
,  // measure 8
0100
0000
0001
0010
,  // measure 9
0001
0001
0001
0001
,  // measure 10
1000
1000
1000
1000
,  // measure 11
0010
0010
0100
0110
,  // measure 12
0001
0101
1001
1001
,  // measure 13
0001
1000
0000
0010
,  // measure 14
0101
0000
0010
0100
,  // measure 15
0000
1000
1001
0000
,  // measure 16
0010
0020
0230
0000
,  // measure 17
0301
0000
0100
0010
,  // measure 18
1000
0000
0001
0010
,  // measure 19
0000
0100
1000
0000
,  // measure 20
0010
0000
0100
0000
,  // measure 21
0001
0010
0100
1000
,  // measure 22
0001
1000
1010
0001
,  // measure 23
0011
0000
1000
0010
,  // measure 24
0100
0100
0001
0000
,  // measure 25
0010
0000
0100
1000
,  // measure 26
0001
0000
0100
0010
,  // measure 27
1000
1000
0001
1001
,  // measure 28
0010
0010
0100
0101
,  // measure 29
1000
0000
0010
1000
,  // measure 30
0001
0000
0010
0100
,  // measure 31
1001
0000
1000
0000
,  // measure 32
0010
0100
0100
0000
,  // measure 33
0001
0000
1000
0000
,  // measure 34
0001
0010
0010
0000
,  // measure 35
0100
0000
1000
0000
,  // measure 36
0001
0100
0100
0000
,  // measure 37
0010
0020
2030
0000
,  // measure 38
3002
0000
0000
0000
,  // measure 39
0013
0010
0100
0100
,  // measure 40
1000
0001
0001
0000
,  // measure 41
1000
1000
0010
0010
,  // measure 42
0100
0100
0001
0001
,  // measure 43
0010
0001
0100
0010
,  // measure 44
1000
0001
1000
1000
,  // measure 45
0010
0000
0100
0000
,  // measure 46
0002
0000
2000
3003
,  // measure 47
0001
1001
1001
0000
,  // measure 48
1000
0001
1001
1001
,  // measure 49
1000
0001
1001
1001
,  // measure 50
0001
1000
1001
1001
,  // measure 51
0010
0100
0110
0110
,  // measure 52
0010
0100
0110
0110
,  // measure 53
0010
0100
0110
0110
,  // measure 54
0101
1001
1010
1001
,  // measure 55
0001
0010
0000
1100
,  // measure 56
0110
0000
0001
0100
,  // measure 57
0000
0010
1010
0000
,  // measure 58
0101
0000
0010
0000
,  // measure 59
0100
0000
1000
0010
,  // measure 60
0100
0000
0001
0010
,  // measure 61
0000
0100
1100
0010
,  // measure 62
0001
0000
0100
0000
,  // measure 63
0010
1000
0010
0100
,  // measure 64
0001
0000
1000
0010
,  // measure 65
0100
0000
0001
0010
,  // measure 66
0100
0000
1000
0001
,  // measure 67
1001
0000
0000
0000
;
