#TITLE:Hardhouse Raver (MGD Edit);
#SUBTITLE:;
#ARTIST:Yoji Biomehanika;
#GENRE:Hardhouse Rave;
#TITLETRANSLIT:;
#SUBTITLETRANSLIT:;
#ARTISTTRANSLIT:;
#CREDIT:;
#BANNER:raver.png;
#BACKGROUND:raver-bg.png;
#LYRICSPATH:;
#CDTITLE:;
#MUSIC:raver.mp3;
#OFFSET:-0.020;
#SAMPLESTART:26.482;
#SAMPLELENGTH:13.314;
#SELECTABLE:YES;
#BPMS:0.000=150.000;
#STOPS:;
#BGCHANGES:;

//---------------dance-single - Renard----------------
#NOTES:
     dance-single:
     Renard:
     Hard:
     9:
     0.485,0.613,0.253,0.029,0.160:
0000
0000
0000
0000
,
0000
0000
0000
0000
,
0000
0000
0000
0000
,
0000
0000
0000
0000
,
1000
1000
0001
0001
,
0010
0001
0010
0001
,
1000
0100
1000
0100
,
1000
0100
0010
0001
,
0110
0110
1001
1001
,
1010
0000
0000
0011
0000
0000
1100
0000
0000
0101
0000
0000
1001
0000
0000
0000
,
1000
0000
1000
0001
0000
0001
0100
0000
0010
0000
0000
0000
1000
0000
0000
0000
,
1000
0100
1000
0010
1000
0100
1000
0010
,
1000
0001
0010
0100
,
1000
0001
0010
0001
1000
0001
0010
0001
,
1000
0000
1000
0001
0000
0001
0100
0000
0010
0000
0000
0000
1000
0000
0000
0000
,
1000
0100
1000
0010
1000
0100
1000
0010
,
1000
0001
0010
0100
,
1000
0000
0001
0000
0100
0000
0001
0000
1000
0100
0010
0000
0010
0000
0100
0000
,
0110
0000
0110
0000
,
1001
0000
1001
0000
,
1010
0000
0011
0000
,
0101
0000
1100
0000
,
1100
0100
0101
0001
,
0011
0010
1010
1000
,
1100
0100
0101
0001
,
0011
0010
1010
1000
,
1000
0000
0001
0100
0001
0000
0010
0000
,
1000
0000
0001
0000
0010
0010
0000
0010
,
1000
0000
0001
0000
,
0010
0000
0010
0000
0100
0100
0000
0100
,
1000
1000
0001
0001
,
0100
0100
0010
0010
,
1000
0100
1000
0100
0010
0001
0010
0001
,
1000
0000
0010
0000
1000
0000
0010
0000
0100
0001
0100
0001
0100
0001
0100
0001
,
0020
0000
0000
0030
,
1000
0000
0001
0000
0100
0010
0000
1000
0001
0000
0001
0000
0100
0000
0010
1000
,
0010
0000
0010
0000
0100
0001
0000
0001
1000
0000
0010
0000
0100
0000
0001
1000
,
0100
0000
0001
0000
0010
0001
0000
1000
0010
0000
0100
0000
0001
0000
1000
0100
,
1000
0000
0100
0000
0001
0100
0000
1000
0100
0000
0001
0000
0100
0000
1000
0100
,
1000
0000
0001
0000
0100
0010
0000
1000
0001
0000
0001
0000
0100
0000
0010
1000
,
0010
0000
0010
0000
0100
0001
0000
0001
1000
0000
0010
0000
0100
0000
0001
1000
,
0001
0001
1000
1000
,
0100
0010
0001
0100
0010
1000
0100
0000
,
1000
1000
0001
0001
,
0100
0100
0010
0010
,
1000
1000
0100
0100
,
0010
0010
0001
0001
,
1000
1000
0001
0001
,
0100
0100
0010
0010
,
1000
1000
0100
0100
,
0010
0010
0001
0001
,
1000
0100
0001
0100
1000
0100
0001
0000
,
1000
0010
0001
0010
1000
0010
0001
0000
,
1000
0010
0010
0100
0001
1000
0100
0010
,
0001
1000
0100
0010
0100
1000
0001
0100
,
1000
1000
0010
0010
1000
1000
0010
0010
,
0100
0100
0001
0001
0100
0100
0001
0001
,
1000
0001
1000
0001
1000
0001
1000
0001
,
1000
0001
1000
0000
0001
1000
0001
0000
1000
0001
1000
0000
0001
1000
0001
0000
,
2002
0000
0000
0000
,
3003
0000
0000
0000
;

//---------------dance-single - Renard----------------
#NOTES:
     dance-single:
     Renard:
     Easy:
     4:
     0.299,0.344,0.126,0.000,0.000:
0000
0000
0000
0000
,
0000
0000
0000
0000
,
0000
0000
0000
0000
,
0000
0000
0000
0000
,
1000
1000
0001
0100
,
0001
1000
0001
0100
,
0001
1000
0000
0000
0001
0000
0100
0000
,
0001
1000
0100
0010
,
0011
0000
1100
0000
,
1010
0000
0101
0000
,
0001
1000
0001
0100
,
0001
1000
0001
0100
,
0001
1000
0001
0100
,
0001
1000
0001
0001
,
1000
0001
1000
0100
,
1000
0001
1000
0100
,
1000
0001
1000
0001
,
1000
0000
0000
0001
1000
0000
0000
1000
,
0001
0000
0100
0000
,
0010
0000
1000
0000
,
0100
0000
0001
0000
,
0010
0000
1000
0000
,
0101
0000
0011
0000
,
1010
0000
1100
0000
,
0101
0000
0011
0000
,
1010
0000
0000
0000
1100
0000
0000
1000
,
0010
0000
0100
0000
0001
1000
0000
0000
,
0001
0000
1000
0000
0010
0010
0000
0000
,
0100
0000
0000
0000
0001
1000
0000
0000
,
0001
0000
0100
0000
0010
0010
0000
0000
,
1000
1000
1000
1000
,
0001
0001
0001
0001
,
0100
0010
1000
0001
,
0100
0000
0001
0000
1000
0000
0100
1000
,
0100
0000
0000
0000
,
1000
0001
0100
0100
,
0001
1000
0100
0100
,
1000
0001
0100
0100
,
0001
0000
1000
0000
0100
0100
0100
0000
,
1000
0001
0100
0100
,
0001
1000
0100
0100
,
1000
1000
0001
0001
,
0010
0001
1000
0010
1000
0001
0010
0000
,
0001
0001
0001
0001
,
1000
1000
1000
1000
,
0001
0001
0001
0001
,
0001
0001
0001
0001
,
1000
1000
1000
1000
,
0001
0001
0001
0001
,
1000
1000
1000
1000
,
1000
1000
1000
1000
,
0010
0100
0001
0001
,
0100
0010
1000
1000
,
0010
0100
0001
0001
,
1000
0100
0010
0010
,
0001
0000
0010
0001
0010
0000
0000
0000
,
0100
1000
0100
0000
,
1000
0000
0001
1000
0001
0000
0000
0000
,
0100
0001
1000
0001
,
1001
0000
0000
0000
;

//---------------dance-single - Renard----------------
#NOTES:
     dance-single:
     Renard:
     Medium:
     6:
     0.379,0.459,0.379,0.000,0.000: // measure 1
0000
0000
0000
0000
,  // measure 2
0000
0000
0000
0000
,  // measure 3
0000
0000
0000
0000
,  // measure 4
0000
0000
0000
0000
,  // measure 5
1001
0000
1000
0100
1000
0000
0000
0000
,  // measure 6
1001
0000
0001
0100
0001
0000
0000
0000
,  // measure 7
1001
0000
1000
0010
1000
0000
0000
0000
,  // measure 8
1001
0000
0001
0010
0001
0000
0000
0000
,  // measure 9
1001
1001
1010
1010
,  // measure 10
0101
0000
0000
0101
0000
0000
0110
0000
,  // measure 11
1010
1000
0100
1000
,  // measure 12
0001
0010
0100
1000
,  // measure 13
0100
1000
0010
1000
,  // measure 14
0001
0010
0100
1000
,  // measure 15
0001
0000
1000
0001
1000
0000
0001
0000
,  // measure 16
0100
0100
0010
0010
,  // measure 17
1000
0000
0100
1000
0001
0000
1000
0000
,  // measure 18
0000
0100
1000
0000
0001
0100
0001
0000
,  // measure 19
1001
0000
1100
0000
,  // measure 20
1010
0000
1001
0000
,  // measure 21
1001
0000
0101
0000
,  // measure 22
0011
0000
1001
0000
,  // measure 23
1100
0000
0110
0000
,  // measure 24
0011
0000
0110
0000
,  // measure 25
0101
0000
1100
0000
,  // measure 26
1010
0000
0011
0000
,  // measure 27
1010
0000
1000
0010
0100
0001
0000
0000
,  // measure 28
1001
0000
1000
0000
0100
0100
0000
0100
,  // measure 29
1000
0000
0010
0000
0100
0001
0000
0000
,  // measure 30
1001
0000
1100
0000
0001
1000
0000
0100
,  // measure 31
1000
1000
0010
0010
,  // measure 32
0001
0001
0100
0100
,  // measure 33
1000
1000
0010
0010
,  // measure 34
0001
0001
0100
0100
,  // measure 35
1001
0000
0000
0000
,  // measure 36
1000
0001
0100
0000
0001
1000
0100
0000
,  // measure 37
1000
0001
0010
0100
,  // measure 38
1000
0001
0100
0000
0001
1000
0100
0000
,  // measure 39
1000
0000
0100
0000
0010
0000
0001
1000
,  // measure 40
0001
0000
1000
0100
1000
0000
0001
0100
,  // measure 41
0001
1000
0100
1000
,  // measure 42
1010
0010
0110
0100
,  // measure 43
0101
0000
0000
0110
0000
0000
1100
0000
,  // measure 44
1000
0100
0001
0010
,  // measure 45
0001
0000
0010
0100
0000
0100
1000
0000
,  // measure 46
0010
0100
0001
0100
,  // measure 47
0010
0000
1000
0000
0100
0000
1000
0001
,  // measure 48
0100
0001
0000
0001
1000
0000
1000
0100
,  // measure 49
0000
0100
1000
0000
0010
0000
0100
0000
,  // measure 50
0001
0001
1000
1000
,  // measure 51
0100
0000
1000
0000
0001
0100
0001
0000
,  // measure 52
1100
0000
1000
0100
0000
0100
0010
0000
,  // measure 53
0010
0001
0000
0001
0010
0000
0001
0000
,  // measure 54
1000
0000
1000
0001
0000
0001
0100
0000
,  // measure 55
0100
0001
0000
0001
1000
0000
0100
0000
,  // measure 56
1000
0001
1000
0000
0001
1000
0001
0000
,  // measure 57
1000
0010
1000
0000
1000
0100
1000
0000
,  // measure 58
1000
0001
1000
0001
1000
0001
1000
0001
,  // measure 59
0010
0001
0100
0001
1000
0001
1000
0001
,  // measure 60
1000
0000
0000
0000
;
