#TITLE:Hardcore Cleaning Sensation;
#SUBTITLE:;
#ARTIST:JAKAZiD;
#TITLETRANSLIT:;
#SUBTITLETRANSLIT:;
#ARTISTTRANSLIT:;
#CREDIT:;
#BANNER:hardcore.img;
#BACKGROUND:hardcore-bg.img;
#LYRICSPATH:;
#CDTITLE:;
#MUSIC:Hardcore.ogg;
#OFFSET:-1.292;
#SAMPLESTART:11.298;
#SAMPLELENGTH:12.000;
#SELECTABLE:YES;
#BPMS:0.000=190.000;
#STOPS:;
#BGCHANGES:;
#GENRE:Commercial;

//---------------dance-single - Renard----------------
#NOTES:
     dance-single:
     Renard:
     Hard:
     8:
     0.706,0.709,0.531,0.328,0.034:
0000
0000
0000
0000
,
0000
0000
0000
0000
,
1000
0001
0100
0010
,
1000
0100
0010
0001
,
1001
0000
0010
0000
1000
0001
0100
0000
,
0010
0000
1000
0100
0010
0000
0001
0000
,
0010
0100
1000
0000
0001
1000
0100
0000
,
2200
0000
0011
3311
,
2100
3010
0102
0013
,
1000
0100
0000
0000
0100
0010
0000
0000
0010
0001
0000
0000
0011
0000
0000
0000
,
0021
0130
2100
3010
,
1000
0001
1000
0000
0202
0000
1313
0000
,
0012
0103
2010
3100
,
0001
0010
0000
0000
0010
0100
0000
0000
0100
1000
0000
0000
1100
0000
0000
0000
,
1200
0310
0012
0103
,
1000
0100
0010
0001
1100
0000
0011
0000
,
1000
0100
1000
0100
0010
0100
0010
0100
,
0010
0001
0010
0001
0100
0001
0100
0001
,
0100
0010
0100
0010
1000
0010
1000
0010
,
1000
0100
1000
0100
1100
0000
0011
0000
,
0001
0100
0001
0100
0010
0100
0010
0100
,
0010
1000
0010
1000
0100
1000
0100
1000
,
0001
0010
0100
1000
0010
0100
0001
0000
,
0001
0100
0001
0000
1000
0100
1000
0000
,
0111
0000
0000
0000
0001
0010
0001
0000
,
1110
0000
0000
0000
0100
1000
0100
0000
,
1011
0000
0000
0000
0010
0100
0010
0000
,
1101
0000
0000
0000
0010
1000
0001
0000
,
1002
0103
0012
0103
,
0120
1030
2100
3010
,
0210
0301
0012
1003
,
0022
0000
1000
0133
,
0001
0000
0010
0001
0000
0100
0010
1000
,
0100
0000
1000
0010
0000
0100
0001
0000
,
0100
0000
0010
1000
0000
0100
0010
0001
,
0010
0000
0100
1000
0000
0010
0100
0000
,
0001
0000
0010
0001
0000
0100
0010
1000
,
0100
0000
1000
0010
0000
0100
0001
0000
,
0100
0000
0010
1000
0000
0100
0010
0001
,
0010
0000
0100
1000
0000
0010
0100
0010
,
1000
0000
1010
0000
0010
0100
0101
0000
,
0100
0000
0011
0000
1000
0010
1100
0000
,
1000
0000
0101
0000
0010
1000
0101
0000
,
1000
0100
0010
0100
1000
0000
1001
0000
,
0001
0100
0010
1000
0100
1000
0010
0000
,
0100
0001
0100
0010
1000
0100
0010
0000
,
0001
0010
0100
0000
1000
0100
0010
0000
,
0100
0001
0100
0010
1000
0100
0010
0100
,
1000
0100
0010
0001
0010
0100
1000
0100
,
0010
0001
0010
0100
1000
0010
0100
0000
,
0010
1000
0001
0100
0010
1000
0100
0010
,
0001
0100
0010
1000
0100
0010
0001
0000
,
1000
0100
0010
0100
1000
0001
0010
0001
,
1000
0100
0010
0100
1000
0001
0010
0000
,
0001
0010
0100
0010
0001
1000
0100
1000
,
0001
0010
0100
0010
0001
0000
1001
0000
,
2100
0000
3010
0000
0001
0100
0010
0000
,
0102
0000
0013
0000
0001
0100
0010
1000
,
2010
0000
3100
0000
0010
0100
0001
0000
,
0012
0000
0103
0000
0001
1000
0100
1000
,
2100
0000
3010
0000
0001
0100
0010
0000
,
0102
0000
0013
0000
0001
0100
0010
1000
,
2010
0000
3100
0000
0010
0100
0001
0000
,
1000
0010
0001
0010
1000
0100
0001
0000
,
2002
0000
0000
0000
,
0000
0000
0000
0000
,
3003
0000
0000
0000
;

//---------------dance-single - Renard----------------
#NOTES:
     dance-single:
     Renard:
     Challenge:
     10:
     0.802,0.895,0.509,0.203,0.322: // measure 1
0000
0000
0000
0000
,  // measure 2
0000
0000
0000
0000
,  // measure 3
0000
0000
0000
0000
,  // measure 4
0000
0000
0000
0000
,  // measure 5
1000
0000
0001
1000
0010
0000
0100
0000
,  // measure 6
0001
1000
0100
0010
0100
0000
1000
0000
,  // measure 7
0001
0000
0100
0010
1000
0000
0001
0000
,  // measure 8
0220
0000
0000
0000
0001
000M
1330
1000
,  // measure 9
1000
0100
0000
0000
1100
0000
MM00
0000
0010
0001
0000
0000
0011
0000
00MM
0000
,  // measure 10
1000
0010
0000
0000
0010
0100
0000
0000
0100
0001
0000
0000
0101
0000
0M0M
0000
,  // measure 11
0010
1000
0000
0000
1010
0000
M0M0
0000
1000
0100
0000
0000
1100
0000
MM00
0000
,  // measure 12
0010
0001
1000
0000
2200
0000
3311
00MM
,  // measure 13
0001
0010
0000
0000
0011
0000
00MM
0000
0100
1000
0000
0000
1100
0000
MM00
0000
,  // measure 14
0001
0100
0000
0000
0100
0010
0000
0000
0010
1000
0000
0000
1010
0000
M0M0
0000
,  // measure 15
0100
0001
0000
0000
0101
0000
0M0M
0000
0001
0010
0000
0000
0011
0000
00MM
0000
,  // measure 16
1000
1000
1000
1000
2200
0000
3311
00MM
,  // measure 17
1000
0100
0010
0001
0010
0100
1000
0010
,  // measure 18
0100
0001
0100
0010
1000
0100
0010
0000
,  // measure 19
0001
0010
0100
1000
0010
0100
0001
1000
,  // measure 20
0010
0000
0010
0100
0000
0100
0001
0000
1000
0000
0010
0000
0100
0000
0001
0000
,  // measure 21
0100
0010
1000
0100
0010
0001
0100
0010
,  // measure 22
1000
0100
0010
0001
0100
0010
1000
0000
,  // measure 23
0001
0100
0010
1000
0100
1000
0010
0100
,  // measure 24
0001
0010
0100
1000
0001
0100
0001
0000
,  // measure 25
2010
0000
3100
0M00
0102
0000
0013
00M0
,  // measure 26
1000
0100
0010
0001
0010
0100
1000
0000
,  // measure 27
0102
0000
0013
00M0
2100
0000
3010
00M0
,  // measure 28
0010
1000
0100
0010
0001
0010
0100
0000
,  // measure 29
2010
0000
3100
0M00
0102
0000
0013
00M0
,  // measure 30
0001
0100
0010
1000
0100
0010
0100
0000
,  // measure 31
1000
0000
0100
0000
0010
0000
0100
0000
1000
0000
0100
0000
1000
0100
1000
0000
,  // measure 32
0012
0000
0000
0000
0200
0000
1313
M0M0
,  // measure 33
0001
0100
0001
0100
0001
0100
0001
0100
,  // measure 34
0010
1000
0010
1000
0100
0010
0001
0000
,  // measure 35
1000
0100
1000
0100
1000
0100
1000
0100
,  // measure 36
0010
0001
0010
0001
1000
0010
0100
0000
,  // measure 37
0010
0100
0010
0100
0010
0100
0010
0100
,  // measure 38
0010
1000
0001
0100
0010
1000
0100
0000
,  // measure 39
0010
0001
0010
0001
1000
0100
1000
0100
,  // measure 40
1000
1010
1001
0101
,  // measure 41
0101
0010
1000
0100
1000
0101
0000
0M0M
,  // measure 42
1010
0100
0001
0010
0100
1010
0000
M0M0
,  // measure 43
1010
0001
0100
0010
0101
0010
1000
0100
,  // measure 44
1010
0000
0000
1000
0001
0000
0010
0000
0100
0000
0100
0000
1100
0000
0000
0000
,  // measure 45
1010
0100
0001
0010
0001
1010
0000
M0M0
,  // measure 46
0101
0010
1000
0100
0010
0101
0000
0M0M
,  // measure 47
0101
1000
0010
0100
1010
0100
0001
0010
,  // measure 48
0202
0000
0000
0000
1010
M0M0
1313
M0M0
,  // measure 49
0001
0100
0010
1000
0100
0010
0001
0010
,  // measure 50
0100
1000
0010
0100
0001
1000
0100
0010
,  // measure 51
0001
0100
0010
1000
0100
1000
0001
0010
,  // measure 52
0001
0100
0010
1000
0100
1000
0010
0100
,  // measure 53
0001
0100
0010
1000
0100
0010
0100
1000
,  // measure 54
0001
0010
0001
1000
0010
0100
0001
1000
,  // measure 55
0010
0100
0001
1000
0100
0010
0100
1000
,  // measure 56
0001
0010
0100
1000
0001
0000
1001
0000
,  // measure 57
0001
0000
0001
0100
0000
0100
0010
0000
0010
1000
0000
1000
0100
0000
0010
0001
,  // measure 58
1000
0000
1000
0100
0000
0100
0010
0000
0010
0001
0000
0001
1000
0000
0010
0100
,  // measure 59
0001
0000
0001
0100
0000
0100
0010
0000
0010
1000
0000
1000
0100
0000
0010
0001
,  // measure 60
0100
0000
0100
0010
0000
0010
1000
0000
1000
0100
0000
0100
0010
0000
0001
0100
,  // measure 61
0010
0000
0010
1000
0000
1000
0100
0000
0100
0010
0000
0010
0001
0000
1000
0100
,  // measure 62
0010
0000
0010
0100
0000
0100
1000
0000
1000
0010
0000
0010
0100
0000
0001
0100
,  // measure 63
0010
0000
0010
1000
0000
1000
0100
0000
0100
0010
0000
0010
0001
0000
0100
0010
,  // measure 64
0100
0000
0100
0010
0000
0010
1000
0000
1000
0100
0000
0100
1000
0000
MMMM
0000
,  // measure 65
1221
0000
0000
0000
,  // measure 66
0000
0000
0000
0000
,  // measure 67
0330
0000
0000
0000
;

//---------------dance-single - Renard----------------
#NOTES:
     dance-single:
     Renard:
     Medium:
     6:
     0.523,0.651,1.000,0.068,0.000:
0000
0000
0000
0000
,
0000
0000
0000
0000
,
0000
0000
0000
0000
,
0000
0000
0000
0000
,
1010
1001
1100
1010
,
1001
1100
1010
0000
,
1001
0110
1001
0110
,
2002
0000
0010
3103
,
0001
1000
0010
0100
,
0011
0101
1001
0000
,
0100
1000
0010
0100
,
0001
1000
1010
1100
,
0001
1000
0010
0100
,
0011
0101
1001
0010
,
1000
0100
1000
0010
,
0100
0001
0100
0101
,
0001
0100
0010
1000
,
0100
0010
0110
0000
,
0100
1000
0010
0100
,
1001
0000
1010
0000
,
0001
0100
0010
1000
,
0100
0010
0010
0001
,
0010
0100
1000
0010
,
0100
0001
1000
0010
,
0101
0010
1010
0100
,
1100
1010
0101
0001
,
0011
0001
0110
0010
,
1100
1010
1001
0001
,
0110
0001
1010
0100
,
1001
0110
1001
0010
,
0101
0000
1010
0000
,
2200
0000
0001
3301
,
0001
0100
0001
0100
,
1000
0100
1000
0100
,
0010
1000
0010
1000
,
0010
0001
0010
0001
,
0100
0010
1000
0100
,
0010
0001
0010
0100
,
1000
0010
0100
0001
,
0010
0001
0100
0010
,
0010
1000
1100
0000
,
0100
1000
1010
0000
,
0110
0101
0110
0101
,
0110
1010
1100
1010
,
0101
0110
1100
0000
,
1100
0110
0101
0000
,
0011
0000
1010
0000
,
0110
0011
0110
0011
,
0001
0010
0100
1000
,
0010
0100
0001
0010
,
0001
0100
0010
1000
,
0100
0010
0001
0010
,
0100
1000
0010
0100
,
0001
0001
0001
0001
,
1000
0010
0100
0001
,
0010
0100
1000
1010
,
1100
1001
1010
1001
,
1100
1100
1100
0001
,
0011
0101
1001
0011
,
0101
0011
0101
0101
,
0110
1100
0110
0101
,
0110
1100
0101
0110
,
0101
1100
0110
0101
,
2020
0000
0001
0001
,
3031
0000
0000
0000
;

//---------------dance-single - Renard----------------
#NOTES:
     dance-single:
     Renard:
     Easy:
     5:
     0.478,0.651,0.791,0.000,0.000:
0000
0000
0000
0000
,
0000
0000
0000
0000
,
0000
0000
0000
0000
,
0000
0000
0000
0000
,
1001
0000
1000
0010
,
0100
0000
0001
0010
,
0100
0000
1000
0000
,
1001
0000
1010
0101
,
1000
0101
1000
0101
,
1000
1000
1000
0101
,
1000
0101
1000
0101
,
1000
1000
1000
0101
,
1000
0101
1000
0101
,
1000
1000
1000
0101
,
1000
0101
1000
0101
,
1000
0101
1000
0101
,
0001
0010
0100
1000
,
0010
0100
0001
0010
,
0100
1000
0010
0100
,
0001
0010
0100
1000
,
0010
0100
0001
1000
,
0100
0010
0001
0100
,
0010
1000
0100
0010
,
0001
1000
0010
0100
,
1001
0010
1001
0100
,
1001
1001
1001
0010
,
0101
1000
1010
1000
,
0101
1010
0101
1000
,
0110
1000
0110
0001
,
0110
0110
0110
1000
,
0110
1001
1010
0101
,
1001
0000
1000
0001
,
1000
0100
1000
0010
,
0100
0000
0001
0000
,
0010
0100
1000
0010
,
0100
0001
1000
0000
,
0010
0100
0001
0010
,
0100
1000
0001
1000
,
0010
0100
0001
0100
,
0001
1000
0100
0000
,
1000
0001
1001
0000
,
0001
1000
1001
0000
,
1000
1010
0001
0101
,
0001
1001
1000
1010
,
0100
0001
0010
0000
,
0100
1000
0010
0000
,
0100
1001
0010
1001
,
1010
0101
0011
1100
,
1000
0001
0010
0001
,
0100
0010
1000
0100
,
0010
0001
0010
0100
,
1000
0010
0100
0001
,
0100
0010
1000
0100
,
1000
0001
0010
0001
,
0100
0010
1000
0001
,
0100
0100
0100
0000
,
0010
1001
0100
1001
,
0010
1001
0100
1001
,
0010
1001
0100
1001
,
0010
1001
0100
1001
,
0010
1001
0100
1001
,
0010
1001
0100
1001
,
1010
0101
0011
1100
,
1010
0101
0011
1100
,
1001
0000
0000
0000
;
