#TITLE:Happy Ride;
#SUBTITLE:;
#ARTIST:Mad Capsule Markets;
#GENRE:Digital Rock;
#TITLETRANSLIT:;
#SUBTITLETRANSLIT:;
#ARTISTTRANSLIT:;
#CREDIT:;
#BANNER:ride.png;
#BACKGROUND:ride-bg.png;
#LYRICSPATH:;
#CDTITLE:;
#MUSIC:ride.ogg;
#OFFSET:-0.000;
#SAMPLESTART:26.182;
#SAMPLELENGTH:12.000;
#SELECTABLE:YES;
#BPMS:0.000=165.000;
#STOPS:;
#BGCHANGES:;

//---------------dance-single - Renard----------------
#NOTES:
     dance-single:
     Renard:
     Challenge:
     9:
     0.691,0.674,0.568,0.018,0.073:
0000
0000
0000
0000
,
0000
0000
0000
1001
,
1010
0000
0100
0001
0010
0100
1000
0000
,
0110
0000
1000
0010
0100
0001
0010
0000
,
1100
0000
0010
0001
1000
0010
0100
0000
,
1001
0000
0100
0010
0100
0000
1001
0000
,
1010
0000
0100
0001
0010
0100
0010
0001
,
1000
0100
0010
0100
1000
0010
0100
0000
,
1001
0000
0100
0010
1000
0001
0100
0010
,
0100
0000
0001
0000
1000
0000
0010
0000
0100
0000
0010
0000
0010
0000
0100
0010
,
1000
1000
0010
0010
0100
0001
0010
0010
,
0100
1000
0010
0010
0100
0001
0010
0010
,
0001
0100
0010
1000
0100
0010
0001
0010
,
0100
1000
0010
0100
0001
0000
0011
0000
,
1100
0000
0010
0010
0100
0001
0100
0010
,
1000
1000
0100
0010
0001
0001
0100
0010
,
1000
1000
0100
0010
0001
0100
0001
1000
,
0100
1000
0010
0100
0001
0100
1001
0000
,
1010
0000
0101
0000
1000
0001
0100
0010
,
1000
0100
0010
0001
0010
0100
1001
0000
,
1010
0000
0101
0000
1000
0010
0100
0001
,
0100
0010
1000
0100
0010
0001
1100
0000
,
0011
0000
1001
0000
1000
0010
0100
0001
,
0010
0001
0100
0010
1000
0100
0011
0000
,
1100
1010
0101
0011
,
1000
0001
0100
0001
1000
0001
1001
0000
,
0220
0000
0000
0000
,
0000
0000
0000
0000
,
0000
0000
0000
0000
,
0000
0000
0330
1010
,
0100
0000
0001
0000
0100
0000
0010
0000
1000
0100
1000
0100
1000
0000
0010
0000
,
0100
0000
0001
0000
0010
0000
0100
0000
1000
0100
1000
0100
1000
0000
0010
0000
,
0100
0000
0001
0000
0100
0000
0001
0000
0010
0001
0010
0001
0010
0000
0001
0000
,
0010
0000
0100
0000
1000
0000
0010
0000
0100
0001
0100
0001
0100
0000
0001
0000
,
1000
0000
0001
0000
0100
0000
0010
0000
1000
0010
1000
0000
0001
0000
0100
0000
,
0010
0000
1000
0000
0100
0000
0010
0000
0001
0010
0001
0000
0010
0000
0100
0000
,
1000
0000
0001
0000
0100
0000
0010
0000
1000
0001
1000
0000
0001
0000
0100
0000
,
0010
0000
1000
0000
0100
0000
0010
0000
0001
0000
1000
0000
1000
0000
0001
0100
,
0001
0001
0100
0010
1000
0001
0000
0110
,
0000
1001
0000
1000
0010
0100
0001
0100
,
0010
1000
0100
0010
1001
1010
0000
0101
,
0000
0011
0000
1100
1001
0000
0110
0000
,
1000
0010
0100
0001
1001
0000
0000
1010
,
0000
0101
0000
1000
0101
0010
1001
0000
,
1000
0010
0100
0001
1001
1010
0000
0101
,
0000
1001
0000
1000
1100
1100
0000
0000
,
1000
1000
0100
0001
0100
0010
0001
0010
,
0100
1000
0100
0001
0100
0010
0001
0001
,
0010
0010
0001
0010
0100
1000
0010
0100
,
0001
0001
0100
1000
0100
0100
1000
0100
,
0001
0010
0100
1000
0100
0100
1000
0100
,
0010
0001
0010
0010
0001
0010
0100
0001
,
0100
0010
0100
1000
0100
0100
1000
0010
,
0100
0000
0001
0000
0100
0000
0010
0000
0100
0000
0010
0000
1000
0001
1000
0001
,
1000
0100
0010
0001
0100
0010
1000
0100
,
1000
0010
0100
0010
0100
0001
0010
0001
,
0100
0010
1000
0100
0010
0001
0100
0001
,
1000
0100
1000
0010
0100
0010
1000
0010
,
0100
0001
0100
0100
0010
1000
0100
0100
,
1000
0010
0100
0100
0001
0010
0100
0100
,
1000
0010
0100
0001
0010
0100
1000
0100
,
0010
0000
0100
0000
0010
0000
0001
0000
0010
0000
0100
0000
1000
0000
0001
1000
,
0001
0000
1010
0000
0101
0000
1000
0001
,
0100
0010
1000
0100
0010
0000
1001
0000
,
1010
0000
0101
0000
1001
0000
1000
0100
,
0010
0001
0010
0100
1000
0000
0110
0000
,
1001
0000
1010
0000
0101
0000
1000
0010
,
0100
0001
0100
0010
1000
0000
1010
0000
,
0101
0000
0011
0000
1100
0000
1000
0001
,
0100
0010
1000
0100
0010
0000
0001
0000
,
1001
0000
0000
0000
;

//---------------dance-single - Renard----------------
#NOTES:
     dance-single:
     Renard:
     Hard:
     8:
     0.601,0.545,0.257,0.000,0.000:
0000
0000
0000
0000
,
0000
0000
0000
0000
,
1000
0000
0001
0000
0100
0001
1000
0100
,
0010
0000
0001
0000
0010
0100
1000
0001
,
0100
0000
0010
0000
1000
0001
0100
0010
,
1000
0000
0100
0000
0001
0100
1000
0010
,
0001
0000
0010
0000
1000
0010
0100
0001
,
0010
0000
0100
0000
1000
0100
0010
0001
,
1000
0000
0010
0000
0001
0010
1000
0010
,
0001
0100
0010
1000
0001
0010
1000
0000
,
0010
0001
0100
0010
1000
0100
1000
0010
,
0100
0000
0001
0100
0010
0000
1000
0100
,
0010
1001
1010
0101
,
1000
0000
0001
0000
0100
0010
1000
0000
,
0100
0000
0010
0001
0100
0010
1000
0100
,
0010
0000
0001
0100
0010
0000
1000
0001
,
0100
0000
0001
1000
0100
1000
0010
0100
,
0001
1000
0010
1001
,
0110
0000
0101
0000
0001
0100
0010
1000
,
0100
0010
0001
0100
0010
1000
0001
0000
,
0101
0000
1010
0000
0100
0001
0010
0100
,
1000
0010
0100
0001
0100
0010
1000
0000
,
0101
0000
1010
0000
1000
0100
1000
0010
,
0100
0001
0010
0001
0100
0010
1000
0000
,
0101
0000
1010
0000
1000
0010
0100
0001
,
0010
0001
0100
0010
1000
0100
0010
0001
,
0010
0001
0010
0001
,
0010
0001
0010
0001
,
0010
0001
0010
0001
,
0010
0001
0010
0001
,
0010
0000
0001
0000
1000
0010
0100
0001
,
0010
0000
0100
0000
1000
0100
0010
0001
,
0010
0000
0100
0000
1000
0100
0001
0100
,
1000
0010
0001
0010
1000
0100
0001
0100
,
1000
0000
0010
0000
0100
0001
0100
0010
,
1000
0000
0010
0000
0100
0001
0100
0010
,
1000
0010
0100
0001
0100
1000
0100
0001
,
0010
1000
0010
0001
0100
0010
1000
0000
,
0001
0100
0010
1000
0100
0000
0100
1000
,
0010
0100
0001
1000
0010
0000
0000
0010
,
0100
0001
0010
0100
1000
0000
1000
0010
,
0100
0001
0010
0100
1000
0000
1000
0001
,
0100
0001
1000
0100
1000
0000
1000
0001
,
0010
0100
1000
0010
0100
0001
0100
1000
,
0100
0001
0010
1000
0010
0001
0100
1000
,
0100
0001
0100
1000
1100
1100
0000
0000
,
0100
0001
0010
0100
1000
0000
1000
0010
,
0100
0001
0010
0100
1000
0000
1000
0010
,
0100
0001
0010
0100
1000
0000
0001
0100
,
0010
0100
0001
0100
0010
0000
0010
0100
,
0001
0010
0100
0001
0100
0010
0001
0100
,
1000
0100
0010
0100
1000
0100
0010
1000
,
0010
0100
1000
0100
0010
1000
0100
0001
,
0100
1000
0010
0100
0001
0010
0100
1000
,
0010
0100
0001
1000
0010
0000
0010
0100
,
0001
0000
0010
0100
1000
0000
1000
0010
,
0100
1001
0110
1001
,
1000
0000
0010
0100
0001
0000
0010
0100
,
1000
0000
0010
0100
0001
0000
0001
0100
,
0010
0000
0010
1000
0100
0000
0100
0010
,
0001
0010
0100
1000
,
0010
0100
0001
0100
0010
1000
0010
0000
,
1001
0000
1010
0000
0001
0100
0001
0010
,
0100
1000
0010
0100
0001
1000
0010
0000
,
0101
0000
0011
0000
0100
1000
0010
0100
,
0001
0010
0001
0100
0010
1000
0010
0000
,
1010
0000
0101
0000
0011
0000
0001
0100
,
0010
1000
0100
0010
0001
0010
0001
0000
,
0011
0000
1100
0000
1010
0000
0001
0100
,
0010
1000
0100
0010
0001
0010
0100
0000
,
1001
0000
0000
0000
;

//---------------dance-single - Renard----------------
#NOTES:
     dance-single:
     Renard:
     Medium:
     7:
     0.461,0.545,0.156,0.009,0.000:
0000
0000
0000
0000
,
0000
0000
0000
0000
,
1001
0100
0001
1000
,
0100
1000
0001
0010
,
0001
1000
0001
0100
,
0001
0000
1000
0100
1000
0100
1000
0000
,
0001
0100
0001
0010
,
0001
1000
0100
0010
,
0001
0010
0100
1000
,
0001
0100
0001
0100
0001
0000
0001
0000
,
1000
0000
0100
1000
0100
0000
1000
0000
,
0001
0000
0001
0100
0001
0000
0001
0000
,
1000
0100
0010
0010
,
0001
0010
0100
0100
,
1000
0000
0001
0100
0001
0000
0001
0000
,
1000
0000
0100
1000
0100
0000
0100
0000
,
1000
0010
0100
0001
,
1000
0100
1000
1010
,
1001
1100
1000
0001
,
0100
0001
0000
0001
0100
0000
0101
0000
,
0011
1001
1000
0001
,
0100
0001
0000
0001
0100
0000
0011
0000
,
1001
1100
1000
0010
,
0100
0001
0000
0001
1000
0000
0100
0000
,
1000
1010
1000
1010
,
1000
1100
1000
1001
,
2000
0000
0000
0000
,
0000
0000
0000
0000
,
0001
0001
0001
0001
,
0001
0000
0001
0000
0001
0000
0001
3000
,
1000
0001
0100
0001
,
1000
0100
0010
0001
,
1000
0100
0010
0001
,
1000
0000
0001
0100
0001
0100
0001
0100
,
0001
1000
0100
0010
,
0001
0010
0100
1000
,
0001
0100
0001
0000
1000
0100
1000
0000
,
0001
0010
0001
0010
0001
0000
0010
0000
,
0001
0001
1000
1000
,
0010
0000
0100
0000
0001
0000
1000
0001
,
0000
0001
0100
0000
0001
0000
1000
0000
,
0100
0000
0010
0000
0001
0000
1000
0001
,
0000
0001
1000
0000
0010
0000
0100
0000
,
0001
0000
0010
0000
0100
0000
1000
0010
,
0000
0010
0100
0000
0001
0000
0010
0000
,
0001
0000
0100
0000
0001
1000
0000
0000
,
0001
0001
1000
1000
,
0010
0100
0001
0001
,
1000
0100
0010
0001
,
0010
0100
1000
1000
,
0001
0100
1001
0001
,
0100
0001
1001
1000
,
0001
0100
0010
1000
,
0001
1000
0001
0000
1001
0000
1000
0000
,
0001
0000
1000
0001
0100
0000
0001
1000
,
0100
0000
0100
1000
0001
0000
0001
0100
,
0001
1000
0100
0010
,
0001
0010
0001
0010
0001
0010
0001
0000
,
0001
0000
0010
0100
1000
0000
0010
0100
,
0001
0000
1000
0100
0010
0000
0001
0010
,
0100
1000
0010
0100
,
0001
1000
0001
1000
0001
1000
0001
0000
,
1000
0100
0010
0001
1000
0100
0010
0001
,
1000
0100
0010
0001
1000
0100
0010
0001
,
1000
0100
0010
0001
1000
0100
0010
0001
,
1000
0100
0010
0001
1000
0100
0010
0001
,
1000
0100
0010
0001
1000
0100
0010
0001
,
1000
0100
0010
0001
1000
0100
0010
0001
,
1000
0100
0010
0001
1000
0100
0010
0001
,
1000
0100
0010
0001
1000
0100
0010
0001
,
1000
0000
0000
0000
;

//---------------dance-single - Renard----------------
#NOTES:
     dance-single:
     Renard:
     Easy:
     5:
     0.369,0.417,0.046,0.000,0.000: // measure 1
0000
0000
0000
0000
,  // measure 2
0000
0000
0000
0000
,  // measure 3
1000
0001
0100
0001
,  // measure 4
1000
0100
1000
0001
,  // measure 5
0100
0001
0010
0001
,  // measure 6
0010
0100
1000
0010
,  // measure 7
0100
0001
0100
0010
,  // measure 8
1000
0001
1000
0100
,  // measure 9
0010
0010
0000
0000
,  // measure 10
0001
0001
0010
0001
,  // measure 11
1000
0000
0000
0001
0100
0000
0000
0000
,  // measure 12
0001
0000
0000
1000
0100
0000
0000
0000
,  // measure 13
1000
1000
0001
0001
,  // measure 14
1000
0001
1000
0001
,  // measure 15
0100
0000
0000
0001
1000
0000
0000
0000
,  // measure 16
0100
0000
0000
1000
0001
0000
0000
0000
,  // measure 17
0100
0001
1000
0100
,  // measure 18
0010
0010
0001
0001
,  // measure 19
0010
0000
0100
1000
0001
0000
0000
0000
,  // measure 20
0100
0001
1000
0000
,  // measure 21
0100
0000
0010
0001
0010
0000
0100
0000
,  // measure 22
1000
0000
0000
1000
0001
0000
0000
0000
,  // measure 23
0100
0000
0001
0000
1000
0100
1000
0000
,  // measure 24
0001
0000
0000
0010
0001
0000
1000
0000
,  // measure 25
0100
0000
1000
0000
0010
0000
0000
0100
,  // measure 26
0001
1000
0000
0001
0100
0000
0001
0000
,  // measure 27
1000
1000
1000
1000
,  // measure 28
1000
1000
1000
1000
,  // measure 29
1000
1000
1000
1000
,  // measure 30
1000
1000
1000
1000
,  // measure 31
1000
0001
0100
0001
,  // measure 32
1000
0000
0100
0000
0010
0010
0001
0000
,  // measure 33
0010
0100
1000
0010
,  // measure 34
0100
0000
0001
0000
0100
0100
0010
0000
,  // measure 35
1000
0100
1000
0001
,  // measure 36
0010
0000
0001
0000
0010
0010
0100
0000
,  // measure 37
1000
0010
0100
0001
,  // measure 38
1000
0000
1000
0000
0001
0001
0001
0000
,  // measure 39
1000
0000
1000
0000
0001
0000
0100
0001
,  // measure 40
0000
0001
1000
0000
0100
0000
0000
0000
,  // measure 41
1000
0000
0010
0000
0100
0000
0000
0001
,  // measure 42
0000
0001
0100
0000
0001
0000
0000
0000
,  // measure 43
1000
0000
0100
0000
1000
0000
0000
0010
,  // measure 44
0000
0010
0100
0000
0001
0000
0000
0000
,  // measure 45
1000
0000
1000
0000
0100
0000
0000
0010
,  // measure 46
0000
0010
0001
0000
1000
0001
0000
0000
,  // measure 47
1000
1000
0001
0000
,  // measure 48
0100
0100
0001
0000
,  // measure 49
0010
0001
0010
0100
,  // measure 50
1000
1100
0011
1100
,  // measure 51
0011
0100
0001
0100
,  // measure 52
0010
1000
0100
0010
,  // measure 53
0100
1000
0010
0100
,  // measure 54
0001
0100
0001
0100
0001
0100
0001
0000
,  // measure 55
0001
1000
0100
1000
,  // measure 56
0001
0100
0001
0010
,  // measure 57
0001
1000
0010
1000
,  // measure 58
0100
0010
0001
0010
,  // measure 59
0100
1000
0010
0100
,  // measure 60
0001
0000
1000
0001
1000
0000
0001
1000
,  // measure 61
0001
1000
0001
0100
,  // measure 62
0001
0010
0100
1000
,  // measure 63
0001
0000
1000
0001
1000
0000
0001
0000
,  // measure 64
0010
0100
1000
0000
,  // measure 65
0001
0000
1000
0001
1000
0000
0100
0000
,  // measure 66
0010
0001
1000
0001
,  // measure 67
1000
0001
1000
0000
0001
0000
0010
0000
,  // measure 68
0100
0000
1000
0000
0001
1000
0001
0000
,  // measure 69
1000
0000
0100
0000
0010
0000
0001
1000
,  // measure 70
0001
1000
1000
0010
,  // measure 71
1001
0000
0000
0000
;
