#TITLE:Half-Spirit;
#SUBTITLE:;
#ARTIST:Sonitus Vir;
#GENRE:Electronic Orchestra;
#TITLETRANSLIT:;
#SUBTITLETRANSLIT:;
#ARTISTTRANSLIT:;
#CREDIT:;
#BANNER:halfspirit.png;
#BACKGROUND:halfspirit-bg.png;
#LYRICSPATH:;
#CDTITLE:;
#MUSIC:halfspirit.mp3;
#OFFSET:-0.000;
#SAMPLESTART:42.572;
#SAMPLELENGTH:12.000;
#SELECTABLE:YES;
#BPMS:0.000=180.100;
#STOPS:;
#BGCHANGES:;

//---------------dance-single - BlueChaos----------------
#NOTES:
     dance-single:
     BlueChaos:
     Challenge:
     12:
     0.930,1.000,0.178,0.710,0.838:
0000
0000
0000
0000
,
0000
0000
0000
0000
,
0000
0000
0000
0000
,
0000
0000
0000
0000
,
1000
0100
0100
1000
0100
0100
1000
0010
,
0010
1000
0020
0000
0001
0000
1000
0000
,
0130
0001
0001
0010
0001
0010
0100
0100
,
1000
0001
0100
0000
0010
1000
0100
0000
,
0011
0000
0001
1000
0100
0010
0001
1000
0100
0010
0001
0100
0010
1000
0010
0100
,
0001
0010
0100
1000
0100
0010
0001
0100
0010
1000
0100
0010
0001
0000
0000
0000
,
0010
1000
0100
0010
0001
0100
0010
0100
0001
0010
0100
0010
0001
0010
0100
1000
,
0100
0010
0100
1000
0010
0100
0001
0100
0010
1000
0001
0100
0001
0000
0000
0000
,
1000
0100
0010
0001
0010
0001
0010
0100
1000
0010
0100
0001
0010
0100
1000
0010
,
0100
0001
0010
0100
0010
0001
0100
0010
0100
0010
1000
0100
0010
0000
0000
0000
,
0001
1000
0010
0100
0001
0100
0010
1000
0100
0010
0100
0010
0001
0010
0001
0100
,
0010
1000
0100
1000
0010
0100
0001
0010
0100
1000
0010
0100
0001
0000
0000
0000
,
0002
0000
0200
0003
2000
0300
0000
0000
0000
0000
3200
0000
0302
0000
0023
0000
,
0032
0023
2000
0000
0000
0030
0000
0000
,
0002
0000
0000
0000
0000
0000
0000
0000
0000
3000
0000
0000
0103
0000
1000
0000
,
0010
1000
0020
0000
0000
0000
0000
0000
0000
0000
0000
0000
0000
0000
0000
0000
,
2030
0000
3200
0000
0002
0000
0300
0000
0000
0000
0200
0003
0320
0000
2030
0000
,
3002
0203
2000
0000
0300
0000
0000
0000
,
0002
0000
0000
0000
3000
0000
1003
0010
,
0001
0010
2000
0000
0000
0000
0000
0000
0000
0000
0000
0000
0000
0000
0000
0000
,
3001
0010
0100
1000
0100
0010
0001
0100
,
0010
1000
0010
1000
0010
1000
0010
1000
0020
0000
1000
0000
0100
0000
0130
0000
,
0010
0100
0010
0100
0010
0100
0010
0100
0020
0000
1000
0000
0100
0000
0130
0000
,
0100
0001
0100
0001
0100
0001
0200
0000
0001
0000
0010
0000
0010
0000
0001
0000
,
0301
0010
0100
1000
0100
0010
0002
0000
1003
0000
2010
0000
3002
0000
0103
0000
,
0010
1000
0100
0010
0001
1000
0001
0000
1001
0000
0010
0000
1001
0000
0100
0000
,
0010
1000
0100
0010
0001
0100
0010
0000
0102
0000
0013
0000
2010
0000
3001
0000
,
1000
0001
1000
0100
1000
0010
1000
0001
1000
0100
1000
0010
1000
0100
0010
0001
,
0011
0000
0000
0000
,
1110
1011
1101
0111
,
0001
1000
0001
1000
0001
1000
0100
1000
0100
1000
0100
0010
0001
0000
0000
0000
,
1001
0010
1100
0001
0120
1000
0130
0000
,
0101
0000
0000
0001
0100
0000
0000
0100
0010
0000
0000
0010
1000
0000
0000
1000
,
0100
0000
0000
0100
0010
0000
0000
0010
0001
0000
0000
0000
1001
0000
0000
0000
,
1001
0000
0000
1000
0001
0000
0000
0001
0100
0000
0000
0100
1000
0000
0000
1000
,
0100
0000
0000
0100
0001
0000
0000
0001
0010
0000
0000
0010
0100
0000
0000
0000
,
2000
3002
0203
0000
0000
0000
0000
0000
,
0301
0100
0010
1000
0100
1000
0100
0010
0001
1000
0001
0100
0010
1000
0001
1000
,
0200
0000
0000
0000
,
0000
0000
0000
0000
,
2300
0000
0000
0000
,
3002
0000
0200
0003
2000
0300
0200
3000
2000
0300
0200
3000
0020
0300
0200
0030
,
0002
0300
0000
0000
0000
0000
0000
0000
,
0000
0000
0000
0000
0000
0000
0000
0000
0000
0000
0000
0000
0000
0000
0000
0003
,
1000
0001
0100
0010
1000
0000
0000
1000
0100
0000
0000
0100
0010
0000
0000
0010
,
0001
0000
0000
0001
0100
0000
0000
0100
0010
1000
0100
0010
0001
0000
0000
0001
,
0100
0000
0000
0010
1000
0000
0000
1000
0100
0000
0000
0100
0010
0001
0100
0010
,
0100
0000
0000
0010
1000
0000
0000
1000
0001
0000
0000
0001
0100
0000
0000
0100
,
0010
1000
0001
0010
0100
0000
0000
0010
0001
0000
0000
0001
0100
0000
0000
0100
,
0010
0000
0000
0010
1000
0100
0010
0001
0100
0000
0000
0100
0010
0000
0000
0010
,
1000
0000
0000
1000
0100
0000
0000
0100
0001
0000
0000
0001
0100
0000
0000
0100
,
0010
0000
0000
0010
0001
0000
0000
0001
0100
0000
0000
0010
1000
0100
0010
0000
,
2001
0001
0001
0000
3002
0000
0000
0100
,
0203
0000
1000
2300
0000
3100
0001
0010
,
0200
0000
0001
0002
0300
0103
2000
0100
,
0000
3001
0200
0001
0302
0010
0013
0000
,
0001
2000
0010
0000
3002
0000
0000
0010
,
0023
0000
1000
1000
0000
0031
0100
0010
,
0002
0000
0013
2000
0000
3001
0200
0001
,
0000
1000
2300
0000
3100
0002
0010
0013
,
0001
1000
0001
0000
1000
0001
1000
0000
0001
1000
0001
0000
1000
0001
1000
0000
,
0001
0100
0010
1000
0100
0000
0010
0000
0001
0000
0100
0000
0010
0000
1000
0000
,
0100
0010
0001
0010
0100
0000
1000
0000
0001
0000
0100
0000
1000
0000
0100
0000
,
0001
0100
0010
1000
0010
0000
1000
0000
0010
0000
0001
0000
0010
0000
0100
0000
,
0010
1000
0100
0010
0001
0010
0100
0000
1000
0000
0001
0000
0010
0000
0100
0000
,
0010
0100
1000
0010
0100
0010
1000
0000
0010
0000
0100
0000
1000
0000
0100
0000
,
0001
1000
0100
0000
1000
0001
0100
0000
0001
1000
0010
0000
1000
0001
0010
0001
,
0100
0001
1000
0100
,
0001
2000
0010
0000
3002
0000
0000
1003
,
0200
0000
0301
2000
0000
3010
0001
0100
,
0020
0000
0000
0000
2030
0000
0200
0000
3000
0000
0002
0300
0000
0000
0020
0000
,
0000
0000
0000
0033
0000
0000
0000
0000
;

//---------------dance-single - ----------------
#NOTES:
     dance-single:
     :
     Easy:
     4:
     0.248,0.333,0.128,0.000,0.000:
0000
0000
0000
0000
,
0000
0000
0000
0000
,
0000
0000
0000
0000
,
0000
0000
0000
0000
,
0001
0000
0000
0000
,
1000
0000
0000
0000
,
0010
0000
0000
0000
,
0100
0000
0000
0000
,
1000
0000
0100
0000
,
0010
0000
0001
0000
,
1000
0001
0100
0000
,
0001
1000
0100
0000
,
0010
0010
0010
0000
,
0100
0100
0100
0000
,
1000
0001
1000
0000
,
0001
0100
0001
0000
,
1000
0000
0000
0000
,
0001
0000
0000
0000
,
0110
0000
0000
0000
,
0001
0000
0000
0000
,
1100
0000
0000
0000
,
0110
0000
0000
0000
,
1000
0000
0000
0000
,
0100
1000
0100
0000
,
0010
0001
1000
0000
,
0001
1000
0100
0000
,
1000
0010
0100
0000
,
0001
0100
0010
0000
,
1000
0010
1000
0000
,
0001
0100
0001
0000
,
1000
0100
1000
0000
,
0010
0010
0000
0000
,
1001
0000
0000
0000
,
0001
1000
1001
0000
,
0000
0000
0000
0000
,
1000
0100
1000
0000
,
0001
0100
0010
0000
,
1000
0001
1000
0000
,
0001
1000
0100
0000
,
1000
0100
1000
0000
,
1001
0000
0000
0000
,
0000
0000
0000
0000
,
1001
0000
0000
0000
,
0000
0000
0000
0000
,
0110
0000
0000
0000
,
0001
1000
0100
1000
,
0001
0100
0010
0000
,
1000
0001
0100
0000
,
0001
1000
0100
1000
,
0001
0100
0010
0000
,
1000
0001
0100
0010
,
1000
0100
1000
0000
,
0001
1000
0001
1000
,
0010
0100
0010
0000
,
0100
0001
1000
0000
,
0001
1000
1001
0000
,
0001
0000
0000
0000
,
1000
0000
0000
0000
,
0010
0000
0010
0000
,
1000
0000
1000
0000
,
0001
0001
0001
0000
,
0100
0100
0100
0000
,
0010
1000
0010
0100
,
0001
1000
0100
1000
,
0100
0100
0100
0100
,
0010
0000
0000
0000
,
0001
1000
0001
1000
,
0001
0000
0000
0000
,
0010
0010
0010
0000
,
0100
0100
0100
0000
,
0010
1000
0100
0010
,
0001
0000
0000
0000
,
1100
0000
0000
0000
,
0101
0000
0000
0000
,
0110
0000
0000
0000
,
1001
0000
0000
0000
;

//---------------dance-single - BlueChaos----------------
#NOTES:
     dance-single:
     BlueChaos:
     Medium:
     6:
     0.575,0.778,0.237,0.316,0.000:
0000
0000
0000
0000
,
0000
0000
0000
0000
,
0000
0000
0000
0000
,
0000
0000
0000
0000
,
1000
0000
0000
0001
0000
0001
1000
0000
,
0001
1000
0001
0000
1000
0000
1000
0000
,
0001
0000
1000
0100
0000
0010
0000
0001
,
0100
0000
0001
0100
0001
0200
0001
0000
,
0301
0000
1000
0100
0000
0100
0000
0100
,
2000
0010
0010
3010
,
0010
0000
0010
1000
0000
1000
0000
1000
,
0001
0100
0010
1000
0010
1000
0010
0000
,
1000
0000
0100
0010
0000
0010
0000
0010
,
0002
1000
1000
1003
,
0001
0000
0100
0010
0000
0010
0000
1000
,
0100
0010
0001
0010
0100
1000
0100
0000
,
1000
0100
2000
0000
0000
3001
1000
0001
,
1000
0001
0200
0000
0000
0000
0000
0000
,
0320
0000
0000
0000
0000
0000
1030
0001
,
0010
0001
1000
0000
0000
0000
0000
0000
,
0002
1003
2000
3010
,
0020
0130
0200
0301
,
0002
0013
0020
0130
,
0200
0310
0020
0031
,
0001
1000
0001
0000
1000
0000
1000
0000
,
0001
0100
0001
0000
0100
0000
0100
0000
,
0010
1000
0010
0000
1000
0000
0001
0000
,
1000
0100
1000
0000
0100
0000
0100
0000
,
0010
0001
0010
0000
0001
0000
0001
0000
,
1000
0001
1000
0000
0001
0000
0001
0000
,
1000
0100
1000
0000
0001
0010
0001
0000
,
1000
0001
1000
0000
0001
0100
0010
0000
,
1001
0000
0000
0000
,
0011
0110
1100
1001
,
0001
0000
0001
0100
0000
0100
0000
0010
,
1000
0010
1000
0010
0100
0010
0100
0000
,
0110
0000
0010
1000
0100
0000
0100
1000
,
0020
0100
0100
0130
,
0110
0000
0100
0001
0010
0000
0010
0001
,
0200
0010
0010
0310
,
1000
0010
2000
0000
0000
0000
0000
0000
,
3010
0100
0001
1000
0100
0010
0001
1000
,
0200
0000
1000
0010
,
2300
0000
0010
0000
0001
0000
0000
0100
,
3200
0000
0000
0000
0000
0000
0000
0310
,
0001
0100
0001
0010
0001
1000
0001
0100
,
0010
1000
0001
1000
,
0001
0100
0010
0100
,
0001
0100
0001
0000
0100
0000
0100
0000
,
0010
1000
0010
0000
0100
0000
0100
0000
,
0001
1000
0001
0000
0010
0000
0010
0000
,
1000
0100
1000
0000
0001
0010
0001
0000
,
0100
0010
1000
0000
0010
0100
0001
0000
,
1000
0100
0010
0000
0001
1000
0001
0000
,
1000
0001
1000
0001
0100
0001
0100
0010
,
0100
0010
1000
0010
1000
0010
0100
0001
,
0101
0001
1000
0000
1000
0000
0000
1000
,
0100
0000
0100
0010
0000
0010
0001
0100
,
0010
0000
1000
0010
0000
0010
1000
0100
,
0000
0100
1000
0000
0001
0100
0001
0000
,
1001
0000
0010
0000
0101
0000
0000
0010
,
1000
0000
1000
0100
0000
0100
1000
0000
,
1001
0000
0001
0000
1001
0000
0001
1000
,
0000
1000
0001
0000
0100
0010
0100
0000
,
2002
3003
2020
3030
0220
0330
0202
0303
,
2002
0000
0000
3003
,
1000
0010
1000
0010
1000
0000
0010
0000
,
0100
0001
0100
0001
0100
0000
0001
0000
,
1000
0001
1000
0000
1001
0000
1001
0000
,
0100
0010
0100
0000
0110
0000
0110
0000
,
0010
1000
0100
0000
0100
1000
0001
0000
,
0001
0100
0010
0000
0010
1000
0001
0000
,
1000
0001
1000
0000
1001
0000
0000
1000
,
0100
0000
1000
0001
0000
0001
1000
0000
,
0001
0000
0001
0100
0000
0110
0000
2002
,
0000
3003
0000
0000
0000
0000
0000
0000
;

//---------------dance-single - BlueChaos----------------
#NOTES:
     dance-single:
     BlueChaos:
     Hard:
     9:
     0.750,0.928,0.237,0.266,0.321:
0000
0000
0000
0000
,
0000
0000
0000
0000
,
0000
0000
0000
0000
,
0000
0000
0000
0000
,
1000
0100
0010
0100
1000
0001
0100
0001
,
0101
0110
1010
1001
,
1000
0100
0010
0001
1000
0010
0100
0010
,
1000
0010
0100
0001
0001
0000
1001
0000
,
0001
0000
0000
0001
0100
0000
0000
0100
0010
0000
0000
0010
1000
0000
0000
1000
,
0100
0000
0000
0100
0010
0000
0000
0010
0001
0000
0000
0000
0011
0000
0000
0000
,
0001
0000
0000
0100
0001
0000
0000
0001
1000
0000
0000
1000
0100
0000
0000
0100
,
1000
0000
0000
1000
0010
0000
0100
0000
0001
0000
0010
0000
0100
0000
1000
0000
,
1001
0000
0000
0001
0100
0000
0000
0100
0001
0000
0000
0001
0010
0000
0000
0010
,
0001
0000
0000
0001
1000
0000
0000
1000
0001
0000
0000
0000
1001
0000
0000
0000
,
1100
0000
0000
1000
0100
0000
0000
1000
0010
0000
0000
1000
0001
0000
0000
1000
,
0010
0000
0000
0100
0010
0000
0100
0000
0001
0000
0010
0000
0100
0000
1000
0000
,
0001
0100
0020
0000
0000
1030
0100
0010
,
0100
1000
0002
0000
0000
0000
0000
0000
,
0203
0000
0000
0000
0000
0000
0301
1000
,
0100
1000
0200
0000
0000
0000
0000
0000
0000
0000
0000
0000
0000
0000
0000
0000
,
2300
0000
0000
0000
0000
3002
0023
0230
,
2300
3002
0203
0000
0000
0000
0000
0000
,
0302
0000
0000
0000
0000
0000
1003
0001
,
0100
0001
0200
0000
0000
0000
0000
0000
0000
0000
0000
0000
0000
0000
0300
0000
,
0001
0100
0010
1000
0100
1000
0010
1000
,
0001
0010
0001
1000
0001
0100
0001
0100
,
0001
0010
0100
0010
0001
1000
0001
0100
,
0010
1000
0010
0000
1000
0000
0100
0000
0010
0000
0001
0000
0010
0000
0100
0000
,
1000
0001
0100
0001
0010
0100
1000
0010
,
0100
0001
0010
0100
0010
0100
1000
0100
,
1000
0010
1000
0010
0100
0001
0100
0001
,
1000
0001
1000
0000
0001
0000
0010
0000
0001
0000
0100
0000
0010
0000
1000
0000
,
1001
0000
0000
0000
,
1001
1100
1001
0101
,
0001
0100
0001
0010
0001
1000
0001
0100
,
0001
0010
0001
0010
0100
1000
0001
0000
,
1001
0000
0000
0001
0100
0000
0000
0010
1000
0000
0000
0100
0010
0000
0000
0100
,
1000
0000
0000
0001
0100
0000
0000
0010
0100
0000
0000
0000
1001
0000
0000
0000
,
0001
0000
0000
0100
0001
0000
0000
0100
0010
0000
0000
1000
0100
0000
0000
0010
,
0001
0000
0000
0010
0100
0000
0000
1000
0010
0000
0000
0000
1010
0000
0000
0000
,
1000
0010
0200
0000
0000
0000
0000
0000
,
0301
0010
0100
1000
0001
0010
0100
1000
0010
0100
0001
1000
0100
0010
0100
1000
,
0002
0100
0010
1000
,
1003
0000
0100
0000
1000
0000
0100
0000
1000
0000
0010
0000
0100
0000
0001
0010
,
0200
0000
0000
0000
0000
0000
0000
1300
,
0100
0010
0001
1000
0100
0010
0100
1000
,
0002
0100
1000
0010
,
2003
0010
0001
3100
,
1000
0100
1000
0100
0010
0001
0010
0001
,
0010
0100
0010
0100
1000
0001
1000
0001
,
0100
0001
1000
0001
0010
0100
1000
0001
,
0010
0100
1000
0010
0100
0010
1000
0001
,
0010
0001
0100
0010
1000
0100
0010
0001
,
0010
0100
1000
0001
0100
0010
1000
0001
,
1000
0001
0010
0001
0010
0100
0010
0100
,
1000
0100
1000
0100
1000
0100
0010
0100
0010
0001
0010
0100
1000
0010
1000
0001
,
0100
0001
0010
0000
0011
0000
0000
0001
,
0100
0000
0100
0010
0000
0010
1000
0100
,
0010
0000
0100
1000
0000
1000
0010
0100
,
0000
0100
0001
0000
0001
0100
0010
0000
,
1000
0001
0110
0000
1001
0000
0000
0100
,
0010
0000
0010
0100
0000
0100
0001
0010
,
0011
0000
0001
0001
0000
1000
1000
0010
,
0000
1000
1010
0000
0001
0010
0010
0000
,
0002
0010
0023
0100
0230
1000
2300
0001
,
3001
0100
0010
1000
0100
0010
0001
0100
,
0001
1000
0001
1000
0001
0000
1000
0000
0010
0000
0100
0000
0010
0000
1000
0000
,
0001
1000
0001
0000
0010
0000
0100
0000
1000
0000
0100
0000
1000
0000
0010
0000
,
1000
0010
1000
0000
0010
0000
0100
0000
0001
0000
1000
0000
0001
0000
0010
0000
,
0001
0010
0001
0000
0010
0000
0100
0000
1000
0000
0010
0000
1000
0000
0001
0000
,
0100
0001
0000
0000
0001
0010
0000
0000
0010
0100
0000
0000
0100
1000
0100
1000
,
0010
0100
0001
1000
0001
0010
0100
0010
,
1001
2000
0010
0000
3010
0000
0000
0010
,
2000
0000
3100
0020
0000
0031
0100
0010
,
1000
0000
0001
0010
0000
0100
0000
2002
,
0000
3003
0000
0000
;
