#TITLE:Halcyon;
#SUBTITLE:;
#ARTIST:Lollipop;
#GENRE:Calm Dance;
#TITLETRANSLIT:;
#SUBTITLETRANSLIT:;
#ARTISTTRANSLIT:;
#CREDIT:;
#BANNER:Halcyon.png;
#BACKGROUND:Halcyon-bg.png;
#LYRICSPATH:;
#CDTITLE:;
#MUSIC:Halcyon.ogg;
#OFFSET:-0.000;
#SAMPLESTART:13.201;
#SAMPLELENGTH:14.000;
#SELECTABLE:YES;
#BPMS:0.000=145.000;
#STOPS:28.000=0.828
,94.000=0.828
,160.000=0.828
;
#BGCHANGES:;

//---------------dance-single - Renard----------------
#NOTES:
     dance-single:
     Renard:
     Challenge:
     8:
     0.595,0.602,0.183,0.183,0.244:
0000
0000
0000
0000
,
0000
0000
0000
0000
,
0000
0000
0000
0000
,
0000
0000
0000
0000
,
1000
0000
0000
0010
0000
0000
0100
0000
2001
0000
0000
0000
3010
0000
0000
0000
,
0110
0000
0000
0101
0000
0000
0010
0100
0001
0000
0100
0000
1001
0000
0000
0000
,
0001
0000
0000
0100
0000
0000
0010
0000
1002
0000
0000
0000
0103
0000
0000
0000
,
0110
0000
0000
0000
0000
0000
0000
0000
0100
0000
0010
0000
1000
0000
0000
1000
,
0001
0000
0010
0000
1000
0000
0010
0000
0001
0000
0000
0001
0100
0000
0010
0000
,
1000
0000
0001
0000
1000
0000
0000
0000
0010
0000
0100
0000
0001
0000
0000
0001
,
1000
0000
0100
0000
1000
0000
0001
0000
0100
0000
0000
0100
1000
0000
0100
0000
,
0001
0000
0010
0000
0100
0000
1000
0000
0100
0000
0001
0000
0100
0000
0000
0100
,
1000
0000
0010
0000
0100
0000
0001
0000
0010
0000
0000
0010
0001
0000
0100
0000
,
0010
0000
1000
0000
0100
0000
0010
0000
0001
0000
0010
0000
0100
0000
0000
0100
,
1000
0000
0010
0000
0100
0000
0001
0000
0100
0000
0000
0100
1000
0000
0100
0000
,
0010
0000
1000
0000
0100
0000
1000
0000
0010
0000
0100
0000
0001
0000
0000
0001
,
1000
0000
0100
0000
0001
0000
0100
0000
1000
0000
0000
1000
0010
0000
0100
0000
,
0001
0000
1000
0000
0001
0000
0000
0000
0100
0000
0010
0000
1000
0000
0000
1000
,
0001
0000
0010
0000
0001
0000
1000
0000
0010
0000
0000
0010
0001
0000
0010
0000
,
1000
0000
0100
0000
0010
0000
0001
0000
0010
0000
1000
0000
0010
0000
0000
0010
,
0001
0000
0100
0000
0010
0000
1000
0000
0100
0000
0000
0100
1000
0000
0010
0000
,
0100
0000
0001
0000
0010
0000
0100
0000
1000
0000
0100
0000
0010
0000
0000
0010
,
0001
0000
0100
0000
0010
0000
1000
0000
0010
0000
0000
0010
0001
0000
0010
0000
,
0100
0001
0010
0100
1001
0000
0000
0000
,
0001
0000
0000
1000
0000
0100
0010
0000
0000
0000
0001
0000
0002
0000
0000
0000
,
0000
0000
1000
0000
0200
0000
0000
0000
0010
0000
0000
1303
0000
0000
0001
0000
,
0100
0000
0000
0010
0000
1000
0100
0000
0000
0000
0010
0001
0010
0000
0100
0000
,
1000
0000
0010
0000
0100
0000
0001
0000
1100
0000
0000
1010
0000
0000
2000
0000
,
0002
0000
3000
0200
0000
0003
0020
0000
0330
0000
0010
0000
1001
0000
0000
0000
,
1000
0000
0001
0000
0100
0000
0000
0010
1000
0000
0000
0001
0100
0000
0010
0000
,
1000
0000
1000
0100
0000
0100
0010
0000
0000
0000
0001
0000
1100
0000
0000
0000
,
0000
0100
0010
0000
0001
0000
0010
0100
0000
1000
0100
0010
0001
0010
0100
1000
,
0010
0000
0010
0100
0000
0200
0002
0000
0000
0000
1000
0000
1313
0000
0000
0000
,
0100
0000
0001
0000
0010
0000
0000
0000
0100
0000
0100
1000
0000
1000
0010
0000
,
0100
0000
0000
0001
0000
0000
1000
0000
0000
0000
0200
0000
2000
0000
0000
0000
,
3300
0000
1000
0000
0010
0000
0100
0000
0001
0000
0001
1000
0000
1000
0001
0000
,
0100
0000
0000
0010
0000
0000
1000
0000
0000
0000
0200
0000
2000
0000
0000
0000
,
3300
0200
2000
0000
0010
0000
3301
0000
,
1100
0000
0000
1010
0000
0000
0101
0000
0000
0000
2000
0000
0002
0000
3000
0000
,
1003
0000
0010
0000
0100
0000
0001
0000
0100
0000
0000
1001
0000
0000
0100
0000
,
1001
0000
0000
0000
0000
1000
0100
0010
,
0001
0010
0100
1000
0000
1000
0010
0100
,
0001
0100
0010
1000
0000
1000
0100
0001
,
0100
1000
0010
0001
0000
0001
0010
1000
,
0001
0100
1000
0100
0000
0010
1000
0100
,
0010
0001
0010
0100
0000
1000
0100
0001
,
0100
0010
0001
0010
0000
1000
0010
0100
,
1000
0100
0001
0100
0000
0010
0100
1000
,
0001
0100
0010
1000
0010
0100
0001
0100
,
0010
1000
0100
0010
0100
1000
0010
0100
,
0001
0100
1000
0100
0001
0010
0100
1000
,
0010
0100
0001
0100
0010
0100
0001
0010
,
1000
0010
0100
1000
0010
0100
0001
0100
,
0010
1000
0010
0001
0010
0100
1000
0100
,
0001
0100
0010
1000
0001
0010
0100
1000
,
0100
0010
0001
0100
1000
0100
0010
0001
,
0010
0100
1000
0100
1001
0000
0000
0000
;

//---------------dance-single - Renard----------------
#NOTES:
     dance-single:
     Renard:
     Easy:
     2:
     0.220,0.258,0.081,0.000,0.000:
0000
0000
0000
0000
,
0000
0000
0000
0000
,
0000
0000
0000
0000
,
0000
0000
0000
0000
,
1000
0000
0010
0000
,
1000
0000
0010
0000
,
0100
0000
0001
0000
,
1001
0000
1000
0010
,
0100
0000
0100
0000
,
0100
0000
0001
0100
,
0010
0000
0010
0000
,
0010
0000
1000
0100
,
0010
0000
0010
0000
,
0010
0000
0001
0010
,
0100
0000
0100
0000
,
0100
0000
1000
0000
,
0001
1000
0000
0000
0001
0000
0000
0000
,
1000
0000
0001
0000
,
0100
0010
0000
0000
1000
0000
0000
0000
,
0100
0000
1000
0000
,
0001
0100
0000
0000
0010
0000
0000
0000
,
1000
0000
0100
0000
,
0010
0001
0000
0000
0010
0000
0000
0000
,
0100
0000
1001
0000
,
1000
0000
0001
0000
,
0000
0100
0010
0000
1000
0000
0000
0000
,
0010
0000
0100
0000
,
0000
0001
1000
0000
0010
0000
0000
0000
,
0100
0000
0001
0000
,
0000
1000
0100
0000
0010
0000
0000
0000
,
0001
0000
0010
0000
,
0000
0100
1000
0000
0010
0000
0000
0000
,
0100
0100
0010
0010
,
0100
0100
0010
0000
,
1000
1000
0001
0001
,
1000
1000
0001
0000
,
0100
0100
0001
0001
,
1000
1000
0010
0000
,
0010
0010
1000
1000
,
0001
0001
0100
0000
,
1001
0000
1000
0000
,
0000
0000
0001
0100
0001
0000
0000
0000
,
0000
0000
1000
0100
1000
0000
0000
0000
,
0000
0000
0001
1000
0001
0000
0000
0000
,
1000
0000
0010
0000
,
0000
0000
0100
0001
0100
0000
0000
0000
,
0000
0000
0010
1000
0010
0000
0000
0000
,
0000
0000
1000
0100
1000
0000
0000
0000
,
0001
0000
1010
0000
,
0100
0001
0010
0100
,
1000
0000
0101
0000
,
0010
1000
0100
0010
,
0001
0000
1001
0000
,
0010
0100
0010
1000
,
0010
0000
1001
0000
,
0010
0100
0001
0010
,
0001
0000
1001
0000
;

//---------------dance-single - Copied from Renard----------------
#NOTES:
     dance-single:
     Copied from Renard:
     Medium:
     5:
     0.350,0.316,0.162,0.000,0.000:
0000
0000
0000
0000
,
0000
0000
0000
0000
,
0000
0000
0000
0000
,
0000
0000
0000
0000
,
1000
0001
0100
0010
,
1000
0000
0100
0000
0010
0000
0001
0010
,
0001
0010
0100
1000
,
1001
0000
1000
0010
,
0100
0000
0001
0000
0100
0000
0010
1000
,
0010
1000
0010
0000
0100
0000
0001
0000
,
0010
0100
1000
0010
,
0100
0001
0100
0001
0100
0000
0010
0000
,
1000
0100
1000
0010
,
0100
0001
0100
0001
0100
0000
0010
0000
,
1000
0100
0010
0100
,
1000
0100
1000
0100
1000
0000
0010
0000
,
0100
0001
1010
0101
,
1001
0000
0010
0100
,
0001
1000
0110
1001
,
1010
0000
0100
0001
,
0010
0100
1010
1001
,
0101
0000
0010
0100
,
0001
1000
0101
0110
,
1010
0000
1001
0000
,
1000
0000
0001
0000
0100
0010
1000
0000
,
0010
0100
0001
1000
,
0100
0000
0010
0000
0001
0010
0100
0000
,
1000
0010
0100
0001
,
0100
0000
0010
0000
1000
0001
1000
0000
,
0010
0100
0001
1000
,
1000
0000
0100
0010
0100
0000
0001
0000
,
0100
0000
0010
0001
0100
0000
0010
0000
,
1000
0100
1000
0010
,
0100
0000
0001
0100
0001
0000
0100
0000
,
0010
1000
0100
1000
,
0001
0000
0100
0001
0100
0000
0001
0000
,
1000
0100
1000
0010
,
0100
0000
0001
1000
0001
0000
1000
0000
,
0010
0100
0001
1000
,
0100
0000
1000
0100
1000
0000
0010
0000
,
1001
0000
1000
0010
,
0100
0000
0001
1000
0000
0000
0010
0000
,
0100
0000
0001
0010
0000
0000
0100
0000
,
1000
0000
0010
0100
0000
0000
0001
0000
,
0100
0000
0010
1000
0000
0000
0100
0000
,
0010
0000
0001
0010
0000
0000
0100
0000
,
1000
0000
0001
1000
0000
0000
0001
0000
,
0100
0000
0010
1000
0000
0000
0010
0000
,
0100
0000
0001
1000
,
0010
0100
0001
0100
,
0010
0000
1000
0010
1000
0000
0010
0000
,
0100
0001
0010
0100
,
1000
0000
0010
1000
0010
0000
0100
0000
,
0001
0010
0001
0100
,
0010
0000
1000
0001
1000
0000
0001
0000
,
0100
0010
1000
0001
,
0100
0010
1000
0000
1001
0000
0000
0000
;

//---------------dance-single - Renard----------------
#NOTES:
     dance-single:
     Renard:
     Hard:
     7:
     0.397,0.459,0.071,0.000,0.162: // measure 1
0000
0000
0000
0000
,  // measure 2
0000
0000
0000
0000
,  // measure 3
0000
0000
0000
0000
,  // measure 4
0000
0000
0000
0000
,  // measure 5
1000
0000
0000
1000
0000
0000
1000
0000
0001
0000
0000
0000
0001
0000
0001
0000
,  // measure 6
0100
0100
0100
0000
,  // measure 7
0010
0000
0000
0010
0000
0000
0010
0000
1000
0000
0000
1000
0000
0000
1000
0000
,  // measure 8
0001
0000
0000
0000
0000
0000
0000
0000
0000
0000
0000
0000
0100
0000
0000
0100
,  // measure 9
0010
0000
0000
0000
0000
0000
0000
0000
0000
0000
0000
0000
1000
0000
0000
1000
,  // measure 10
0001
0000
0000
0000
0000
0000
0000
0000
0000
0000
0000
0000
0100
0000
0000
0100
,  // measure 11
0010
0000
0000
0000
1000
0010
1000
0000
,  // measure 12
0001
0000
0000
0000
0100
0000
0000
0000
0000
0000
0000
0000
0010
0000
0000
0010
,  // measure 13
1000
0000
0000
0000
0000
0000
0000
0000
0100
0000
0000
0000
1000
0000
0000
1000
,  // measure 14
0010
0000
0000
0000
0000
0000
0000
0000
0100
0000
0000
0000
0001
0000
0000
0001
,  // measure 15
0010
0000
0000
0000
0001
0000
0100
0001
,  // measure 16
1000
0010
0100
0000
0001
0100
0010
0100
,  // measure 17
0001
0000
0100
0000
0010
1000
0100
0010
,  // measure 18
0100
1000
0010
0000
0100
0001
0100
0010
,  // measure 19
1000
0000
0100
0000
0010
0001
0010
0100
,  // measure 20
1000
0000
0010
0000
0100
0000
0000
0000
0001
0000
0000
0000
0100
0000
0000
0100
,  // measure 21
0010
0000
1000
0000
0100
0000
0000
0000
0010
0000
0000
0000
0001
0000
0000
0001
,  // measure 22
0010
0000
0100
0000
1000
0000
0000
0000
0010
0000
0000
0000
0100
0000
0000
0100
,  // measure 23
0001
0100
0010
0000
1000
0000
0100
1000
,  // measure 24
0010
0100
1001
0000
,  // measure 25
1000
0000
0000
0010
0000
0000
0100
0000
0000
0000
0001
0000
1000
0000
0000
0000
,  // measure 26
0000
0000
0010
0000
0100
0000
0000
0000
0001
0000
0000
0010
0000
0000
0100
0000
,  // measure 27
1000
0000
0000
0010
0000
0000
0100
0000
0000
0000
0001
0000
1000
0000
0000
0000
,  // measure 28
0000
0000
0100
0000
1000
0000
0000
0000
0010
0000
0000
0100
0000
0000
0001
0000
,  // measure 29
0010
0000
0000
0100
0000
0000
1000
0000
0000
0000
0010
0000
0100
0000
0000
0000
,  // measure 30
0000
0001
0100
0000
0010
0000
1000
0000
,  // measure 31
0100
0000
0000
1000
0000
0000
0010
0000
0000
0000
0100
0000
0001
0000
0000
0000
,  // measure 32
0000
0010
0100
0000
1000
0000
0010
0000
,  // measure 33
0100
0000
0000
0001
0000
0000
0100
0000
0000
0000
0010
0000
1000
0000
0000
0000
,  // measure 34
0000
0000
0100
0000
1000
0000
0000
0000
0010
0000
0000
0100
0000
0000
0001
0000
,  // measure 35
0010
0000
0000
0001
0000
0000
1000
0000
0000
0000
0100
0000
1000
0000
0000
0000
,  // measure 36
0000
0000
0010
0000
1000
0000
0000
0000
0001
0000
0000
1000
0000
0000
0001
0000
,  // measure 37
1000
0000
0000
0010
0000
0000
0100
0000
0000
0000
0001
0000
1001
0000
0000
0000
,  // measure 38
0000
1010
1001
1100
,  // measure 39
0001
0000
0000
1000
0000
0000
0010
0000
0000
0000
0100
0000
0001
0000
0000
0000
,  // measure 40
0000
0000
0010
0000
0001
0000
0000
0000
1000
0000
0000
0010
0000
0000
0100
0000
,  // measure 41
1001
0000
0000
0000
1000
0010
0100
0000
,  // measure 42
0001
0000
1000
0001
0000
0000
0100
0000
,  // measure 43
0001
0000
1000
0100
0000
0000
0001
0000
,  // measure 44
0100
0000
1000
0010
0000
0000
0100
0000
,  // measure 45
0001
0000
0100
1000
0000
0000
0100
0000
,  // measure 46
0001
0000
0010
1000
0000
0000
0010
0000
,  // measure 47
0001
0000
0100
0010
0000
0000
1000
0000
,  // measure 48
0100
0000
0010
0001
0010
0000
0100
0000
,  // measure 49
1000
0000
0000
0000
0100
0000
1000
0000
0100
0000
0000
0000
1000
0000
0000
1000
,  // measure 50
0010
0000
0100
0000
0001
0000
0010
0000
0100
0000
0000
0000
1000
0000
0000
1000
,  // measure 51
0010
0000
0100
0000
0010
0000
0100
0000
0001
0000
0000
0000
0100
0000
0000
0100
,  // measure 52
0010
0000
1000
0000
0100
0000
0010
0000
0001
0000
0000
0000
0010
0000
0000
0010
,  // measure 53
0100
0000
1000
0000
0010
0000
0100
0000
0001
0000
0000
0000
0100
0000
0000
0100
,  // measure 54
0010
0000
1000
0000
0100
0000
1000
0000
0010
0000
0000
0000
0100
0000
0000
0100
,  // measure 55
0001
0000
0010
0000
0100
0000
1000
0000
0010
0000
0000
0000
0100
0000
0000
0100
,  // measure 56
0001
0010
0100
1000
0010
0100
0001
0100
,  // measure 57
0010
1000
0100
0010
1001
0000
0000
0000
;
