#TITLE:Hac't;
#SUBTITLE:;
#ARTIST:Kitsune²;
#TITLETRANSLIT:;
#SUBTITLETRANSLIT:;
#ARTISTTRANSLIT:;
#CREDIT:;
#BANNER:Hact-bn.png;
#BACKGROUND:hact-bg.png;
#LYRICSPATH:;
#CDTITLE:;
#MUSIC:hact.ogg;
#OFFSET:0.000;
#SAMPLESTART:61.538;
#SAMPLELENGTH:12.000;
#SELECTABLE:YES;
#BPMS:0.000=156.000;
#STOPS:;
#BGCHANGES:;
#GENRE:Chiptune;

//---------------dance-single - Renard----------------
#NOTES:
     dance-single:
     Renard:
     Hard:
     8:
     0.607,0.541,0.186,0.116,0.075:
0000
0000
0000
0000
,
0000
0000
0000
0000
,
0000
0000
0000
0000
,
0000
0000
0000
0000
,
1000
0100
1000
0010
0000
0010
0100
0001
,
0010
0002
0100
0000
1000
0000
0013
0000
,
0012
0000
0103
0000
0100
0010
1000
0200
,
1000
0010
0001
0010
,
0310
0100
1000
0010
0100
0001
0100
0010
,
0100
0001
0200
0000
0001
0000
0000
0000
0010
0000
0000
0000
1000
0000
0000
0000
,
0310
1000
0100
0001
0100
0010
0001
0020
,
0100
0001
0100
1000
,
0031
0100
0010
1000
0000
1000
0010
0100
,
0001
0200
0001
0000
0010
0000
0302
0000
,
0013
0100
1000
0100
0000
0010
0001
0200
,
0001
0010
1000
0010
,
0310
1000
0100
1000
0100
0010
0001
0100
,
0001
0010
0002
0000
0010
0000
0000
0000
0100
0000
0000
0000
1000
0000
0000
0000
,
1003
0010
0100
0001
0010
0001
0100
0020
,
0100
0100
1000
0001
,
0130
0000
0010
0100
0010
0000
1000
0000
0010
0000
0100
0000
0001
0000
0000
0000
,
1000
0000
0100
0010
0100
0000
0010
0000
0001
0000
1000
0000
0010
0000
0000
0000
,
1000
0000
0001
1000
0001
0000
1000
0000
0100
0000
0010
0000
0001
0000
0000
0000
,
1000
0000
0000
0000
1000
0000
0000
0000
1000
0000
0000
1000
0001
1000
0001
0000
,
0010
0100
1000
0100
0010
0100
1000
0010
,
0100
0001
0100
0010
1000
0100
1000
0010
,
0100
0001
0100
0010
0000
0010
1000
0100
,
0010
0001
0010
0000
0100
1000
0001
1000
,
0001
0100
0001
1000
0000
1000
0100
1000
,
0010
0100
0001
0010
0000
0010
0001
0100
,
0010
1000
0100
0000
0100
1000
0010
0000
,
0100
0000
0001
0000
0010
0000
0100
0000
1000
0000
0001
0000
1000
0001
1000
0000
,
0100
0010
0001
0010
0100
0010
0001
0100
,
0010
1000
0010
0100
0001
0010
0001
0100
,
0010
1000
0010
0100
0000
0100
0001
0010
,
0100
1000
0100
0000
0010
0001
1000
0001
,
1000
0010
1000
0001
0000
0001
0010
0001
,
0100
0010
1000
0100
0000
0100
1000
0010
,
0100
0001
0010
0000
0010
0001
0100
0000
,
0010
0000
1000
0000
0100
0000
0010
0000
0001
0000
1000
0000
0001
1000
0001
0000
,
1001
0000
0100
0010
1000
0100
0010
0000
,
0110
0000
0010
0001
0100
0010
1000
0000
,
1001
0000
1000
0010
0100
0001
1000
0000
,
0001
0100
0010
1000
0100
0000
1000
0001
,
1001
0000
0010
1000
0100
0010
0001
0000
,
0110
0000
0010
0100
1000
0010
0100
0000
,
0101
0000
1010
0000
1000
0100
0010
0001
,
0000
0001
0010
0000
0011
0000
1100
0000
,
1001
0000
0010
0100
0001
0010
0100
0000
,
0110
0000
0100
1000
0010
0100
0001
0000
,
1001
0000
0001
0100
0010
1000
0001
0000
,
1000
0010
0100
0001
0010
0000
0001
1000
,
1001
0000
0100
0001
0010
0100
1000
0000
,
0110
0000
0100
0010
0001
0100
0010
0000
,
1000
0010
0000
0010
0100
0000
0100
0001
0000
0001
1000
0000
0001
0000
1001
0000
;

//---------------dance-single - Renard----------------
#NOTES:
     dance-single:
     Renard:
     Medium:
     6:
     0.395,0.414,0.279,0.000,0.000:
0000
0000
0000
0000
,
0000
0000
0000
0000
,
0000
0000
0000
0000
,
0000
0000
0000
0000
,
0001
0000
1000
0100
0000
0010
0001
0010
,
0000
0100
0000
0000
1000
0000
0010
0000
,
0100
0000
0001
1000
0000
0100
1000
0010
,
0000
0100
0001
1000
,
0001
0000
1000
0100
0000
1000
0001
0000
,
0100
0001
0000
0000
0000
0000
1000
0000
,
0100
0000
0010
0000
0001
1000
0001
1000
,
0000
0001
0100
0010
,
1010
0000
0100
0001
0000
0010
0100
1000
,
0000
0010
0000
0000
0000
0000
0010
0000
,
1001
0000
1010
0000
0000
0100
0001
0010
,
0000
0100
1000
0010
,
0100
0000
0001
1000
0000
0000
0100
0000
,
1000
0001
1000
0000
0001
0000
0100
0000
,
0001
0000
1000
0000
0100
0010
0000
1001
,
0000
0000
0001
0000
1000
0000
0010
0100
,
0001
0001
1000
1000
,
0001
0100
0010
1000
,
1000
1000
0001
0001
,
1000
0000
0000
0000
0000
0001
1000
0000
,
0001
0000
1000
0010
0000
0100
0001
1000
,
0000
0001
0100
0010
,
1000
0000
0100
0010
0000
0001
1000
0001
,
0000
0100
0000
0000
0010
0000
1000
0100
,
1000
0000
0010
0100
0000
0001
1000
0001
,
0000
0000
0100
0010
0000
1000
0100
0010
,
0000
0001
0000
0000
0010
0000
0100
0000
,
1000
0010
0100
0001
,
0110
0000
0000
0101
0000
1001
0000
0000
,
1100
0010
0001
0100
,
1001
0000
0000
1010
0000
0000
0101
0000
,
1001
0000
1000
0000
0100
0000
0010
0001
,
0100
0000
0001
0100
0000
0000
0010
1000
,
0000
0000
0100
1000
0000
0001
0000
0010
,
0000
0100
0000
0000
1000
0000
0010
0000
,
0100
0000
0001
1000
0001
0000
1000
0010
,
1000
0001
0100
0010
,
1000
0000
0100
0010
0001
0000
1000
0000
,
0101
0000
1010
0000
0000
0001
0100
0010
,
0000
1000
0010
0100
,
0101
0010
1000
0100
,
1100
0010
0001
0100
,
0101
0000
0110
0000
0000
1000
0010
0100
,
0000
0000
0001
1000
,
0100
0110
0011
0000
,
0100
1010
1001
0000
,
1100
0000
0011
0000
0000
0001
0100
0010
,
0000
1000
0010
0100
,
0001
0100
1000
0100
,
0001
0010
1000
0010
,
0001
0010
0100
0000
0000
1000
0100
0001
;

//---------------dance-single - Renard----------------
#NOTES:
     dance-single:
     Renard:
     Easy:
     3:
     0.277,0.318,0.174,0.035,0.000: // measure 1
0000
0000
0000
0000
,  // measure 2
0000
0000
0000
0000
,  // measure 3
0000
0000
0000
0000
,  // measure 4
0000
0000
0000
0000
,  // measure 5
1000
0001
0000
0100
,  // measure 6
0010
1000
0000
0100
,  // measure 7
0010
0001
0000
0100
,  // measure 8
0001
0000
1000
0000
,  // measure 9
0001
1000
0000
0100
,  // measure 10
1000
0010
0000
0100
,  // measure 11
0001
1000
0001
0100
,  // measure 12
0010
0000
0010
0000
,  // measure 13
1000
0100
0000
0010
,  // measure 14
0001
0010
0000
0100
,  // measure 15
1000
0001
1000
0010
,  // measure 16
0100
0100
0100
0000
,  // measure 17
0001
1000
0000
0100
,  // measure 18
1000
0001
0000
0010
,  // measure 19
0001
1000
0010
1000
,  // measure 20
0001
0100
0001
1000
,  // measure 21
0001
0001
1000
1000
,  // measure 22
0001
1000
0001
1000
,  // measure 23
0001
0001
1000
1000
,  // measure 24
0001
1000
0000
1001
,  // measure 25
1000
1000
0010
0010
,  // measure 26
0100
0000
0100
0000
,  // measure 27
0001
0001
0010
0001
,  // measure 28
1000
0010
0010
0000
,  // measure 29
0100
0000
0001
0000
,  // measure 30
1000
0000
0100
0000
,  // measure 31
0020
0000
0000
0000
,  // measure 32
0032
0000
0000
0000
,  // measure 33
0103
0000
0001
1000
,  // measure 34
0100
0000
1000
0000
,  // measure 35
0001
0000
0010
0100
,  // measure 36
1000
0000
0010
0000
,  // measure 37
0100
0001
0100
0010
,  // measure 38
1000
0000
1000
0000
,  // measure 39
0200
0000
0000
0000
,  // measure 40
0310
0001
0010
0100
,  // measure 41
1001
0000
0000
0010
,  // measure 42
1001
0000
0000
0100
,  // measure 43
1001
1001
0000
1000
,  // measure 44
0010
0100
0001
0000
,  // measure 45
0110
0000
0000
1000
,  // measure 46
0110
0000
0000
0001
,  // measure 47
0110
0110
0000
1000
,  // measure 48
0010
0100
0001
0000
,  // measure 49
1000
1000
0001
0001
,  // measure 50
0100
0100
0010
0010
,  // measure 51
1000
0010
0000
0101
,  // measure 52
0101
0000
0001
0010
,  // measure 53
0100
0000
0100
1000
,  // measure 54
0010
0100
0001
0000
,  // measure 55
1001
0000
1001
0000
0000
1010
0000
0101
;
